Зловещие мертвецы / The Evil Dead (Трилогия) (1981-1992) BDRip от Youtracker

Статистика раздачи
Размер: 4.36 ГБ | Добавлен: 10 апр 2013, 22:41 | Скачали: 4
Сидеров: 104  [0 байт/сек]    Личеров: 3  [0 байт/сек]

Сообщение Гость » 10 апр 2013, 22:41

Зловещие мертвецы / The Evil Dead





Страна: США
Жанр: ужасы, фэнтези, боевик, комедия
Год выпуска: 1981
Продолжительность: 01:25:26

Перевод: Профессиональный (многоголосый закадровый) Киномания
Cубтитры: нет
Режиссер: Сэм Рэйми / Sam Raimi

В фильме снимались: Брюс Кэмпбелл, Эллен Сэндвайсс, Ричард Де Мэннинкор, Бетси Бейкер, Тереза Тилли, Филип А. Гиллис, Дороти Тейперт, Шерил Гаттридж, Барбара Кэри, Дэвид Хортон

Вкратце: Молодые люди снимают на выходные загородный дом. Находится он в непролазной глуши, выглядит мрачно, а кругом — ни души. Аренда стоит копейки, но не потому, что он того и гляди развалится…
Раньше здесь жил археолог, после которого в подвале остались различные мистические артефакты. Например, книга мертвых, предметы неизвестных магических культов и магнитофон с записью заклинания на непонятном языке. Ребята запись прослушали… С наступлением темноты им предстоит встретиться с духами, которых они разбудили!

Качество видео: BDRip
Формат видео: AVI
Исходник: BDRemux
Видео: 720x384 (1.88:1), 23.976 fps, XviD build 65 ~2039 kbps avg, 0.31 bit/pixel
Аудио: 48 kHz, AC3 Dolby Digital, 3/2 (L,C,R,l,r) + LFE ch, ~384 kbps
Общее
Полное имя : E:My_ripЗловещие мертвецы_ТрилогияThe.Evil.Dead.1981.BDRip.MVO.[Youtracker].ot.Дядя_Лёша.avi
Формат : AVI
Формат/Информация : Audio Video Interleave
Размер файла : 1,45 Гбайт
Продолжительность : 1 ч. 25 м.
Общий поток : 2433 Кбит/сек
Название фильма : The.Evil.Dead.1981.BDRip.MVO.[Youtracker].ot.Дядя_Лёша
Программа кодирования : VirtualDubMod 1.5.10.3 | http://www.virtualdub-fr.org || (build 2550/release)
Правообладатель : Youtracker.net

Видео
Идентификатор : 0
Формат : MPEG-4 Visual
Профиль формата : Advanced Simple@L5
Параметр BVOP формата : 2
Параметр QPel формата : Нет
Параметр GMC формата : Без точки перехода
Параметр матрицы формата : Выборочная
Идентификатор кодека : XVID
Идентификатор кодека/Подсказка : XviD
Продолжительность : 1 ч. 25 м.
Битрейт : 2040 Кбит/сек
Ширина : 720 пикселей
Высота : 384 пикселя
Соотношение сторон : 1,85:1
Частота кадров : 23,976 кадра/сек
Цветовое пространство : YUV
Субдискретизация насыщенности : 4:2:0
Битовая глубина : 8 бит
Тип развёртки : Прогрессивная
Метод сжатия : С потерями
Бит/(Пиксели*Кадры) : 0.308
Размер потока : 1,22 Гбайт (84%)
Библиотека кодирования : XviD 65

Аудио
Идентификатор : 1
Формат : AC-3
Формат/Информация : Audio Coding 3
Расширение режима : CM (complete main)
Параметр Endianness формата : Big
Идентификатор кодека : 2000
Продолжительность : 1 ч. 25 м.
Вид битрейта : Постоянный
Битрейт : 384 Кбит/сек
Каналы : 6 каналов
Расположение каналов : Front: L C R, Side: L R, LFE
Частота : 48,0 КГц
Битовая глубина : 16 бит
Метод сжатия : С потерями
Размер потока : 235 Мбайт (16%)
Выравнивание : Разделение по промежуткам
Продолжительность промежутка : 42 мс. (1,00 видеокадр)
Время предзагрузки промежутка : 500 мс.









Зловещие мертвецы 2 / Evil Dead II

#777

Страна: США
Жанр: ужасы, фэнтези, боевик, комедия
Год выпуска: 1987
Продолжительность: 01:24:14

Перевод: Профессиональный (многоголосый закадровый) Киномания
Cубтитры: нет
Режиссер: Сэм Рэйми / Sam Raimi

В фильме снимались: Брюс Кэмпбелл, Сара Берри, Дэн Хикс (Незваный Гость), Кэсси ДеПайва, Тед Рейми, Дениз Бикслер, Ричард Домайер, Джон Пикс, Лу Хэнкок

Вкратце: Молодой человек по имени Эш и девушка Линда приезжают в маленький домик, затерянный в лесах, с целью чудесно и романтично провести время. Осматривая дом, Эш находит старинную магическую книгу "Некрономикон" и магнитофон, на котором записаны таинственные магические заклинания. Но, будучи воспроизведенными, эти заклинания пробуждают могущественных духов, которые стремяться вселиться в живую в плоть. И Эшу с Линдой предстоит теперь встретиться с целой армией зловещих мертвецов!

Качество видео: BDRip
Формат видео: AVI
Исходник: BDRemux
Видео: 720x384 (1.88:1), 23.976 fps, XviD build 65 ~2076 kbps avg, 0.31 bit/pixel
Аудио: 48 kHz, AC3 Dolby Digital, 3/2 (L,C,R,l,r) + LFE ch, ~384 kbps
Общее
Полное имя : E:My_ripЗловещие мертвецы_ТрилогияThe.Evil.Dead.2.1987.BDRip.MVO.[Youtracker].ot.Дядя_Лёша.avi
Формат : AVI
Формат/Информация : Audio Video Interleave
Размер файла : 1,45 Гбайт
Продолжительность : 1 ч. 24 м.
Общий поток : 2469 Кбит/сек
Название фильма : The.Evil.Dead.2.1981.BDRip.MVO.[Youtracker].ot.Дядя_Лёша
Программа кодирования : VirtualDubMod 1.5.10.3 | http://www.virtualdub-fr.org || (build 2550/release)
Правообладатель : Youtracker.net

Видео
Идентификатор : 0
Формат : MPEG-4 Visual
Профиль формата : Advanced Simple@L5
Параметр BVOP формата : 2
Параметр QPel формата : Нет
Параметр GMC формата : Без точки перехода
Параметр матрицы формата : Выборочная
Идентификатор кодека : XVID
Идентификатор кодека/Подсказка : XviD
Продолжительность : 1 ч. 24 м.
Битрейт : 2076 Кбит/сек
Ширина : 720 пикселей
Высота : 384 пикселя
Соотношение сторон : 1,85:1
Частота кадров : 23,976 кадра/сек
Цветовое пространство : YUV
Субдискретизация насыщенности : 4:2:0
Битовая глубина : 8 бит
Тип развёртки : Прогрессивная
Метод сжатия : С потерями
Бит/(Пиксели*Кадры) : 0.313
Размер потока : 1,22 Гбайт (84%)
Библиотека кодирования : XviD 65

Аудио
Идентификатор : 1
Формат : AC-3
Формат/Информация : Audio Coding 3
Расширение режима : CM (complete main)
Параметр Endianness формата : Big
Идентификатор кодека : 2000
Продолжительность : 1 ч. 24 м.
Вид битрейта : Постоянный
Битрейт : 384 Кбит/сек
Каналы : 6 каналов
Расположение каналов : Front: L C R, Side: L R, LFE
Частота : 48,0 КГц
Битовая глубина : 16 бит
Метод сжатия : С потерями
Размер потока : 231 Мбайт (16%)
Выравнивание : Разделение по промежуткам
Продолжительность промежутка : 42 мс. (1,00 видеокадр)
Время предзагрузки промежутка : 500 мс.









Зловещие мертвецы: Армия Тьмы / Evil Dead. Army of Darkness


#777

Страна: США
Жанр: ужасы, фэнтези, боевик, комедия
Год выпуска: 1992
Продолжительность: 01:20:46

Перевод: Профессиональный (многоголосый закадровый)
Cубтитры: нет
Режиссер: Сэм Рэйми / Sam Raimi

В фильме снимались: Брюс Кэмпбелл, Эмбет Дэвидц, Маркус Гилберт, Иан Эберкромби, Ричард Гроув, Тимоти Пэтрик Куилл, Майкл Эрл Рид, Бриджет Фонда

Вкратце: По воле случая Эш переносится в далекое прошлое. Вместе со своим автомобилем и двухстволкой он оказывается в 13 веке. В этом мрачном средневековье люди страдают от сил тьмы. Бедняга Эш был пойман добропорядочными гражданами и помещен в местную тюрьму. Он с трудом смог убедить судью, в том, что он вовсе не шпион из враждебного королевства. Он решает помочь людям в битве с врагами.
Чтобы победить, он должен восстановить Некрономикон, старинную магическую книгу, которая поможет ему вернуться в свое время. По неосторожности Эш выпустил на волю Армию тьмы. Как победить живых мертвецов?

Качество видео: BDRip
Формат видео: AVI
Исходник: BDRemux
Видео: 720x384 (1.88:1), 23.976 fps, XviD build 65 ~2344 kbps avg, 0.35 bit/pixel
Аудио: 48 kHz, AC3 Dolby Digital, 2/0 (L,R) ch, ~224 kbps
Общее
Полное имя : E:My_ripЗловещие мертвецы_ТрилогияThe.Evil.Dead.3.1992.BDRip.MVO.[Youtracker].ot.Дядя_Лёша.avi
Формат : AVI
Формат/Информация : Audio Video Interleave
Размер файла : 1,45 Гбайт
Продолжительность : 1 ч. 20 м.
Общий поток : 2578 Кбит/сек
Название фильма : The.Evil.Dead.3.1992.BDRip.MVO.[Youtracker].ot.Дядя_Лёша
Программа кодирования : VirtualDubMod 1.5.10.3 | http://www.virtualdub-fr.org || (build 2550/release)
Правообладатель : Youtracker.net

Видео
Идентификатор : 0
Формат : MPEG-4 Visual
Профиль формата : Advanced Simple@L5
Параметр BVOP формата : 2
Параметр QPel формата : Нет
Параметр GMC формата : Без точки перехода
Параметр матрицы формата : Выборочная
Идентификатор кодека : XVID
Идентификатор кодека/Подсказка : XviD
Продолжительность : 1 ч. 20 м.
Битрейт : 2344 Кбит/сек
Ширина : 720 пикселей
Высота : 384 пикселя
Соотношение сторон : 1,85:1
Частота кадров : 23,976 кадра/сек
Цветовое пространство : YUV
Субдискретизация насыщенности : 4:2:0
Битовая глубина : 8 бит
Тип развёртки : Прогрессивная
Метод сжатия : С потерями
Бит/(Пиксели*Кадры) : 0.354
Размер потока : 1,32 Гбайт (91%)
Библиотека кодирования : XviD 65

Аудио
Идентификатор : 1
Формат : AC-3
Формат/Информация : Audio Coding 3
Расширение режима : CM (complete main)
Параметр Endianness формата : Big
Идентификатор кодека : 2000
Продолжительность : 1 ч. 20 м.
Вид битрейта : Постоянный
Битрейт : 224 Кбит/сек
Каналы : 2 канала
Расположение каналов : Front: L R
Частота : 48,0 КГц
Битовая глубина : 16 бит
Метод сжатия : С потерями
Размер потока : 129 Мбайт (9%)
Выравнивание : Разделение по промежуткам
Продолжительность промежутка : 42 мс. (1,00 видеокадр)
Время предзагрузки промежутка : 500 мс.



Правила, инструкции, FAQ!!!
Торрент  Добавлен [10 апр 2013, 22:41] Скачать торрент Магнет ссылка
Скачать торрент
[ Размер 11.84 КБ / Просмотров 33 ]

Статус
Проверен 
 
Размер  4.36 ГБ
Приватный: Нет (DHT включён)
.torrent скачан  4
Как залить торрент? | Как скачать Torrent? | Как смотреть и слушать онлайн?  
Гость
 


  • Похожие торренты
    Ответы
    Просмотры
    Последнее сообщение

Вернуться в Трилогии

Кто сейчас на конференции

Сейчас этот форум просматривают: нет зарегистрированных пользователей и гости: 0