We Came As Romans - 4 Альбома (2008-2013) Дискография [FLAC|Lossless]<Post-Hardcore>


Статистика раздачи
Размер: 1.52 ГБ | Добавлен: 27 авг 2016, 18:43 | Скачали: 6
Сидеров: 42  [0 байт/сек]    Личеров: 23  [0 байт/сек]

Сообщение Гость » 16 мар 2014, 00:41

Год выпуска: 2008-2013
Жанр: Post-Hardcore
Продолжительность: 03:05:53
Тип издания: Дискография
Страна: США



>>> Треклист: <<<
------------------------------------------------------------------------
01. Conditions
02. Dreams
03. Intentions
04. Shapes
------------------------------------------------------------------------
>>> Продолжительность: 00:15:09 >>>

Код:
Код: Выделить всё
Exact Audio Copy V0.99 prebeta 5 from 4. May 2009

EAC extraction logfile from 18. February 2011, 12:37

We Came As Romans / Dreams

Used drive  : HL-DT-STDVDRW  GSA-S10N6   Adapter: 0  ID: 0

Read mode               : Secure
Utilize accurate stream : Yes
Defeat audio cache      : Yes
Make use of C2 pointers : No

Read offset correction                      : 667
Overread into Lead-In and Lead-Out          : No
Fill up missing offset samples with silence : Yes
Delete leading and trailing silent blocks   : No
Null samples used in CRC calculations       : Yes
Used interface                              : Installed external ASPI interface
Gap handling                                : Appended to previous track

Used output format              : User Defined Encoder
Selected bitrate                : 768 kBit/s
Quality                         : High
Add ID3 tag                     : No
Command line compressor         : C:\Program Files\Exact Audio Copy\FLAC\FLAC.EXE
Additional command line options : -8 -A tukey(0.25) -A gauss(0.1875) -b 4096 -V -T "artist=%a" -T "title=%t" -T "album=%g" -T "date=%y" -T "tracknumber=%n" -T "genre=%m" %s --sector-align

TOC of the extracted CD

     Track |   Start  |  Length  | Start sector | End sector
    ---------------------------------------------------------
        1  |  0:00.00 |  4:01.13 |         0    |    18087
        2  |  4:01.13 |  4:15.08 |     18088    |    37220
        3  |  8:16.21 |  3:00.55 |     37221    |    50775
        4  | 11:17.01 |  3:52.62 |     50776    |    68237

Track  1

     Filename C:\We Came As Romans - Dreams - 2008 - [FLAC]\01 Conditions.wav

     Pre-gap length  0:00:02.00

     Peak level 100.0 %
     Track quality 100.0 %
     Test CRC 5C975612
     Copy CRC 5C975612
     Accurately ripped (confidence 1)  [DEEEE5B3]
     Copy OK

Track  2

     Filename C:\We Came As Romans - Dreams - 2008 - [FLAC]\02 Dreams.wav

     Peak level 98.2 %
     Track quality 100.0 %
     Test CRC 3B0675E4
     Copy CRC 3B0675E4
     Accurately ripped (confidence 1)  [515184FE]
     Copy OK

Track  3

     Filename C:\We Came As Romans - Dreams - 2008 - [FLAC]\03 Intentions.wav

     Peak level 99.8 %
     Track quality 100.0 %
     Test CRC 47BF6156
     Copy CRC 47BF6156
     Accurately ripped (confidence 1)  [863A9FB6]
     Copy OK

Track  4

     Filename C:\We Came As Romans - Dreams - 2008 - [FLAC]\04 Shapes.wav

     Peak level 100.0 %
     Track quality 100.0 %
     Test CRC 660A7928
     Copy CRC 660A7928
     Accurately ripped (confidence 1)  [6FED739F]
     Copy OK

All tracks accurately ripped

No errors occurred

End of status report

Код:
Код: Выделить всё
-----------------------

DON'T MODIFY THIS FILE

-----------------------

PERFORMER: auCDtect Task Manager, ver. 1.5.1RC6 build 1.5.1.7
Copyright (c) 2008-2010 y-soft. All rights reserved
http:/y-soft.org

ANALYZER: auCDtect: CD records authenticity detector, version 0.8.2
Copyright (c) 2004 Oleg Berngardt. All rights reserved.
Copyright (c) 2004 Alexander Djourik. All rights reserved.

FILE: 04. We Came As Romans - Shapes.flac
  Size: 30624137 Hash: F6783EF06D782DD97A2D2E50AE7FF9E4 Accuracy: -m0
  Conclusion: CDDA 100%
  Signature: 8C49300D0791CC69B66290C258DD1774343AAB97
FILE: 03. We Came As Romans - Intentions.flac
  Size: 24563267 Hash: 92998E3EC41DF58365C66C1014807E3E Accuracy: -m0
  Conclusion: CDDA 100%
  Signature: 71B29DEDDC119E0EFCDDB64CE8EE49DEBDA70086
FILE: 02. We Came As Romans - Dreams.flac
  Size: 32224723 Hash: 2BA9EA8D67133C8D4A2BAC94C7940670 Accuracy: -m0
  Conclusion: CDDA 100%
  Signature: 479F3A194F2444E520CD154A55243E337AF05720
FILE: 01. We Came As Romans - Conditions.flac
  Size: 33014241 Hash: 54B6482D395853CA3A5A94892CFA4A39 Accuracy: -m0
  Conclusion: CDDA 100%
  Signature: FC88DD3681D7985D823BDB84D449834CF26AD871


#777>>> Треклист: <<<
----------------------------------------------------------------------------
01. To Plant a Seed
02. Broken Statues
03. Intentions
04. Roads That Don't End and Views That Never Cease
05. Dreams
06. We Are the Reason
07. Beliefs
08. I Will Not Reap Destruction
09. Searching, Seeking, Finding, Always
10. An Ever-Growing Wonder
----------------------------------------------------------------------------
>>> Продолжительность: 00:37:19 >>>


Код:
Код: Выделить всё
Exact Audio Copy V0.99 prebeta 5 from 4. May 2009

EAC extraction logfile from 8. November 2009, 0:11

We Came as Romans / To Plant a Seed

Used drive  : ATAPI   iHAS220   6   Adapter: 2  ID: 1

Read mode               : Secure
Utilize accurate stream : Yes
Defeat audio cache      : Yes
Make use of C2 pointers : No

Read offset correction                      : 6
Overread into Lead-In and Lead-Out          : No
Fill up missing offset samples with silence : Yes
Delete leading and trailing silent blocks   : No
Null samples used in CRC calculations       : Yes
Used interface                              : Native Win32 interface for Win NT & 2000
Gap handling                                : Appended to previous track

Used output format              : User Defined Encoder
Selected bitrate                : 1024 kBit/s
Quality                         : High
Add ID3 tag                     : No
Command line compressor         : C:\Program Files\Exact Audio Copy\FLAC\FLAC.EXE
Additional command line options : -V -5 -T "artist=%a" -T "title=%t" -T "album=%g" -T "date=%y" -T "tracknumber=%n" -T "genre=%m" %s

TOC of the extracted CD

     Track |   Start  |  Length  | Start sector | End sector
    ---------------------------------------------------------
        1  |  0:00.00 |  3:50.41 |         0    |    17290
        2  |  3:50.41 |  3:41.37 |     17291    |    33902
        3  |  7:32.03 |  3:01.14 |     33903    |    47491
        4  | 10:33.17 |  3:49.00 |     47492    |    64666
        5  | 14:22.17 |  4:15.60 |     64667    |    83851
        6  | 18:38.02 |  3:43.39 |     83852    |   100615
        7  | 22:21.41 |  4:06.38 |    100616    |   119103
        8  | 26:28.04 |  3:58.10 |    119104    |   136963
        9  | 30:26.14 |  2:56.28 |    136964    |   150191
       10  | 33:22.42 |  3:57.29 |    150192    |   167995

Track  1

     Filename N:\We Came as Romans - [To Plant a Seed] - flac\01. We Came as Romans - To Plant a Seed.wav

     Pre-gap length  0:00:02.00

     Peak level 98.2 %
     Track quality 100.0 %
     Test CRC 9FDF8056
     Copy CRC 9FDF8056
     Track not present in AccurateRip database
     Copy OK

Track  2

     Filename N:\We Came as Romans - [To Plant a Seed] - flac\02. We Came as Romans - Broken Statues.wav

     Peak level 97.8 %
     Track quality 99.9 %
     Test CRC 4CCB1071
     Copy CRC 4CCB1071
     Track not present in AccurateRip database
     Copy OK

Track  3

     Filename N:\We Came as Romans - [To Plant a Seed] - flac\03. We Came as Romans - Intentions.wav

     Peak level 98.4 %
     Track quality 100.0 %
     Test CRC 09315397
     Copy CRC 09315397
     Track not present in AccurateRip database
     Copy OK

Track  4

     Filename N:\We Came as Romans - [To Plant a Seed] - flac\04. We Came as Romans - Roads That Don't End and Views That Never Cease.wav

     Peak level 98.8 %
     Track quality 100.0 %
     Test CRC 914ABE73
     Copy CRC 914ABE73
     Track not present in AccurateRip database
     Copy OK

Track  5

     Filename N:\We Came as Romans - [To Plant a Seed] - flac\05. We Came as Romans - Dreams.wav

     Peak level 97.8 %
     Track quality 100.0 %
     Test CRC 6F12112F
     Copy CRC 6F12112F
     Track not present in AccurateRip database
     Copy OK

Track  6

     Filename N:\We Came as Romans - [To Plant a Seed] - flac\06. We Came as Romans - We Are the Reason.wav

     Peak level 97.8 %
     Track quality 100.0 %
     Test CRC E019A5DD
     Copy CRC E019A5DD
     Track not present in AccurateRip database
     Copy OK

Track  7

     Filename N:\We Came as Romans - [To Plant a Seed] - flac\07. We Came as Romans - Beliefs.wav

     Peak level 97.6 %
     Track quality 100.0 %
     Test CRC 7186E268
     Copy CRC 7186E268
     Track not present in AccurateRip database
     Copy OK

Track  8

     Filename N:\We Came as Romans - [To Plant a Seed] - flac\08. We Came as Romans - I Will Not Reap Destruction.wav

     Peak level 97.6 %
     Track quality 100.0 %
     Test CRC 5DC69314
     Copy CRC 5DC69314
     Track not present in AccurateRip database
     Copy OK

Track  9

     Filename N:\We Came as Romans - [To Plant a Seed] - flac\09. We Came as Romans - Searching, Seeking, Finding, Always.wav

     Peak level 97.3 %
     Track quality 100.0 %
     Test CRC 166A5CBE
     Copy CRC 166A5CBE
     Track not present in AccurateRip database
     Copy OK

Track 10

     Filename N:\We Came as Romans - [To Plant a Seed] - flac\10. We Came as Romans - An Ever-Growing Wonder.wav

     Peak level 98.1 %
     Track quality 100.0 %
     Test CRC 73847937
     Copy CRC 73847937
     Track not present in AccurateRip database
     Copy OK

None of the tracks are present in the AccurateRip database

No errors occurred

End of status repor

Код:
Код: Выделить всё
-----------------------

DON'T MODIFY THIS FILE

-----------------------

PERFORMER: auCDtect Task Manager, ver. 1.5.1RC6 build 1.5.1.7
Copyright (c) 2008-2010 y-soft. All rights reserved
http:/y-soft.org

ANALYZER: auCDtect: CD records authenticity detector, version 0.8.2
Copyright (c) 2004 Oleg Berngardt. All rights reserved.
Copyright (c) 2004 Alexander Djourik. All rights reserved.

FILE: 10. We Came as Romans - An Ever-Growing Wonder.flac
  Size: 32615148 Hash: B7BA4EF9DE4AE19DBBEE69ED5EB8208E Accuracy: -m0
  Conclusion: CDDA 100%
  Signature: 12794296841839671564A71625C381F60B0A43ED
FILE: 09. We Came as Romans - Searching, Seeking, Finding, Always.flac
  Size: 24316470 Hash: F504C33FAF02061EFBA92974BB60AA09 Accuracy: -m0
  Conclusion: CDDA 100%
  Signature: 95B9868E4ECC5518E5F53C23B270BD4A10D7ACDA
FILE: 08. We Came as Romans - I Will Not Reap Destruction.flac
  Size: 32525609 Hash: 5756514B23EA6EE8E1D87319480003B4 Accuracy: -m0
  Conclusion: CDDA 100%
  Signature: 10C14D8BE0B023857842C1CCBF0459097350B5FC
FILE: 07. We Came as Romans - Beliefs.flac
  Size: 33042441 Hash: AC7D9678AA755F784CAF6D9C0FC98955 Accuracy: -m0
  Conclusion: CDDA 100%
  Signature: DBCEE46DF4922AC3A95A5BA3C88A3D9A337B3DB2
FILE: 06. We Came as Romans - We Are the Reason.flac
  Size: 31091364 Hash: 880902BCDD6EB5B134AE0B4DB89CBCE1 Accuracy: -m0
  Conclusion: CDDA 100%
  Signature: 3B7FA24C512BAD92353B2D89E22390F958E38386
FILE: 05. We Came as Romans - Dreams.flac
  Size: 33895857 Hash: 58EE0CC2964D0D2B3050CBCC6A70BA8D Accuracy: -m0
  Conclusion: CDDA 100%
  Signature: 8E1842286B98BFD703E177E99F3BA52F2ABB51BE
FILE: 04. We Came as Romans - Roads That Don't End and Views That Never Cease.flac
  Size: 31421613 Hash: 166CBC57C211FC4243C9CF799C413647 Accuracy: -m0
  Conclusion: CDDA 100%
  Signature: 36B07928635E95549EF1697E89538742DF872486
FILE: 03. We Came as Romans - Intentions.flac
  Size: 25520713 Hash: B34DA3931E02125A7A317E52BCB6607E Accuracy: -m0
  Conclusion: CDDA 100%
  Signature: 6A77CB99F1597E6E8C58851CFC185DC0E9702EE2
FILE: 02. We Came as Romans - Broken Statues.flac
  Size: 30346100 Hash: DF6C1A699A42040C3A715B50BA49A80A Accuracy: -m0
  Conclusion: CDDA 100%
  Signature: BCEEB75B333880C48FDD817302AC6E200E9C7295
FILE: 01. We Came as Romans - To Plant a Seed.flac
  Size: 32005080 Hash: AB72393D07D942352C4BE74CB4A50519 Accuracy: -m0
  Conclusion: CDDA 100%
  Signature: B169A3A61F7467ED4EF3184AD745A8B07629458A


#777>>> Треклист: <<<
----------------------------------------------------------------------------
01. To Plant A Seed
02. Broken Statues
03. Intentions
04. Roads That Don't End And Views That Never Cease
05. Dreams
06. We Are The Reasons
07. Beliefs
08. I Will Not Reap Destruction
09. Searching, Seeking, Reaching, Always
10. An Ever-Growing Wonder
11. To Move On Is To Grow
----------------------------------------------------------------------------
>>> Продолжительность: 00:41:07 >>>


Код:
Код: Выделить всё
Exact Audio Copy V0.99 prebeta 5 from 4. May 2009

EAC extraction logfile from 18. January 2011, 14:01

We Came As Romans / To Plant A Seed

Used drive  : HL-DT-STDVDRW  GSA-S10N6   Adapter: 0  ID: 0

Read mode               : Secure
Utilize accurate stream : Yes
Defeat audio cache      : Yes
Make use of C2 pointers : No

Read offset correction                      : 667
Overread into Lead-In and Lead-Out          : No
Fill up missing offset samples with silence : Yes
Delete leading and trailing silent blocks   : No
Null samples used in CRC calculations       : Yes
Used interface                              : Installed external ASPI interface
Gap handling                                : Appended to previous track

Used output format              : User Defined Encoder
Selected bitrate                : 768 kBit/s
Quality                         : High
Add ID3 tag                     : No
Command line compressor         : C:\Program Files\Exact Audio Copy\FLAC\FLAC.EXE
Additional command line options : -8 -A tukey(0.25) -A gauss(0.1875) -b 4096 -V -T "artist=%a" -T "title=%t" -T "album=%g" -T "date=%y" -T "tracknumber=%n" -T "genre=%m" %s --sector-align

TOC of the extracted CD

     Track |   Start  |  Length  | Start sector | End sector
    ---------------------------------------------------------
        1  |  0:00.00 |  3:50.41 |         0    |    17290
        2  |  3:50.41 |  3:41.37 |     17291    |    33902
        3  |  7:32.03 |  3:01.14 |     33903    |    47491
        4  | 10:33.17 |  3:49.00 |     47492    |    64666
        5  | 14:22.17 |  4:15.60 |     64667    |    83851
        6  | 18:38.02 |  3:43.39 |     83852    |   100615
        7  | 22:21.41 |  4:06.38 |    100616    |   119103
        8  | 26:28.04 |  3:58.10 |    119104    |   136963
        9  | 30:26.14 |  2:56.28 |    136964    |   150191
       10  | 33:22.42 |  3:57.29 |    150192    |   167995
       11  | 37:19.71 |  3:47.69 |    167996    |   185089

Track  1

     Filename C:\We Came As Romans - To Plant A Seed (Reissue) - 2011 - [FLAC]\01 To Plant A Seed.wav

     Pre-gap length  0:00:02.00

     Peak level 98.2 %
     Track quality 100.0 %
     Test CRC 25003F28
     Copy CRC 25003F28
     Track not present in AccurateRip database
     Copy OK

Track  2

     Filename C:\We Came As Romans - To Plant A Seed (Reissue) - 2011 - [FLAC]\02 Broken Statues.wav

     Peak level 97.8 %
     Track quality 99.9 %
     Test CRC EFA2A3DE
     Copy CRC EFA2A3DE
     Track not present in AccurateRip database
     Copy OK

Track  3

     Filename C:\We Came As Romans - To Plant A Seed (Reissue) - 2011 - [FLAC]\03 Intentions.wav

     Peak level 98.4 %
     Track quality 100.0 %
     Test CRC 255D0002
     Copy CRC 255D0002
     Track not present in AccurateRip database
     Copy OK

Track  4

     Filename C:\We Came As Romans - To Plant A Seed (Reissue) - 2011 - [FLAC]\04 Roads That Don't End And Views That Never Cease.wav

     Peak level 98.8 %
     Track quality 100.0 %
     Test CRC 7CCC6E70
     Copy CRC 7CCC6E70
     Track not present in AccurateRip database
     Copy OK

Track  5

     Filename C:\We Came As Romans - To Plant A Seed (Reissue) - 2011 - [FLAC]\05 Dreams.wav

     Peak level 97.8 %
     Track quality 100.0 %
     Test CRC 82634AF4
     Copy CRC 82634AF4
     Track not present in AccurateRip database
     Copy OK

Track  6

     Filename C:\We Came As Romans - To Plant A Seed (Reissue) - 2011 - [FLAC]\06 We Are The Reasons.wav

     Peak level 97.8 %
     Track quality 100.0 %
     Test CRC 17F2BBAA
     Copy CRC 17F2BBAA
     Track not present in AccurateRip database
     Copy OK

Track  7

     Filename C:\We Came As Romans - To Plant A Seed (Reissue) - 2011 - [FLAC]\07 Beliefs.wav

     Peak level 97.6 %
     Track quality 100.0 %
     Test CRC 36454891
     Copy CRC 36454891
     Track not present in AccurateRip database
     Copy OK

Track  8

     Filename C:\We Came As Romans - To Plant A Seed (Reissue) - 2011 - [FLAC]\08 I Will Not Reap Destruction.wav

     Peak level 97.6 %
     Track quality 100.0 %
     Test CRC 3C3A3441
     Copy CRC 3C3A3441
     Track not present in AccurateRip database
     Copy OK

Track  9

     Filename C:\We Came As Romans - To Plant A Seed (Reissue) - 2011 - [FLAC]\09 Searching, Seeking, Reaching, Always.wav

     Peak level 97.3 %
     Track quality 100.0 %
     Test CRC 820BAA4D
     Copy CRC 820BAA4D
     Track not present in AccurateRip database
     Copy OK

Track 10

     Filename C:\We Came As Romans - To Plant A Seed (Reissue) - 2011 - [FLAC]\10 An Ever-Growing Wonder.wav

     Peak level 98.1 %
     Track quality 100.0 %
     Test CRC 67E099D3
     Copy CRC 67E099D3
     Track not present in AccurateRip database
     Copy OK

Track 11

     Filename C:\We Came As Romans - To Plant A Seed (Reissue) - 2011 - [FLAC]\11 To Move On Is To Grow.wav

     Peak level 98.0 %
     Track quality 100.0 %
     Test CRC B295B6DC
     Copy CRC B295B6DC
     Track not present in AccurateRip database
     Copy OK

None of the tracks are present in the AccurateRip database

No errors occurred

End of status report

Код:
Код: Выделить всё
-----------------------

DON'T MODIFY THIS FILE

-----------------------

PERFORMER: auCDtect Task Manager, ver. 1.5.1RC6 build 1.5.1.7
Copyright (c) 2008-2010 y-soft. All rights reserved
http:/y-soft.org

ANALYZER: auCDtect: CD records authenticity detector, version 0.8.2
Copyright (c) 2004 Oleg Berngardt. All rights reserved.
Copyright (c) 2004 Alexander Djourik. All rights reserved.

FILE: 11. We Came As Romans - To Move On Is To Grow.flac
  Size: 37518693 Hash: 8142CAC2F59C46C8C2EB70AC23AFC30F Accuracy: -m0
  Conclusion: CDDA 100%
  Signature: A11019EDE11A973C686B5229AF3956CAC925C67C
FILE: 10. We Came As Romans - An Ever-Growing Wonder.flac
  Size: 36859117 Hash: 78AB0E0B0FEBC611B36DE9E47086A0B5 Accuracy: -m0
  Conclusion: CDDA 100%
  Signature: 94F5151B1CC063595133F737CD768A49ED6744D2
FILE: 09. We Came As Romans - Searching, Seeking, Reaching, Always.flac
  Size: 28565493 Hash: D637410A0C1E51F10698153D9ADC9B54 Accuracy: -m0
  Conclusion: CDDA 100%
  Signature: 2CF8FA09A663BA2A5DFB2A2F1BFE0E2CF3C749A8
FILE: 08. We Came As Romans - I Will Not Reap Destruction.flac
  Size: 36743597 Hash: B68A7BFC27B9C8BF3BECB808FF77890A Accuracy: -m0
  Conclusion: CDDA 100%
  Signature: 7EDFF7D1E63A0F424F4664EF844215BD442FB707
FILE: 07. We Came As Romans - Beliefs.flac
  Size: 37269005 Hash: 0F6FBE123F27B7EF689AAC4A837AA406 Accuracy: -m0
  Conclusion: CDDA 100%
  Signature: 1B19CD74783F2EFCAD4A165D013F3C01E4B868E6
FILE: 06. We Came As Romans - We Are The Reasons.flac
  Size: 35332118 Hash: A2DF28952EDDE3CD67FDDCCBBB083590 Accuracy: -m0
  Conclusion: CDDA 100%
  Signature: 7FF1C69C6DE4610C83DA2FADDE9EF0415B7059A8
FILE: 05. We Came As Romans - Dreams.flac
  Size: 38085444 Hash: 8F6E4F91E79FEA00AB29676088372794 Accuracy: -m0
  Conclusion: CDDA 100%
  Signature: E487061FDF8B41210E2384F369FDED244ACF7528
FILE: 04. We Came As Romans - Roads That Don't End And Views That Never Cease.flac
  Size: 35652218 Hash: E6BDC61A9D46B0F4002AE3155FA0B1EB Accuracy: -m0
  Conclusion: CDDA 100%
  Signature: 98A12B4B15D6B3CF176814C5EC52780847408C3D
FILE: 03. We Came As Romans - Intentions.flac
  Size: 29774365 Hash: 4DB0AECD60BB8F64AF9E1FFA23C151BE Accuracy: -m0
  Conclusion: CDDA 100%
  Signature: CD00F549C0A3667F7D97E6F71E5DD9818F2FA901
FILE: 02. We Came As Romans - Broken Statues.flac
  Size: 34577755 Hash: 16E5F6DF960E0D334DD7BF6ED7E87C07 Accuracy: -m0
  Conclusion: CDDA 100%
  Signature: A21ED1D92286B081FE6B40907A56F17C72A87C5B
FILE: 01. We Came As Romans - To Plant A Seed.flac
  Size: 36229107 Hash: 6B7BE0AD8FC547FEBC1DD47440CD5935 Accuracy: -m0
  Conclusion: CDDA 100%
  Signature: 262CF01CAE149650D83EA89DE1D61A7EFA3E0003


#777>>> Треклист: <<<
----------------------------------------------------------------------------
01. Mis/Understanding
02. Everything As Planned
03. What I Wished I Never Had
04. Cast The First Stone
05. The Way That We Have Been
06. A War Inside
07. Stay Inspired
08. Just Keep Breathing
09. Views That Never Cease, To Keep Me From Myself
10. What My Heart Held
11. I Can't Make Your Decisions For You
12. Understanding What We've Grown To Be
13. Roads That Don't End And Views That Never Cease (Live)
----------------------------------------------------------------------------
>>> Продолжительность: 00:51:37 >>>


Код:
Код: Выделить всё
Exact Audio Copy V1.0 beta 2 from 29. April 2011

EAC extraction logfile from 22. September 2011, 18:56

We Came As Romans / Understanding What We've Grown To Be

Used drive  : HL-DT-STDVDRAM GSA-T50L   Adapter: 2  ID: 0

Read mode               : Secure
Utilize accurate stream : Yes
Defeat audio cache      : Yes
Make use of C2 pointers : No

Read offset correction                      : 667
Overread into Lead-In and Lead-Out          : No
Fill up missing offset samples with silence : Yes
Delete leading and trailing silent blocks   : No
Null samples used in CRC calculations       : Yes
Used interface                              : Native Win32 interface for Win NT & 2000
Gap handling                                : Appended to previous track

Used output format              : User Defined Encoder
Selected bitrate                : 128 kBit/s
Quality                         : High
Add ID3 tag                     : No
Command line compressor         : C:\Program Files\Exact Audio Copy\Flac\flac.exe
Additional command line options : -8 -V -T "ARTIST=%artist%" -T "TITLE=%title%" -T "ALBUM=%albumtitle%" -T "DATE=%year%" -T "TRACKNUMBER=%tracknr%" -T "GENRE=%genre%" -T "PERFORMER=%albuminterpret%" -T "COMPOSER=%composer%" %haslyrics%--tag-from-file=LYRICS

TOC of the extracted CD

     Track |   Start  |  Length  | Start sector | End sector
    ---------------------------------------------------------
        1  |  0:00.00 |  3:57.22 |         0    |    17796
        2  |  3:57.22 |  3:38.52 |     17797    |    34198
        3  |  7:35.74 |  4:00.21 |     34199    |    52219
        4  | 11:36.20 |  3:34.62 |     52220    |    68331
        5  | 15:11.07 |  3:44.02 |     68332    |    85133
        6  | 18:55.09 |  5:21.27 |     85134    |   109235
        7  | 24:16.36 |  3:33.58 |    109236    |   125268
        8  | 27:50.19 |  3:59.72 |    125269    |   143265
        9  | 31:50.16 |  3:47.36 |    143266    |   160326
       10  | 35:37.52 |  4:05.51 |    160327    |   178752
       11  | 39:43.28 |  3:43.35 |    178753    |   195512
       12  | 43:26.63 |  4:15.27 |    195513    |   214664
       13  | 47:42.15 |  3:55.58 |    214665    |   232347

Track  1

     Filename D:\Download\We Came As Romans - Understanding What We've Grown To Be - FLAC\01. Mis,,Understanding.wav

     Pre-gap length  0:00:02.00

     Peak level 96.6 %
     Extraction speed 2.4 X
     Track quality 100.0 %
     Test CRC 6F445EF4
     Copy CRC 6F445EF4
     Track not present in AccurateRip database
     Copy OK

Track  2

     Filename D:\Download\We Came As Romans - Understanding What We've Grown To Be - FLAC\02. Everything As Planned.wav

     Peak level 96.6 %
     Extraction speed 2.6 X
     Track quality 100.0 %
     Test CRC 0892BC4B
     Copy CRC 0892BC4B
     Track not present in AccurateRip database
     Copy OK

Track  3

     Filename D:\Download\We Came As Romans - Understanding What We've Grown To Be - FLAC\03. What I Wished I Never Had.wav

     Peak level 96.6 %
     Extraction speed 2.9 X
     Track quality 100.0 %
     Test CRC F9E479CB
     Copy CRC F9E479CB
     Track not present in AccurateRip database
     Copy OK

Track  4

     Filename D:\Download\We Came As Romans - Understanding What We've Grown To Be - FLAC\04. Cast The First Stone.wav

     Peak level 96.6 %
     Extraction speed 3.1 X
     Track quality 100.0 %
     Test CRC 42D88533
     Copy CRC 42D88533
     Track not present in AccurateRip database
     Copy OK

Track  5

     Filename D:\Download\We Came As Romans - Understanding What We've Grown To Be - FLAC\05. The Way That We Have Been.wav

     Peak level 96.6 %
     Extraction speed 3.2 X
     Track quality 100.0 %
     Test CRC 83CF9A6C
     Copy CRC 83CF9A6C
     Track not present in AccurateRip database
     Copy OK

Track  6

     Filename D:\Download\We Came As Romans - Understanding What We've Grown To Be - FLAC\06. A War Inside.wav

     Peak level 96.6 %
     Extraction speed 3.3 X
     Track quality 99.9 %
     Test CRC 0FCC7D3B
     Copy CRC 0FCC7D3B
     Track not present in AccurateRip database
     Copy OK

Track  7

     Filename D:\Download\We Came As Romans - Understanding What We've Grown To Be - FLAC\07. Stay Inspired.wav

     Peak level 96.6 %
     Extraction speed 3.2 X
     Track quality 99.9 %
     Test CRC 881C7904
     Copy CRC 881C7904
     Track not present in AccurateRip database
     Copy OK

Track  8

     Filename D:\Download\We Came As Romans - Understanding What We've Grown To Be - FLAC\08. Just Keep Breathing.wav

     Peak level 96.6 %
     Extraction speed 3.9 X
     Track quality 100.0 %
     Test CRC 61414619
     Copy CRC 61414619
     Track not present in AccurateRip database
     Copy OK

Track  9

     Filename D:\Download\We Came As Romans - Understanding What We've Grown To Be - FLAC\09. Views That Never Cease, To Keep Me From Myself.wav

     Peak level 96.6 %
     Extraction speed 4.0 X
     Track quality 100.0 %
     Test CRC BE62BEA2
     Copy CRC BE62BEA2
     Track not present in AccurateRip database
     Copy OK

Track 10

     Filename D:\Download\We Came As Romans - Understanding What We've Grown To Be - FLAC\10. What My Heart Held.wav

     Peak level 96.6 %
     Extraction speed 3.8 X
     Track quality 99.9 %
     Test CRC CFB9E632
     Copy CRC CFB9E632
     Track not present in AccurateRip database
     Copy OK

Track 11

     Filename D:\Download\We Came As Romans - Understanding What We've Grown To Be - FLAC\11. I Can't Make Your Decisions For You.wav

     Peak level 96.6 %
     Extraction speed 4.3 X
     Track quality 100.0 %
     Test CRC 9EB6378E
     Copy CRC 9EB6378E
     Track not present in AccurateRip database
     Copy OK

Track 12

     Filename D:\Download\We Came As Romans - Understanding What We've Grown To Be - FLAC\12. Understanding What We've Grown To Be.wav

     Peak level 96.6 %
     Extraction speed 4.6 X
     Track quality 100.0 %
     Test CRC 0EC41299
     Copy CRC 0EC41299
     Track not present in AccurateRip database
     Copy OK

Track 13

     Filename D:\Download\We Came As Romans - Understanding What We've Grown To Be - FLAC\13. Roads That Don't End And Views That Never Cease (Live).wav

     Peak level 98.8 %
     Extraction speed 4.6 X
     Track quality 100.0 %
     Test CRC 15C5F64D
     Copy CRC 15C5F64D
     Track not present in AccurateRip database
     Copy OK

None of the tracks are present in the AccurateRip database

No errors occurred

End of status report

==== Log checksum 767DDA981B503162A5AA4FDCF7E51AECE5C79433B8AD6FE141506F60500662DC ====

Код:
Код: Выделить всё
-----------------------

DON'T MODIFY THIS FILE

-----------------------

PERFORMER: auCDtect Task Manager, ver. 1.5.1RC6 build 1.5.1.7
Copyright (c) 2008-2010 y-soft. All rights reserved
http:/y-soft.org

ANALYZER: auCDtect: CD records authenticity detector, version 0.8.2
Copyright (c) 2004 Oleg Berngardt. All rights reserved.
Copyright (c) 2004 Alexander Djourik. All rights reserved.

FILE: 13. We Came As Romans - Roads That Don't End And Views That Never Cease (Live).flac
  Size: 30654212 Hash: E91B3A7725711AFC67DAE1F973D11661 Accuracy: -m0
  Conclusion: CDDA 100%
  Signature: 9442EB6C740AD2CFC88E0C8AB1951D60EFB2F902
FILE: 12. We Came As Romans - Understanding What We've Grown To Be.flac
  Size: 36843283 Hash: 24595E790E16DC8289622656F3716681 Accuracy: -m0
  Conclusion: CDDA 99%
  Signature: E818EE1B29041FAD2FCFE93F2D34BC7253E11BFC
FILE: 11. We Came As Romans - I Can't Make Your Decisions For You.flac
  Size: 32916839 Hash: A63371CD18A7CA15A476887BC37AC9AD Accuracy: -m0
  Conclusion: CDDA 99%
  Signature: BFF98DD5FA58317F540B2E31369EADA5F8CB8FE6
FILE: 10. We Came As Romans - What My Heart Held.flac
  Size: 35342460 Hash: 9A9321D79A79B7F308F91721FFF1367B Accuracy: -m0
  Conclusion: CDDA 100%
  Signature: 0D0329DD655F9AEE0E3C6D00094980BB2EAE7B7C
FILE: 09. We Came As Romans - Views That Never Cease, To Keep Me From Myself.flac
  Size: 32435104 Hash: BCD35A701C9EA5C05B137F1FE9E801F1 Accuracy: -m0
  Conclusion: CDDA 100%
  Signature: 8985BF5DF0B3CFA9E015456AE33575842AE9EAAF
FILE: 08. We Came As Romans - Just Keep Breathing.flac
  Size: 35087055 Hash: CE9970860898965BB5E025910008779D Accuracy: -m0
  Conclusion: CDDA 100%
  Signature: 1FF5899ADF6FB1B28EF03F1B85F18DC50AAC1E81
FILE: 07. We Came As Romans - Stay Inspired.flac
  Size: 31225284 Hash: 7CF8E949F2B68EFA9B65EB6D8442ACA0 Accuracy: -m0
  Conclusion: CDDA 99%
  Signature: 0724F5A1689C001B4A318406AFBC7B7C00444469
FILE: 06. We Came As Romans - A War Inside.flac
  Size: 41627265 Hash: B6439F10C649FB5D19C97440A63DB789 Accuracy: -m0
  Conclusion: CDDA 100%
  Signature: 1FEB13A4D2B0A3EE821D9161EEDA38C3E2B3EFDD
FILE: 05. We Came As Romans - The Way That We Have Been.flac
  Size: 32439168 Hash: B380C0C7FA6D20EEF57556DC0F24CA51 Accuracy: -m0
  Conclusion: CDDA 99%
  Signature: 441BE13C490A1E022F993985E60B27FC2AC3127D
FILE: 04. We Came As Romans - Cast The First Stone.flac
  Size: 31616299 Hash: D1AA25E4802CDCFA402A44D5E6EEF6E0 Accuracy: -m0
  Conclusion: CDDA 100%
  Signature: CB3B889AA791244B287D9D26486FF09A7209E5E4
FILE: 03. We Came As Romans - What I Wished I Never Had.flac
  Size: 34625647 Hash: 8D4F7076AD0D1344E14A3A7506E1D171 Accuracy: -m0
  Conclusion: CDDA 100%
  Signature: F5D19AD1DFBDE8D2E20E5E162C300F6B9B2FAF32
FILE: 02. We Came As Romans - Everything As Planned.flac
  Size: 31808067 Hash: E821C374CF0750A093002AF9C230191E Accuracy: -m0
  Conclusion: CDDA 100%
  Signature: 4F23CD950594283158FA225A3B9F0EE776CA1D79
FILE: 01. We Came As Romans - Mis__Understanding.flac
  Size: 34357775 Hash: 563B5B892A9774E776FC186430C40C64 Accuracy: -m0
  Conclusion: CDDA 99%
  Signature: AB1A01594B9493D59D73C95D125D99ED20E0BBD4


#777Треклист:

01. Tracing Back Roots
02. Fade Away
03. I Survive
04. Ghosts
05. Present, Future, And Past
06. Never Let Me Go
07. Hope
08. Tell Me Now
09. A Moment
10. I Am Free
11. Through The Darkest Dark And Brightest Bright

Продолжительность: 00:40:38


Код:
Код: Выделить всё
X Lossless Decoder version 20130602 (143.2)

XLD extraction logfile from 2013-07-18 12:50:52 -0400

We Came As Romans / Tracing Back Roots

Used drive : HL-DT-ST DVDRW  GS31N (revision TA17)
Media type : Pressed CD

Ripper mode             : XLD Secure Ripper
Disable audio cache     : OK for the drive with a cache less than 1375KiB
Make use of C2 pointers : NO
Read offset correction  : 667
Max retry count         : 20
Gap status              : Analyzed, Appended (except HTOA)

TOC of the extracted CD
     Track |   Start  |  Length  | Start sector | End sector
    ---------------------------------------------------------
        1  | 00:00:00 | 03:39:43 |         0    |    16467
        2  | 03:39:43 | 03:45:35 |     16468    |    33377
        3  | 07:25:03 | 04:09:14 |     33378    |    52066
        4  | 11:34:17 | 03:27:24 |     52067    |    67615
        5  | 15:01:41 | 03:27:42 |     67616    |    83182
        6  | 18:29:08 | 03:37:31 |     83183    |    99488
        7  | 22:06:39 | 04:08:37 |     99489    |   118125
        8  | 26:15:01 | 03:16:14 |    118126    |   132839
        9  | 29:31:15 | 03:49:36 |    132840    |   150050
       10  | 33:20:51 | 03:33:15 |    150051    |   166040
       11  | 36:53:66 | 03:44:30 |    166041    |   182870

AccurateRip Summary
    Disc not found in AccurateRip DB.

All Tracks
    Album gain               : -10.47 dB
    Peak                     : 0.988678
    Statistics
        Read error                           : 0
        Jitter error (maybe fixed)           : 0
        Retry sector count                   : 0
        Damaged sector count                 : 0

Track 01
    Filename : /Users/matthewkavanagh/Music/XLD/WCAR/We Came As Romans - Tracing Back Roots (2013) [FLAC]/01 Tracing Back Roots.flac
    Pre-gap length : 00:02:00

    Track gain               : -9.89 dB
    Peak                     : 0.988678
    CRC32 hash (test run)    : D959A16E
    CRC32 hash               : D959A16E
    CRC32 hash (skip zero)   : 8CF90450
    AccurateRip v1 signature : 2C18DB83
    AccurateRip v2 signature : 056F4382
        ->Track not present in AccurateRip database.
    Statistics
        Read error                           : 0
        Jitter error (maybe fixed)           : 0
        Retry sector count                   : 0
        Damaged sector count                 : 0

Track 02
    Filename : /Users/matthewkavanagh/Music/XLD/WCAR/We Came As Romans - Tracing Back Roots (2013) [FLAC]/02 Fade Away.flac
    Pre-gap length : 00:02:00

    Track gain               : -10.43 dB
    Peak                     : 0.988678
    CRC32 hash (test run)    : CD2CC242
    CRC32 hash               : CD2CC242
    CRC32 hash (skip zero)   : 32D025B1
    AccurateRip v1 signature : A2430BB7
    AccurateRip v2 signature : CF001393
        ->Track not present in AccurateRip database.
    Statistics
        Read error                           : 0
        Jitter error (maybe fixed)           : 0
        Retry sector count                   : 0
        Damaged sector count                 : 0

Track 03
    Filename : /Users/matthewkavanagh/Music/XLD/WCAR/We Came As Romans - Tracing Back Roots (2013) [FLAC]/03 I Survive.flac
    Pre-gap length : 00:01:07

    Track gain               : -9.02 dB
    Peak                     : 0.988647
    CRC32 hash (test run)    : A6D9AED0
    CRC32 hash               : A6D9AED0
    CRC32 hash (skip zero)   : 13D50D20
    AccurateRip v1 signature : 775E32B2
    AccurateRip v2 signature : 579A0A5C
        ->Track not present in AccurateRip database.
    Statistics
        Read error                           : 0
        Jitter error (maybe fixed)           : 0
        Retry sector count                   : 0
        Damaged sector count                 : 0

Track 04
    Filename : /Users/matthewkavanagh/Music/XLD/WCAR/We Came As Romans - Tracing Back Roots (2013) [FLAC]/04 Ghosts.flac
    Pre-gap length : 00:01:18

    Track gain               : -10.43 dB
    Peak                     : 0.988678
    CRC32 hash (test run)    : 6A9851BC
    CRC32 hash               : 6A9851BC
    CRC32 hash (skip zero)   : 02F2C341
    AccurateRip v1 signature : E0249F44
    AccurateRip v2 signature : BDD3E17D
        ->Track not present in AccurateRip database.
    Statistics
        Read error                           : 0
        Jitter error (maybe fixed)           : 0
        Retry sector count                   : 0
        Damaged sector count                 : 0

Track 05
    Filename : /Users/matthewkavanagh/Music/XLD/WCAR/We Came As Romans - Tracing Back Roots (2013) [FLAC]/05 Present, Future, And Past.flac

    Track gain               : -10.95 dB
    Peak                     : 0.988678
    CRC32 hash (test run)    : F9C905EB
    CRC32 hash               : F9C905EB
    CRC32 hash (skip zero)   : 380D6C3C
    AccurateRip v1 signature : 41EC1C75
    AccurateRip v2 signature : 6A79B717
        ->Track not present in AccurateRip database.
    Statistics
        Read error                           : 0
        Jitter error (maybe fixed)           : 0
        Retry sector count                   : 0
        Damaged sector count                 : 0

Track 06
    Filename : /Users/matthewkavanagh/Music/XLD/WCAR/We Came As Romans - Tracing Back Roots (2013) [FLAC]/06 Never Let Me Go.flac

    Track gain               : -11.41 dB
    Peak                     : 0.988678
    CRC32 hash (test run)    : E2AD025B
    CRC32 hash               : E2AD025B
    CRC32 hash (skip zero)   : 4C0DC7AF
    AccurateRip v1 signature : 9B898A20
    AccurateRip v2 signature : 35416881
        ->Track not present in AccurateRip database.
    Statistics
        Read error                           : 0
        Jitter error (maybe fixed)           : 0
        Retry sector count                   : 0
        Damaged sector count                 : 0

Track 07
    Filename : /Users/matthewkavanagh/Music/XLD/WCAR/We Came As Romans - Tracing Back Roots (2013) [FLAC]/07 Hope.flac
    Pre-gap length : 00:01:20

    Track gain               : -9.71 dB
    Peak                     : 0.988678
    CRC32 hash (test run)    : 085C4F14
    CRC32 hash               : 085C4F14
    CRC32 hash (skip zero)   : 16309EDE
    AccurateRip v1 signature : BBF88F3B
    AccurateRip v2 signature : 1892087E
        ->Track not present in AccurateRip database.
    Statistics
        Read error                           : 0
        Jitter error (maybe fixed)           : 0
        Retry sector count                   : 0
        Damaged sector count                 : 0

Track 08
    Filename : /Users/matthewkavanagh/Music/XLD/WCAR/We Came As Romans - Tracing Back Roots (2013) [FLAC]/08 Tell Me Now.flac
    Pre-gap length : 00:01:07

    Track gain               : -10.42 dB
    Peak                     : 0.988678
    CRC32 hash (test run)    : 16DC5DDA
    CRC32 hash               : 16DC5DDA
    CRC32 hash (skip zero)   : 71A03519
    AccurateRip v1 signature : A30FB8D9
    AccurateRip v2 signature : 08A8790E
        ->Track not present in AccurateRip database.
    Statistics
        Read error                           : 0
        Jitter error (maybe fixed)           : 0
        Retry sector count                   : 0
        Damaged sector count                 : 0

Track 09
    Filename : /Users/matthewkavanagh/Music/XLD/WCAR/We Came As Romans - Tracing Back Roots (2013) [FLAC]/09 A Moment.flac
    Pre-gap length : 00:01:00

    Track gain               : -9.89 dB
    Peak                     : 0.988678
    CRC32 hash (test run)    : EF4E7E5C
    CRC32 hash               : EF4E7E5C
    CRC32 hash (skip zero)   : 9121145F
    AccurateRip v1 signature : 4D5D5FF0
    AccurateRip v2 signature : 7D6463F3
        ->Track not present in AccurateRip database.
    Statistics
        Read error                           : 0
        Jitter error (maybe fixed)           : 0
        Retry sector count                   : 0
        Damaged sector count                 : 0

Track 10
    Filename : /Users/matthewkavanagh/Music/XLD/WCAR/We Came As Romans - Tracing Back Roots (2013) [FLAC]/10 I Am Free.flac
    Pre-gap length : 00:01:24

    Track gain               : -10.33 dB
    Peak                     : 0.988678
    CRC32 hash (test run)    : 37B2B5CE
    CRC32 hash               : 37B2B5CE
    CRC32 hash (skip zero)   : 09DDF92C
    AccurateRip v1 signature : E14857DA
    AccurateRip v2 signature : 247F3275
        ->Track not present in AccurateRip database.
    Statistics
        Read error                           : 0
        Jitter error (maybe fixed)           : 0
        Retry sector count                   : 0
        Damaged sector count                 : 0

Track 11
    Filename : /Users/matthewkavanagh/Music/XLD/WCAR/We Came As Romans - Tracing Back Roots (2013) [FLAC]/11 Through The Darkest Dark And Brightest Bright.flac
    Pre-gap length : 00:01:46

    Track gain               : -9.85 dB
    Peak                     : 0.988678
    CRC32 hash (test run)    : 8BE00FB5
    CRC32 hash               : 8BE00FB5
    CRC32 hash (skip zero)   : 09A66DFD
    AccurateRip v1 signature : BB9C1E7D
    AccurateRip v2 signature : 230E3DD6
        ->Track not present in AccurateRip database.
    Statistics
        Read error                           : 0
        Jitter error (maybe fixed)           : 0
        Retry sector count                   : 0
        Damaged sector count                 : 0

No errors occurred

End of status report


Код:
Код: Выделить всё
-----------------------

DON'T MODIFY THIS FILE

-----------------------

PERFORMER: auCDtect Task Manager, ver. 1.5.1RC6 build 1.5.1.7
Copyright (c) 2008-2010 y-soft. All rights reserved
http:/y-soft.org

ANALYZER: auCDtect: CD records authenticity detector, version 0.8.2
Copyright (c) 2004 Oleg Berngardt. All rights reserved.
Copyright (c) 2004 Alexander Djourik. All rights reserved.

FILE: 11. We Came As Romans - Through The Darkest Dark And Brightest Bright.flac
  Size: 29866982 Hash: 0A6DC65CE86BC7D107A8D2B87D49BFD2 Accuracy: -m0
  Conclusion: CDDA 100%
  Signature: 7155547F583736FD36FA067B38DD30704DA19431
FILE: 10. We Came As Romans - I Am Free.flac
  Size: 28530727 Hash: 29A099EE6118A80437DB2FF3917C3E9D Accuracy: -m0
  Conclusion: CDDA 100%
  Signature: 0BD33F6C96AA763957B908D1F2B3281728C9689E
FILE: 09. We Came As Romans - A Moment.flac
  Size: 27879565 Hash: 19AFFA778DFA5B62BE0DDE7899D0DE64 Accuracy: -m0
  Conclusion: CDDA 100%
  Signature: 17E8A7AFB9B62FC1BBE70EBC543635465CC6900B
FILE: 08. We Came As Romans - Tell Me Now.flac
  Size: 26918222 Hash: C9B62B36F3EF6D77E554C79A7ADD95E5 Accuracy: -m0
  Conclusion: CDDA 100%
  Signature: 6A7A6632F2780BC485D52CF663E6571982A82E3B
FILE: 07. We Came As Romans - Hope.flac
  Size: 33534639 Hash: D7DAA7EC8184949485B9B20BFDB43380 Accuracy: -m0
  Conclusion: CDDA 100%
  Signature: E7B0395120C9CCAA5EFA3BC3D2A2C8A6121AE65A
FILE: 06. We Came As Romans - Never Let Me Go.flac
  Size: 29406288 Hash: B203D70D5BEA02E0995CD75A2C405FA0 Accuracy: -m0
  Conclusion: CDDA 100%
  Signature: 6C26BCBDA2667E4A8565D74A63BA842A60F74765
FILE: 05. We Came As Romans - Present, Future, And Past.flac
  Size: 28578637 Hash: 1F8A2A7ABF69AEE924657879BF8F26B0 Accuracy: -m0
  Conclusion: CDDA 100%
  Signature: 0715683D3110BF525C8F8337534B4E1902AD9216
FILE: 04. We Came As Romans - Ghosts.flac
  Size: 27756975 Hash: B1314745EC3F07159148846463C0ECEC Accuracy: -m0
  Conclusion: CDDA 100%
  Signature: 974FB9D8E724C9C2FBAE543753F09002A2E2716B
FILE: 03. We Came As Romans - I Survive.flac
  Size: 31398087 Hash: 1E42647B6A5FBCD6C2709165398C2E4B Accuracy: -m0
  Conclusion: CDDA 99%
  Signature: E8B471636AA5DD6C76F747F6E8CBE79E1330F6E0
FILE: 02. We Came As Romans - Fade Away.flac
  Size: 29220454 Hash: 00068EF7434ACB9C3B11965AF695E1B8 Accuracy: -m0
  Conclusion: CDDA 100%
  Signature: B478173BC1807B7BE5968335263F488836660A86
FILE: 01. We Came As Romans - Tracing Back Roots.flac
  Size: 28220691 Hash: 5E7346B99BE3E4720BDC559E1990DA10 Accuracy: -m0
  Conclusion: CDDA 100%
  Signature: C90C5E4C65C87B52B9673B69A1BFB44BEBC76674




Тип рипа: Tracks+.cue
Аудиокодек: FLAC
Битрейт аудио: lossless


Торрент-файл обновлен 27.08.2016
Правила, инструкции, FAQ!!!
Торрент  Добавлен [27 авг 2016, 18:43] Скачать торрент Магнет ссылка
Скачать торрент
24.81 КБ

Статус
Проверен Admin (27 авг 2016, 18:45)
 
Размер  1.52 ГБ
Приватный: Нет (DHT включён)
.torrent скачан  6
Как залить торрент? | Как скачать Torrent? | Как смотреть и слушать онлайн?  
Гость
 



Вернуться в Дискографии (Зарубежные)

Кто сейчас на конференции

Сейчас этот форум просматривают: нет зарегистрированных пользователей и гости: 0