Время Приключений с Финном и Джейком / Adventure Time with Finn & Jake (2010 - 2011) TVRip (Сезон 1-3; серий 39 из 39)


Статистика раздачи
Размер: 13.31 ГБ | Добавлен: 27 дек 2013, 10:25 | Скачали: 0
Сидеров: 37  [0 байт/сек]    Личеров: 16  [0 байт/сек]

Сообщение Гость » 27 дек 2013, 10:25

Время приключений (Сезон 1-3; серий 39 из 39) / Adventure Time with Finn & Jake (2010 - 2011) TVRip

Русское название: Время приключений
Оригинальное название: Adventure Time with Finn & Jake
Произведено: США, Cartoon Network
Год выпуска: 2010 - 2011
Жанр: Приключения, Комедия, Рисованая анимация
Язык: Русский

Описание:
Сериал повествует о необыкновенных и весёлых приключениях двух лучших друзей: мальчика Финна и его собаки Джейка. Действие сериала происходит в волшебной стране Ууу. Финн — 13-летний мальчик, который обожает путешествовать и спасать принцесс из лап ужасных монстров и злодеев, населяющих Землю Ууу. Джейк — лучший друг Финна. Это волшебная собака со способностью растягивать своё тело до практически любых размеров и форм. Джейку 28 лет и он исполняет роль эдакого приятеля-наставника Финна, а его волшебные способности помогают мальчику в его борьбе со злом.



Режиссер: Пендлтон Ворд / Pendleton Ward
Персонажи: Мальчик Финн, Джейк - Пёс, Принцесса Бубыльгум, Леди Ливнерог, Снежный Король, Марселин

Продолжительность: 39 x ~00:21:30
Перевод: Полный дубляж, вкл. песни
Автор перевода: Cartoon Network
Субтитры: Нет

Видеокодек: MPEG-2
Битрейт видео: ~1 842 Kbps
Размер кадра: 720х576 (4:3)
Качество видео: TVRip
Аудиокодек: MP2, 2 channels
Битрейт аудио: MPEG Audio 48000Hz stereo 192kbps
Список серий:
1 Сезон
Season 1, Episode 1: Slumber Party Panic / Trouble in Lumpy Space
Season 1, Episode 2: Prisoners of Love / Tree Trunks
Season 1, Episode 3: The Enchiridion! / The Jiggler
Season 1, Episode 4: Ricardio the Heart Guy / Business Time
Season 1, Episode 5: My Two Favorite People / Memories of Boom Boom Mountain
Season 1, Episode 6: Wizard / Evicted!
Season 1, Episode 7: City of Thieves / The Witch's Garden
Season 1, Episode 8: What is Life? / Ocean of Fear
Season 1, Episode 9: Wedding Bells Thaw / Freak City
Season 1, Episode 10: The Duke / Donny
Season 1, Episode 11: Henchman / Dungeon
Season 1, Episode 12: What Have You Done? / Rainy Day Daydream
Season 1, Episode 13: Gut Grinder / His Heroe Witch's Garden
2 Сезон
Season 2, Episode 1: It Came from the Nightosphere / The Eyes
Season 2, Episode 2: Loyalty to the King / Blood Under the Skin
Season 2, Episode 3: Storytelling / Slow Love
Season 2, Episode 4: Power Animal / Crystals Have Power
Season 2, Episode 5: The Other Tarts / To Cut a Woman's Hair
Season 2, Episode 6: The Chamber of Frozen Blades / Her Parents
Season 2, Episode 7: The Pods / The Silent King
Season 2, Episode 8: The Real You / Guardians of Sunshine
Season 2, Episode 9: Death in Bloom / Susan Strong
Season 2, Episode 10: Mystery Train / Go With Me
Season 2, Episode 11: Belly of the Beast / The Limit
Season 2, Episode 12: Video Makers / Heat Signature
Season 2, Episode 13: Mortal Recoil
3 Сезон
Season 3, Episode 1: Conquest of Cuteness - Morituri Te Salutamus
Season 3, Episode 2: Too Young - Thank You
Season 3, Episode 3: Fionna and Cake - The Monster
Season 3, Episode 4: Still - Wizard Battle
Season 3, Episode 5: Beautopia - From Bad to Worse
Season 3, Episode 6: What Was Missing - Apple Thief
Season 3, Episode 7: Memory of a Memory - Hitman
Season 3, Episode 8: No One Can Hear You - The Creeps
Season 3, Episode 9: Jake vs. Me-Mow - The New Frontier
Season 3, Episode 10: Holly Jolly Secrets (Part I) - Holly Jolly Secrets (Part II)
Season 3, Episode 11: Marceline's Closet - Incendium
Season 3, Episode 12: Another Way - Paper Pete
Season 3, Episode 13: Ghost Princess - Dad's Dungeon
Общее
Полное имя : D:\тракеры\Время приключений\Season 1\S 01 ep 01 Slumber Party Panic - Trouble in Lumpy Space.mpg
Формат : MPEG-PS
Размер файла : 341 Мбайт
Продолжительность : 21 м.
Режим общего битрейта : Переменный
Общий поток : 2171 Кбит/сек

Видео
Идентификатор : 224 (0xE0)
Формат : MPEG Video
Версия формата : Version 2
Профиль формата : Main@Main
Параметр BVOP формата : Нет
Параметр матрицы формата : Выборочная
Параметр GOP формата : M=1, N=28
Продолжительность : 21 м.
Вид битрейта : Переменный
Битрейт : 1936 Кбит/сек
Максимальный битрейт : 15,0 Мбит/сек
Ширина : 720 пикселей
Высота : 576 пикселей
Соотношение сторон : 4:3
Частота кадров : 25,000 кадров/сек
Стандарт вещания : PAL
Цветовое пространство : YUV
Субдискретизация насыщенности : 4:2:0
Битовая глубина : 8 бит
Тип развёртки : Чересстрочная
Порядок развёртки : Верхнее поле первое
Метод сжатия : С потерями
Бит/(Пиксели*Кадры) : 0.187
Размер потока : 304 Мбайт (89%)

Аудио
Идентификатор : 192 (0xC0)
Формат : MPEG Audio
Версия формата : Version 1
Профиль формата : Layer 2
Продолжительность : 21 м.
Вид битрейта : Постоянный
Битрейт : 192 Кбит/сек
Каналы : 2 канала
Частота : 48,0 КГц
Метод сжатия : С потерями
Задержка видео : -112 мс.
Размер потока : 30,2 Мбайт (9%) [/spoiler] Скриншоты:
Правила, инструкции, FAQ!!!
Торрент  Добавлен [27 дек 2013, 10:25] Скачать торрент Магнет ссылка
Скачать торрент
37.48 КБ

Статус
Проверен 
 
Размер  13.31 ГБ
Приватный: Нет (DHT включён)
.torrent скачан  0
Как залить торрент? | Как скачать Torrent? | Как смотреть и слушать онлайн?  
Гость
 



Вернуться в Зарубежные мультфильмы (DVD Video)

Кто сейчас на конференции

Сейчас этот форум просматривают: нет зарегистрированных пользователей и гости: 0