Властелин колец: Кинотрилогия / The Lord of the Rings: The Motion Picture Trilogy (2001-2003) BDRip 1080p

Статистика раздачи
Размер: 34.51 ГБ | Добавлен: 02 янв 2013, 23:34 | Скачали: 15
Сидеров: 11  [0 байт/сек]    Личеров: 5  [0 байт/сек]

Сообщение Гость » 02 янв 2013, 23:34

Властелин колец: Братство кольца / The Lord of the Rings: The Fellowship of the Ring (2001)



Информация о фильме
Название: Властелин колец: Братство кольца
Оригинальное название: The Lord of the Rings: The Fellowship of the Ring
Год выхода: 2001
Жанр: фэнтези, боевик, приключения
Режиссер: Питер Джексон
В ролях: Элайджа Вуд, Иэн МакКеллен, Вигго Мортенсен, Шон Бин, Орландо Блум, Джон Рис-Дэвис, Иэн Холм, Шон Эстин, Билли Бойд, Доминик Монахэн

О фильме: Сказания о Средиземье — это хроника Великой войны за Кольцо, войны, длившейся не одну тысячу лет. Тот, кто владел Кольцом, получал власть над всеми живыми тварями, но был обязан служить злу.

Тихая деревня, где живут хоббиты. Волшебник Гэндальф, придя на 111-й день рождения к своему старому другу Бильбо Бэггинсу, начинает вести разговор о кольце, которое Бильбо нашел много лет назад. Это кольцо принадлежало когда-то темному властителю Средиземья Саурону, и оно дает большую власть своему обладателю. Теперь Саурон хочет вернуть себе власть над Средиземьем. Бильбо отдает найденное кольцо своему племяннику Фродо, который пытается научиться справляться с тем страшным могуществом, которое дает ему кольцо…



Выпущено: New Line Cinema
Продолжительность: 02:58:24
Перевод: Дублированный

Файл
Кодек: x264
Качество: BDRip (источник: Blu-ray Disc)
Видео: 1920x800 (2,40:1), 23.976 fps, 8140 kbps
Аудио #1: AC-3, 6 ch, 448 kbps (Rus)
Аудио #2: AC-3, 6 ch, 640 kbps (Eng)
Субтитры: Русские, Английские

Скриншоты

Общее
Уникальный идентификатор : 212732062744489933964760200672404938360 (0xA00AB47960E04D1DBC8EE0A0D7659E78)
Полное имя : The.Lord.of.the.Rings.The.Fellowship.of.the.Ring.2001.BDRip.1080p.Rus.Eng.mkv
Формат : Matroska
Версия формата : Version 2
Размер файла : 11,5 Гбайт
Продолжительность : 2 ч. 58 м.
Общий поток : 9227 Кбит/сек
Название фильма : Властелин колец: Братство кольца / The Lord of the Rings: The Fellowship of the Ring (2001)
Дата кодирования : UTC 2013-01-01 18:10:07
Программа кодирования : mkvmerge v5.8.0 ('No Sleep / Pillow') built on Sep 2 2012 15:37:04
Библиотека кодирования : libebml v1.2.3 + libmatroska v1.3.0

Видео
Идентификатор : 1
Формат : AVC
Формат/Информация : Advanced Video Codec
Профиль формата : High@L4.1
Параметр CABAC формата : Да
Параметр ReFrames формата : 5 кадров
Идентификатор кодека : V_MPEG4/ISO/AVC
Продолжительность : 2 ч. 58 м.
Битрейт : 8140 Кбит/сек
Ширина : 1920 пикселей
Высота : 800 пикселей
Соотношение сторон : 2,40:1
Частота кадров : 23,976 кадра/сек
Цветовое пространство : YUV
Субдискретизация насыщенности : 4:2:0
Битовая глубина : 8 бит
Тип развёртки : Прогрессивная
Бит/(Пиксели*Кадры) : 0.221
Размер потока : 9,91 Гбайт (86%)
Заголовок : Release by AlexKa
Библиотека кодирования : x264 core 129 r2230 1cffe9f
Настройки программы : cabac=1 / ref=5 / deblock=1:-3:-3 / analyse=0x3:0x133 / me=umh / subme=11 / psy=1 / psy_rd=1.10:0.00 / mixed_ref=1 / me_range=32 / chroma_me=1 / trellis=2 / 8x8dct=1 / cqm=0 / deadzone=21,11 / fast_pskip=0 / chroma_qp_offset=-2 / threads=12 / lookahead_threads=2 / sliced_threads=0 / nr=0 / decimate=0 / interlaced=0 / bluray_compat=0 / constrained_intra=0 / bframes=5 / b_pyramid=2 / b_adapt=2 / b_bias=0 / direct=3 / weightb=1 / open_gop=0 / weightp=2 / keyint=240 / keyint_min=23 / scenecut=40 / intra_refresh=0 / rc=2pass / mbtree=0 / bitrate=8140 / ratetol=1.0 / qcomp=0.60 / qpmin=0 / qpmax=69 / qpstep=4 / cplxblur=20.0 / qblur=0.5 / ip_ratio=1.40 / pb_ratio=1.30 / aq=1:0.80
Язык : English

Аудио #1
Идентификатор : 2
Формат : AC-3
Формат/Информация : Audio Coding 3
Расширение режима : CM (complete main)
Идентификатор кодека : A_AC3
Продолжительность : 2 ч. 58 м.
Вид битрейта : Постоянный
Битрейт : 448 Кбит/сек
Каналы : 6 каналов
Расположение каналов : Front: L C R, Side: L R, LFE
Частота : 48,0 КГц
Битовая глубина : 16 бит
Метод сжатия : С потерями
Размер потока : 572 Мбайт (5%)
Заголовок : Rus
Язык : Russian

Аудио #2
Идентификатор : 3
Формат : AC-3
Формат/Информация : Audio Coding 3
Расширение режима : CM (complete main)
Идентификатор кодека : A_AC3
Продолжительность : 2 ч. 58 м.
Вид битрейта : Постоянный
Битрейт : 640 Кбит/сек
Каналы : 6 каналов
Расположение каналов : Front: L C R, Side: L R, LFE
Частота : 48,0 КГц
Битовая глубина : 16 бит
Метод сжатия : С потерями
Размер потока : 817 Мбайт (7%)
Заголовок : Eng
Язык : English

Текст #1
Идентификатор : 4
Формат : UTF-8
Идентификатор кодека : S_TEXT/UTF8
Идентификатор кодека/Информация : UTF-8 Plain Text
Заголовок : Rus
Язык : Russian

Текст #2
Идентификатор : 5
Формат : UTF-8
Идентификатор кодека : S_TEXT/UTF8
Идентификатор кодека/Информация : UTF-8 Plain Text
Заголовок : Eng
Язык : English

Меню
00:00:00.000 : :Chapter 01
00:07:15.435 : :Chapter 02
00:11:36.946 : :Chapter 03
00:15:41.523 : :Chapter 04
00:20:05.162 : :Chapter 05
00:24:29.926 : :Chapter 06
00:26:43.226 : :Chapter 07
00:29:24.345 : :Chapter 08
00:38:31.017 : :Chapter 09
00:43:08.127 : :Chapter 10
00:46:59.149 : :Chapter 11
00:49:16.787 : :Chapter 12
00:55:10.598 : :Chapter 13
00:58:35.386 : :Chapter 14
01:00:17.739 : :Chapter 15
01:04:57.184 : :Chapter 16
01:07:28.419 : :Chapter 17
01:13:41.375 : :Chapter 18
01:15:42.246 : :Chapter 19
01:19:11.329 : :Chapter 20
01:22:44.417 : :Chapter 21
01:24:55.840 : :Chapter 22
01:26:34.731 : :Chapter 23
01:33:32.356 : :Chapter 24
01:35:25.469 : :Chapter 25
01:38:24.773 : :Chapter 26
01:43:06.305 : :Chapter 27
01:47:53.467 : :Chapter 28
01:52:49.679 : :Chapter 29
02:01:46.007 : :Chapter 30
02:11:27.462 : :Chapter 31
02:17:53.807 : :Chapter 32
02:23:22.468 : :Chapter 33
02:25:02.694 : :Chapter 34
02:25:55.413 : :Chapter 35
02:28:39.994 : :Chapter 36
02:35:10.134 : :Chapter 37
02:41:49.950 : :Chapter 38
02:44:24.646 : :Chapter 39
02:50:42.232 : :Chapter 40
02:58:23.776 : :Chapter 41


Властелин колец: Две крепости / The Lord of the Rings: The Two Towers (2002)



Информация о фильме
Название: Властелин колец: Две крепости
Оригинальное название: The Lord of the Rings: The Two Towers
Год выхода: 2002
Жанр: фэнтези, боевик, приключения
Режиссер: Питер Джексон
В ролях: Элайджа Вуд, Шон Эстин, Орландо Блум, Вигго Мортенсен, Иэн МакКеллен, Доминик Монахэн, Миранда Отто, Джон Рис-Дэвис, Энди Серкис, Билли Бойд

О фильме: Братство распалось, но Кольцо Всевластья должно быть уничтожено. Фродо и Сэм вынуждены доверить свои жизни Голлуму, который взялся провести их к вратам Мордора. Громадная Армия Сарумана приближается: члены братства и их союзники готовы принять бой. Битва за Средиземье продолжается.



Выпущено: New Line Cinema
Продолжительность: 02:59:25
Перевод: Дублированный

Файл
Кодек: x264
Качество: BDRip (источник: Blu-ray Disc)
Видео: 1920x800 (2,40:1), 23.976 fps, 8090 kbps
Аудио #1: AC-3, 6 ch, 448 kbps (Rus)
Аудио #2: AC-3, 6 ch, 640 kbps (Eng)
Субтитры: Русские (форс,полные), Английские

Скриншоты

Общее
Уникальный идентификатор : 194021208415652835231852491984860659098 (0x91F72021A5425C42AE4971AADE98BD9A)
Полное имя : The.Lord.of.the.Rings.The.Two.Towers.2002.BDRip.1080p.Rus.Eng.mkv
Формат : Matroska
Версия формата : Version 2
Размер файла : 11,5 Гбайт
Продолжительность : 2 ч. 59 м.
Общий поток : 9177 Кбит/сек
Название фильма : Властелин колец: Две крепости / The Lord of the Rings: The Two Towers (2002)
Дата кодирования : UTC 2013-01-01 18:18:01
Программа кодирования : mkvmerge v5.8.0 ('No Sleep / Pillow') built on Sep 2 2012 15:37:04
Библиотека кодирования : libebml v1.2.3 + libmatroska v1.3.0

Видео
Идентификатор : 1
Формат : AVC
Формат/Информация : Advanced Video Codec
Профиль формата : High@L4.1
Параметр CABAC формата : Да
Параметр ReFrames формата : 5 кадров
Идентификатор кодека : V_MPEG4/ISO/AVC
Продолжительность : 2 ч. 59 м.
Битрейт : 8090 Кбит/сек
Ширина : 1920 пикселей
Высота : 800 пикселей
Соотношение сторон : 2,40:1
Частота кадров : 23,976 кадра/сек
Цветовое пространство : YUV
Субдискретизация насыщенности : 4:2:0
Битовая глубина : 8 бит
Тип развёртки : Прогрессивная
Бит/(Пиксели*Кадры) : 0.220
Размер потока : 9,91 Гбайт (86%)
Заголовок : Release by AlexKa
Библиотека кодирования : x264 core 129 r2230 1cffe9f
Настройки программы : cabac=1 / ref=5 / deblock=1:-3:-3 / analyse=0x3:0x133 / me=umh / subme=11 / psy=1 / psy_rd=1.10:0.00 / mixed_ref=1 / me_range=32 / chroma_me=1 / trellis=2 / 8x8dct=1 / cqm=0 / deadzone=21,11 / fast_pskip=0 / chroma_qp_offset=-2 / threads=12 / lookahead_threads=2 / sliced_threads=0 / nr=0 / decimate=0 / interlaced=0 / bluray_compat=0 / constrained_intra=0 / bframes=5 / b_pyramid=2 / b_adapt=2 / b_bias=0 / direct=3 / weightb=1 / open_gop=0 / weightp=2 / keyint=240 / keyint_min=23 / scenecut=40 / intra_refresh=0 / rc=2pass / mbtree=0 / bitrate=8090 / ratetol=1.0 / qcomp=0.60 / qpmin=0 / qpmax=69 / qpstep=4 / cplxblur=20.0 / qblur=0.5 / ip_ratio=1.40 / pb_ratio=1.30 / aq=1:0.80
Язык : English

Аудио #1
Идентификатор : 2
Формат : AC-3
Формат/Информация : Audio Coding 3
Расширение режима : CM (complete main)
Идентификатор кодека : A_AC3
Продолжительность : 2 ч. 59 м.
Вид битрейта : Постоянный
Битрейт : 448 Кбит/сек
Каналы : 6 каналов
Расположение каналов : Front: L C R, Side: L R, LFE
Частота : 48,0 КГц
Битовая глубина : 16 бит
Метод сжатия : С потерями
Размер потока : 575 Мбайт (5%)
Заголовок : Rus
Язык : Russian

Аудио #2
Идентификатор : 3
Формат : AC-3
Формат/Информация : Audio Coding 3
Расширение режима : CM (complete main)
Идентификатор кодека : A_AC3
Продолжительность : 2 ч. 59 м.
Вид битрейта : Постоянный
Битрейт : 640 Кбит/сек
Каналы : 6 каналов
Расположение каналов : Front: L C R, Side: L R, LFE
Частота : 48,0 КГц
Битовая глубина : 16 бит
Метод сжатия : С потерями
Размер потока : 821 Мбайт (7%)
Заголовок : Eng
Язык : English

Текст #1
Идентификатор : 4
Формат : UTF-8
Идентификатор кодека : S_TEXT/UTF8
Идентификатор кодека/Информация : UTF-8 Plain Text
Заголовок : Rus forced
Язык : Russian

Текст #2
Идентификатор : 5
Формат : UTF-8
Идентификатор кодека : S_TEXT/UTF8
Идентификатор кодека/Информация : UTF-8 Plain Text
Заголовок : Rus
Язык : Russian

Текст #3
Идентификатор : 6
Формат : UTF-8
Идентификатор кодека : S_TEXT/UTF8
Идентификатор кодека/Информация : UTF-8 Plain Text
Заголовок : Eng
Язык : English

Меню
00:00:00.000 : :Chapter 01
00:04:08.748 : :Chapter 02
00:11:32.149 : :Chapter 03
00:12:17.695 : :Chapter 04
00:14:27.199 : :Chapter 05
00:17:30.549 : :Chapter 06
00:20:18.592 : :Chapter 07
00:21:12.729 : :Chapter 08
00:24:11.074 : :Chapter 09
00:28:19.030 : :Chapter 10
00:30:50.765 : :Chapter 11
00:34:19.682 : :Chapter 12
00:41:18.601 : :Chapter 13
00:46:55.270 : :Chapter 14
00:47:35.435 : :Chapter 15
00:52:53.128 : :Chapter 16
01:04:21.649 : :Chapter 17
01:06:14.428 : :Chapter 18
01:09:25.202 : :Chapter 19
01:10:51.246 : :Chapter 20
01:11:55.853 : :Chapter 21
01:13:38.497 : :Chapter 22
01:16:08.981 : :Chapter 23
01:20:35.997 : :Chapter 24
01:21:32.387 : :Chapter 25
01:26:01.406 : :Chapter 26
01:32:39.303 : :Chapter 27
01:35:05.908 : :Chapter 28
01:37:42.398 : :Chapter 29
01:39:22.039 : :Chapter 30
01:43:02.718 : :Chapter 31
01:45:28.697 : :Chapter 32
01:48:24.414 : :Chapter 33
01:55:44.812 : :Chapter 34
02:01:18.062 : :Chapter 35
02:02:37.933 : :Chapter 36
02:04:36.177 : :Chapter 37
02:06:20.906 : :Chapter 38
02:09:53.327 : :Chapter 39
02:16:09.286 : :Chapter 40
02:17:48.635 : :Chapter 41
02:21:13.465 : :Chapter 42
02:22:58.611 : :Chapter 43
02:28:55.551 : :Chapter 44
02:30:20.344 : :Chapter 45
02:30:55.087 : :Chapter 46
02:33:11.307 : :Chapter 47
02:35:43.292 : :Chapter 48
02:40:21.778 : :Chapter 49
02:42:49.968 : :Chapter 50
02:47:36.254 : :Chapter 51
02:49:15.937 : :Chapter 52
02:51:42.458 : :Chapter 53
02:59:24.336 : :Chapter 54


Властелин колец: Возвращение Короля / The Lord of the Rings: The Return of the King (2003)



Информация о фильме
Название: Властелин колец: Возвращение Короля
Оригинальное название: The Lord of the Rings: The Return of the King
Год выхода: 2003
Жанр: фэнтези, боевик, приключения
Режиссер: Питер Джексон
В ролях: Элайджа Вуд, Вигго Мортенсен, Шон Эстин, Иэн МакКеллен, Орландо Блум, Доминик Монахэн, Билли Бойд, Энди Серкис, Миранда Отто, Лив Тайлер

О фильме: Последняя часть трилогии о Кольце Всевластия и о героях, взявших на себя бремя спасения Средиземья. Повелитель сил Тьмы Саурон направляет свои бесчисленные рати под стены Минас-Тирита, крепости Последней Надежды. Он предвкушает близкую победу, но именно это и мешает ему заметить две крохотные фигурки — хоббитов, приближающихся к Роковой Горе, где им предстоит уничтожить Кольцо Всевластия. Улыбнется ли им счастье?



Выпущено: New Line Cinema
Продолжительность: 03:21:01
Перевод: Дублированный

Файл
Кодек: x264
Качество: BDRip (источник: Blu-ray Disc)
Видео: 1920x800 (2,40:1), 23.976 fps, 7110 kbps
Аудио #1: AC-3, 6 ch, 448 kbps (Rus)
Аудио #2: AC-3, 6 ch, 640 kbps (Eng)
Субтитры: Русские (форс,полные), Английские

Скриншоты

Общее
Уникальный идентификатор : 232628518986741916328653295151679011736 (0xAF029F8116F4CEA494B6D017CAEFFB98)
Полное имя : The.Lord.of.the.Rings.The.Return.of.the.King.2003.BDRip.1080p.Rus.Eng.mkv
Формат : Matroska
Версия формата : Version 2
Размер файла : 11,5 Гбайт
Продолжительность : 3 ч. 21 м.
Общий поток : 8199 Кбит/сек
Название фильма : Властелин колец: Возвращение Короля / The Lord of the Rings: The Return of the King (2003)
Дата кодирования : UTC 2013-01-01 18:24:33
Программа кодирования : mkvmerge v5.8.0 ('No Sleep / Pillow') built on Sep 2 2012 15:37:04
Библиотека кодирования : libebml v1.2.3 + libmatroska v1.3.0

Видео
Идентификатор : 1
Формат : AVC
Формат/Информация : Advanced Video Codec
Профиль формата : High@L4.1
Параметр CABAC формата : Да
Параметр ReFrames формата : 5 кадров
Идентификатор кодека : V_MPEG4/ISO/AVC
Продолжительность : 3 ч. 21 м.
Битрейт : 7110 Кбит/сек
Ширина : 1920 пикселей
Высота : 800 пикселей
Соотношение сторон : 2,40:1
Частота кадров : 23,976 кадра/сек
Цветовое пространство : YUV
Субдискретизация насыщенности : 4:2:0
Битовая глубина : 8 бит
Тип развёртки : Прогрессивная
Бит/(Пиксели*Кадры) : 0.193
Размер потока : 9,76 Гбайт (85%)
Заголовок : Release by AlexKa
Библиотека кодирования : x264 core 129 r2230 1cffe9f
Настройки программы : cabac=1 / ref=5 / deblock=1:-3:-3 / analyse=0x3:0x133 / me=umh / subme=11 / psy=1 / psy_rd=1.10:0.00 / mixed_ref=1 / me_range=32 / chroma_me=1 / trellis=2 / 8x8dct=1 / cqm=0 / deadzone=21,11 / fast_pskip=0 / chroma_qp_offset=-2 / threads=12 / lookahead_threads=2 / sliced_threads=0 / nr=0 / decimate=0 / interlaced=0 / bluray_compat=0 / constrained_intra=0 / bframes=5 / b_pyramid=2 / b_adapt=2 / b_bias=0 / direct=3 / weightb=1 / open_gop=0 / weightp=2 / keyint=240 / keyint_min=23 / scenecut=40 / intra_refresh=0 / rc=2pass / mbtree=0 / bitrate=7110 / ratetol=1.0 / qcomp=0.60 / qpmin=0 / qpmax=69 / qpstep=4 / cplxblur=20.0 / qblur=0.5 / ip_ratio=1.40 / pb_ratio=1.30 / aq=1:0.80
Язык : English

Аудио #1
Идентификатор : 2
Формат : AC-3
Формат/Информация : Audio Coding 3
Расширение режима : CM (complete main)
Идентификатор кодека : A_AC3
Продолжительность : 3 ч. 21 м.
Вид битрейта : Постоянный
Битрейт : 448 Кбит/сек
Каналы : 6 каналов
Расположение каналов : Front: L C R, Side: L R, LFE
Частота : 48,0 КГц
Битовая глубина : 16 бит
Метод сжатия : С потерями
Размер потока : 644 Мбайт (5%)
Заголовок : Rus
Язык : Russian

Аудио #2
Идентификатор : 3
Формат : AC-3
Формат/Информация : Audio Coding 3
Расширение режима : CM (complete main)
Идентификатор кодека : A_AC3
Продолжительность : 3 ч. 21 м.
Вид битрейта : Постоянный
Битрейт : 640 Кбит/сек
Каналы : 6 каналов
Расположение каналов : Front: L C R, Side: L R, LFE
Частота : 48,0 КГц
Битовая глубина : 16 бит
Метод сжатия : С потерями
Размер потока : 920 Мбайт (8%)
Заголовок : Eng
Язык : English

Текст #1
Идентификатор : 4
Формат : UTF-8
Идентификатор кодека : S_TEXT/UTF8
Идентификатор кодека/Информация : UTF-8 Plain Text
Заголовок : Rus forced
Язык : Russian

Текст #2
Идентификатор : 5
Формат : UTF-8
Идентификатор кодека : S_TEXT/UTF8
Идентификатор кодека/Информация : UTF-8 Plain Text
Заголовок : Rus
Язык : Russian

Текст #3
Идентификатор : 6
Формат : UTF-8
Идентификатор кодека : S_TEXT/UTF8
Идентификатор кодека/Информация : UTF-8 Plain Text
Заголовок : Eng
Язык : English

Меню
00:00:00.000 : :Chapter 01
00:06:13.581 : :Chapter 02
00:09:10.633 : :Chapter 03
00:12:08.394 : :Chapter 04
00:15:10.534 : :Chapter 05
00:19:09.898 : :Chapter 06
00:26:45.645 : :Chapter 07
00:29:39.736 : :Chapter 08
00:31:39.939 : :Chapter 09
00:37:13.397 : :Chapter 10
00:39:50.346 : :Chapter 11
00:43:46.040 : :Chapter 12
00:44:21.367 : :Chapter 13
00:46:38.337 : :Chapter 14
00:49:21.375 : :Chapter 15
00:51:53.318 : :Chapter 16
00:56:09.991 : :Chapter 17
00:58:09.819 : :Chapter 18
01:01:11.250 : :Chapter 19
01:06:30.152 : :Chapter 20
01:11:11.850 : :Chapter 21
01:14:45.898 : :Chapter 22
01:19:27.554 : :Chapter 23
01:21:55.869 : :Chapter 24
01:23:19.077 : :Chapter 25
01:25:19.906 : :Chapter 26
01:27:05.470 : :Chapter 27
01:29:59.394 : :Chapter 28
01:37:23.629 : :Chapter 29
01:46:32.135 : :Chapter 30
01:47:09.047 : :Chapter 31
01:47:43.582 : :Chapter 32
01:48:50.398 : :Chapter 33
01:54:52.135 : :Chapter 34
01:55:57.450 : :Chapter 35
02:01:33.786 : :Chapter 36
02:03:29.193 : :Chapter 37
02:07:20.257 : :Chapter 38
02:08:50.681 : :Chapter 39
02:10:34.701 : :Chapter 40
02:11:29.047 : :Chapter 41
02:12:20.390 : :Chapter 42
02:14:21.386 : :Chapter 43
02:16:27.137 : :Chapter 44
02:18:15.036 : :Chapter 45
02:24:41.422 : :Chapter 46
02:26:35.703 : :Chapter 47
02:29:38.552 : :Chapter 48
02:34:13.619 : :Chapter 49
02:36:25.918 : :Chapter 50
02:37:29.523 : :Chapter 51
02:39:02.199 : :Chapter 52
02:39:36.233 : :Chapter 53
02:45:14.863 : :Chapter 54
02:47:28.163 : :Chapter 55
02:50:59.749 : :Chapter 56
02:53:21.265 : :Chapter 57
02:58:13.349 : :Chapter 58
03:02:55.214 : :Chapter 59
03:12:12.521 : :Chapter 60
03:21:00.089 : :Chapter 61
Правила, инструкции, FAQ!!!
Торрент  Добавлен [02 янв 2013, 23:34] Скачать торрент Магнет ссылка
Скачать торрент
[ Размер 173.33 КБ / Просмотров 26 ]

Статус
Проверен 
 
Размер  34.51 ГБ
Приватный: Нет (DHT включён)
.torrent скачан  15
Как залить торрент? | Как скачать Torrent? | Как смотреть и слушать онлайн?  
Гость
 


  • Похожие торренты
    Ответы
    Просмотры
    Последнее сообщение

Вернуться в Трилогии

Кто сейчас на конференции

Сейчас этот форум просматривают: нет зарегистрированных пользователей и гости: 0