Три икса: Мировое господство / xXx: Return of Xander Cage (2017) BDRip 720p | Лицензия

Статистика раздачи
Размер: 4.37 ГБ | Добавлен: 27 май 2017, 23:11 | Скачали: 440
Сидеров: 464  [0 байт/сек]    Личеров: 61  [0 байт/сек]

Сообщение Гость » 27 май 2017, 23:11

Название: Три икса: Мировое господство
Оригинальное название: xXx: Return of Xander Cage
Год выпуска: 2017
Жанр: Боевик, триллер, приключения
Выпущено: США, Maple Cage Productions, One Race Films, Revolution Studios Rox Productions
Режиссер: Д. Дж. Карузо
В ролях: Вин Дизель, Донни Йен, Дипика Падукон, Крис У, Руби Роуз, Тони Джаа, Нина Добрев, Рори МакКанн, Тони Коллетт, Сэмюэл Л. Джексон, Айс Кьюб, Гермиона Корфилд, Тони Гонзалез, Майкл Биспинг, Ал Сапиенца, Найджел Беннетт

О фильме:
Правительство США поручает группе чистильщиков бассейнов и прочим любителям экстремальных ощущений найти секретное оружие возмездия под названием "Ящик Пандоры". Во главе команды становится Ксандер Кейдж, принудительно возвращенный из добровольного отпуска. Дело осложняется тем, что на поиски таинственного устройства уже выдвинулись летучие отряды паркурщиков, сборная отъявленных скейтбордистов в тяжелом весе и профессиональные художники стрит-арта.




Качество: BDRip 720p
Видео: AVC, 1280x534 (2.40:1), 23.976 fps, 4 966 Kbps (0.303 bit/pixel)
Аудио #1: AC-3, 48.0 KHz, 6 ch, 448 Kbps, CBR (Russian)
Аудио #2: AC-3, 48.0 KHz, 6 ch, 448 Kbps, CBR (English)
Субтитры: Русские, английские

Релиз:

x264 [info]: frame I:1475 Avg QP:15.51 size:141577 PSNR Mean Y:46.60 U:48.14 V:48.72 Avg:47.12 Global:46.58
x264 [info]: frame P:42486 Avg QP:18.55 size: 43359 PSNR Mean Y:44.98 U:46.65 V:47.41 Avg:45.53 Global:44.73
x264 [info]: frame B:109636 Avg QP:20.43 size: 17529 PSNR Mean Y:43.83 U:45.60 V:46.39 Avg:44.40 Global:43.57
Формат : Matroska
Версия формата : Version 2
Размер файла : 4,37 Гбайт
Продолжительность : 1 ч. 46 м.
Общий поток : 5864 Кбит/сек
Название фильма : xXx: Return of Xander Cage (2016)
Дата кодирования : UTC 2017-05-26 07:51:49
Программа кодирования : mkvmerge v5.3.0 ('I could have danced') built on Feb 9 2012 10:38:07
Библиотека кодирования : libebml v1.2.3 + libmatroska v1.3.0
Attachments : poster (1).jpg

Видео
Идентификатор : 1
Формат : AVC
Формат/Информация : Advanced Video Codec
Профиль формата : High@L4.1
Параметр CABAC формата : Да
Параметр ReFrames формата : 12 кадров
Идентификатор кодека : V_MPEG4/ISO/AVC
Продолжительность : 1 ч. 46 м.
Битрейт : 4966 Кбит/сек
Ширина : 1280 пикселей
Высота : 534 пикселя
Соотношение сторон : 2,40:1
Режим частоты кадров : Постоянный
Частота кадров : 23,976 (24000/1001) кадра/сек
Цветовое пространство : YUV
Субдискретизация насыщенности : 4:2:0
Битовая глубина : 8 бит
Тип развёртки : Прогрессивная
Бит/(Пиксели*Кадры) : 0.303
Размер потока : 3,62 Гбайт (83%)
Библиотека кодирования : x264 core 146 r2538 121396c
Настройки программы : cabac=1 / ref=12 / deblock=1:-3:-3 / analyse=0x3:0x133 / me=umh / subme=11 / psy=1 / psy_rd=1.00:0.00 / mixed_ref=1 / me_range=32 / chroma_me=1 / trellis=2 / 8x8dct=1 / cqm=0 / deadzone=21,11 / fast_pskip=0 / chroma_qp_offset=-2 / threads=12 / lookahead_threads=3 / sliced_threads=0 / nr=0 / decimate=0 / interlaced=0 / bluray_compat=0 / constrained_intra=0 / bframes=11 / b_pyramid=2 / b_adapt=2 / b_bias=0 / direct=3 / weightb=1 / open_gop=0 / weightp=2 / keyint=240 / keyint_min=23 / scenecut=40 / intra_refresh=0 / rc=2pass / mbtree=0 / bitrate=4966 / ratetol=1.0 / qcomp=0.60 / qpmin=0 / qpmax=69 / qpstep=4 / cplxblur=20.0 / qblur=0.5 / ip_ratio=1.40 / pb_ratio=1.30 / aq=1:0.90
Язык : English
Default : Да
Forced : Нет

Аудио #1
Идентификатор : 2
Формат : AC-3
Формат/Информация : Audio Coding 3
Расширение режима : CM (complete main)
Параметр Endianness формата : Big
Идентификатор кодека : A_AC3
Продолжительность : 1 ч. 46 м.
Вид битрейта : Постоянный
Битрейт : 448 Кбит/сек
Каналы : 6 каналов
Расположение каналов : Front: L C R, Side: L R, LFE
Частота : 48,0 КГц
Частота кадров : 31,250 кадров/сек (1536 spf)
Битовая глубина : 16 бит
Метод сжатия : С потерями
Размер потока : 342 Мбайт (8%)
Заголовок : Дублированный
Язык : Russian
Default : Да
Forced : Нет

Аудио #2
Идентификатор : 3
Формат : AC-3
Формат/Информация : Audio Coding 3
Расширение режима : CM (complete main)
Параметр Endianness формата : Big
Идентификатор кодека : A_AC3
Продолжительность : 1 ч. 46 м.
Вид битрейта : Постоянный
Битрейт : 448 Кбит/сек
Каналы : 6 каналов
Расположение каналов : Front: L C R, Side: L R, LFE
Частота : 48,0 КГц
Частота кадров : 31,250 кадров/сек (1536 spf)
Битовая глубина : 16 бит
Метод сжатия : С потерями
Размер потока : 342 Мбайт (8%)
Язык : English
Default : Нет
Forced : Нет

Текст #1
Идентификатор : 4
Формат : UTF-8
Идентификатор кодека : S_TEXT/UTF8
Идентификатор кодека/Информация : UTF-8 Plain Text
Заголовок : Forced
Язык : Russian
Default : Да
Forced : Нет

Текст #2
Идентификатор : 5
Формат : UTF-8
Идентификатор кодека : S_TEXT/UTF8
Идентификатор кодека/Информация : UTF-8 Plain Text
Заголовок : Full
Язык : Russian
Default : Нет
Forced : Нет

Текст #3
Идентификатор : 6
Формат : UTF-8
Идентификатор кодека : S_TEXT/UTF8
Идентификатор кодека/Информация : UTF-8 Plain Text
Заголовок : Forced
Язык : Ukrainian
Default : Нет
Forced : Нет

Текст #4
Идентификатор : 7
Формат : UTF-8
Идентификатор кодека : S_TEXT/UTF8
Идентификатор кодека/Информация : UTF-8 Plain Text
Заголовок : Full
Язык : Ukrainian
Default : Нет
Forced : Нет

Текст #5
Идентификатор : 8
Формат : UTF-8
Идентификатор кодека : S_TEXT/UTF8
Идентификатор кодека/Информация : UTF-8 Plain Text
Заголовок : Full
Язык : English
Default : Нет
Forced : Нет

Текст #6
Идентификатор : 9
Формат : UTF-8
Идентификатор кодека : S_TEXT/UTF8
Идентификатор кодека/Информация : UTF-8 Plain Text
Заголовок : SDH (Colored)
Язык : English
Default : Нет
Forced : Нет

Меню
00:00:00.000 : en:00:00:00.000
00:07:09.137 : en:00:07:09.137
00:12:00.511 : en:00:12:00.511
00:22:38.107 : en:00:22:38.107
00:27:56.258 : en:00:27:56.258
00:38:27.764 : en:00:38:27.764
00:46:59.650 : en:00:46:59.650
00:52:45.621 : en:00:52:45.621
01:02:10.060 : en:01:02:10.060
01:11:50.181 : en:01:11:50.181
01:18:35.252 : en:01:18:35.252
01:28:42.734 : en:01:28:42.734
01:37:57.163 : en:01:37:57.163

Скриншоты:

Правила, инструкции, FAQ!!!
Торрент  Добавлен [27 май 2017, 23:11]

Статус
Проверен 
 
Размер  4.37 ГБ
Приватный: Нет (DHT включён)
.torrent скачан  440
Как залить торрент? | Как скачать Torrent? | Как смотреть и слушать онлайн?  
Гость
 


  • Похожие торренты
    Ответы
    Просмотры
    Последнее сообщение

Вернуться в Новинки кино

Кто сейчас на конференции

Сейчас этот форум просматривают: нет зарегистрированных пользователей и гости: 0