Тор / Thor (2011) BDRip [1080p] 3D [Вертикальная стереопара]


Статистика раздачи
Размер: 15.42 ГБ | Добавлен: 28 сен 2013, 23:21 | Скачали: 2
Сидеров: 7  [0 байт/сек]    Личеров: 3  [0 байт/сек]

Сообщение Гость » 28 сен 2013, 23:21

Тор / Thor (2011) BDRip
«Мужество бессмертно»

Год выпуска: 2011
Жанр: Фэнтези, Боевик, Приключения

Описание фильма:
Эпическое приключение происходит как на нашей планете Земля, так и в вымышленном королевстве богов Асгарде. В центре истории — Могучий Тор, сильный, но высокомерный воин, чьи безрассудные поступки возрождают древнюю войну в Асгарде. Тора отправляют в ссылку на Землю, лишают сил и заставляют жить среди обычных людей в качестве наказания…

Режиссер: Кеннет Брэна, Джосс Уидон
Актеры: Крис Хемсворт, Натали Портман, Том Хиддлстон, Энтони Хопкинс, Стеллан Скарсгард, Кэт Деннингс, Кларк Грегг, Колм Фиор, Идрис Эльба, Рэй Стивенсон
Роли дублировали: Иван Жарков, Татьяна Шитова, Александр Гаврилин, Рудольф Панков, Василий Бочкарев

Продолжительность: 01:54:50
Качество видео: BDRip
Перевод: Дублированный



Рейтинг PG-16 - Детям до 16 лет просмотр не желателен
Возраст 16+ - зрителям, достигшим 16 лет
Дата мировой премьеры: 21 апреля 2011
Дата российской премьеры: 28 апреля 2011, «Централ Партнершип»
Дата выхода DVD релиза: 17 ноября 2011, «Новый Диск»
Дата выхода BLU-RAY релиза: 17 ноября 2011, «Новый Диск»

Видеокодек: MPEG-4 AVC/H.264
Битрейт видео: ~17,6 Мбит/сек
Размер кадра: 1920x1632
Аудио №1: AC3 5.1, 640 kbps - Русский
Аудио №2: AC3 5.1, 640 kbps - Английский
Общее
Уникальный идентификатор : 187926356653676079178185477557763738588 (0x8D614CBD31FE86FC953A334B2B388BDC)
Полное имя : D:\Full 3Drip\THOR_3D.mkv
Формат : Matroska
Версия формата : Version 2
Размер файла : 15,4 Гбайт
Продолжительность : 1 ч. 54 м.
Общий поток : 19,2 Мбит/сек
Название фильма : THOR_3D_FULL_O/U
Дата кодирования : UTC 2013-09-04 06:34:11
Программа кодирования : mkvmerge v5.7.0 ('The Whirlwind') built on Aug 7 2012 14:11:40
Библиотека кодирования : libebml v1.2.3 + libmatroska v1.3.0

Видео
Идентификатор : 1
Формат : AVC
Формат/Информация : Advanced Video Codec
Профиль формата :
Параметр CABAC формата : Да
Параметр ReFrames формата : 6 кадров
Идентификатор кодека : V_MPEG4/ISO/AVC
Продолжительность : 1 ч. 54 м.
Битрейт : 17,6 Мбит/сек
Ширина : 1920 пикселей
Высота : 1632 пикселя
Соотношение сторон : 1,176
Соотношение сторон в оригинале : 16:9
Режим частоты кадров : Постоянный
Частота кадров : 23,976 кадра/сек
Цветовое пространство : YUV
Субдискретизация насыщенности : 4:2:0
Битовая глубина : 8 бит
Тип развёртки : Прогрессивная
Бит/(Пиксели*Кадры) : 0.234
Размер потока : 14,1 Гбайт (91%)
Заголовок : rip by I/N
Библиотека кодирования : x264 core 128 r2216M 198a7ea
Настройки программы : cabac=1 / ref=6 / deblock=1:-1:-1 / analyse=0x3:0x133 / me=esa / subme=10 / psy=1 / psy_rd=1.00:0.15 / mixed_ref=1 / me_range=24 / chroma_me=1 / trellis=2 / 8x8dct=1 / cqm=0 / deadzone=21,11 / fast_pskip=1 / chroma_qp_offset=-3 / threads=8 / lookahead_threads=1 / sliced_threads=0 / nr=0 / decimate=1 / interlaced=0 / bluray_compat=0 / constrained_intra=0 / bframes=8 / b_pyramid=2 / b_adapt=2 / b_bias=0 / direct=3 / weightb=1 / open_gop=0 / weightp=2 / keyint=230 / keyint_min=23 / scenecut=40 / intra_refresh=0 / rc_lookahead=60 / rc=crf / mbtree=1 / crf=18.0 / qcomp=0.60 / qpmin=0 / qpmax=69 / qpstep=4 / ip_ratio=1.40 / aq=1:1.00
Default : Да
Forced : Нет

Аудио #1
Идентификатор : 2
Формат : AC-3
Формат/Информация : Audio Coding 3
Расширение режима : CM (complete main)
Параметр Endianness формата : Big
Идентификатор кодека : A_AC3
Продолжительность : 1 ч. 54 м.
Вид битрейта : Постоянный
Битрейт : 640 Кбит/сек
Каналы : 6 каналов
Расположение каналов : Front: L C R, Side: L R, LFE
Частота : 48,0 КГц
Битовая глубина : 16 бит
Метод сжатия : С потерями
Размер потока : 526 Мбайт (3%)
Заголовок : Дубляж
Язык : Russian
Default : Да
Forced : Нет

Аудио #2
Идентификатор : 3
Формат : AC-3
Формат/Информация : Audio Coding 3
Расширение режима : CM (complete main)
Параметр Endianness формата : Big
Идентификатор кодека : A_AC3
Продолжительность : 1 ч. 54 м.
Вид битрейта : Постоянный
Битрейт : 640 Кбит/сек
Каналы : 6 каналов
Расположение каналов : Front: L C R, Side: L R, LFE
Частота : 48,0 КГц
Битовая глубина : 16 бит
Метод сжатия : С потерями
Размер потока : 526 Мбайт (3%)
Заголовок : Original
Язык : English
Default : Нет
Forced : Нет

Меню
00:00:00.000 : en:(01)00:00:00:000
00:10:38.137 : en:(02)00:10:38:137
00:17:33.135 : en:(03)00:17:33:135
00:26:02.602 : en:(04)00:26:02:602
00:32:28.196 : en:(05)00:32:28:196
00:37:28.412 : en:(06)00:37:28:412
00:42:14.198 : en:(07)00:42:14:198
00:52:10.377 : en:(08)00:52:10:377
01:01:24.972 : en:(09)01:01:24:972
01:08:45.538 : en:(10)01:08:45:538
01:15:39.159 : en:(11)01:15:39:159
01:21:19.249 : en:(12)01:21:19:249
01:30:35.346 : en:(13)01:30:35:346
01:40:58.177 : en:(14)01:40:58:177
01:45:13.724 : en:(15)01:45:13:724
01:53:06.196 : en:(16)01:53:06:196
01:54:50.425 : en:(17)01:54:50:425
На встроенных ТВ-плейерах показывать НЕ будет!!!

Скриншоты:


Рип сделан в формате 16:9 - специально для корректного воспроизведения 3Dсофт-плеерами сразу в полный экран.
Воспроизведение проверенно: Arcsoft TMT5,6 и Cyberlink PowerDVD12,13
Всем приятного просмотра!
Правила, инструкции, FAQ!!!
Торрент  Добавлен [28 сен 2013, 23:21] Скачать торрент Магнет ссылка
Скачать торрент
39.38 КБ

Статус
Проверен 
 
Размер  15.42 ГБ
Приватный: Нет (DHT включён)
.torrent скачан  2
Как залить торрент? | Как скачать Torrent? | Как смотреть и слушать онлайн?  
Гость
 



Вернуться в HD-Video в 3D

Кто сейчас на конференции

Сейчас этот форум просматривают: нет зарегистрированных пользователей и гости: 0