Тор 2: Царство тьмы / Thor: The Dark World (2013) BDRip [1080p] 3D [Вертикальная анаморфная стереопара]


Статистика раздачи
Размер: 7.77 ГБ | Добавлен: 12 июл 2015, 12:34 | Скачали: 3
Сидеров: 46  [0 байт/сек]    Личеров: 4  [0 байт/сек]

Сообщение Гость » 12 июл 2015, 12:34

Год выпуска: 2013
Производство: США / Marvel Entertainment
Жанр: Фэнтези, боевик, приключения
Язык: Русский, английский
Перевод: Дублированный [лицензия]
Субтитры: Вшитые отключаемые
Язык субтитров: Русский (forced, full), английский (forced, SDH, commentary)

Режиссер: Алан Тейлор / Alan Taylor
Продюсер: Виктория Алонсо, Луис Д’Эспозито, Кевин Файги
Актеры: Крис Хемсворт, Натали Портман, Том Хиддлстон, Энтони Хопкинс, Кристофер Экклстон, Джейми Александер, Закари Левай, Рэй Стивенсон, Таданобу Асано, Идрис Эльба

Описание фильма:
Продолжение приключений одного из членов команды Мстителей, скандинавского бога Тора, которому на этот раз в одиночку предстоит защитить Землю и все девять миров от нашествия неизвестного врага. Могучему Тору предстоит вновь сразиться за восстановление порядка в галактике, встретившись лицом к лицу с древней инопланетной расой, ведомой злодеем Малекитом, жаждущим установить в девяти мирах власть тьмы. Столкнувшись с врагом, более могущественным чем сам Один и всё воинство Асгарда, Тор должен собрать силы для решающей битвы. Его ждёт опасное путешествие и долгожданная встреча со своей земной возлюбленной Джейн Фостер. Сможет ли Тор рискнуть самым дорогим, чтобы не дать тьме воцариться на просторах вселенной?



Дата мировой премьеры: 30 октября 2013
Дата российской премьеры: 7 ноября 2013, «WDSSPR»
Дата выхода DVD релиза: 25 февраля 2014, «Уолт Дисней Компани СНГ»
Дата выхода Blu-Ray релиза: 25 февраля 2014, «Уолт Дисней Компани СНГ»

Рейтинг MPAA: PG-13
Возраст: 12+

Продолжительность: 01:52:03
Качество видео: BDRip 3D [Ash61]

Видео: MPEG4_AVC/H.264, 1920x1080, ~7389 kbps, 23.976 fps
Аудио 1: AC3 5.1, 640 kbps, 48 kHz [Русский - дублированный]
Аудио 2: DTS 5.1, 1536 kbps, 48 kHz [Английский - оригинал]
Аудио 3: AC3 2.0, 192 kbps, 48 kHz [Английский - комментарий]
Полное имя : D:\Тор.2.Царство.тьмы-Thor.The.Dark.World.(2013).BDRip.[1080p].3D.Crop.mkv
Формат : Matroska
Версия формата : Version 2
Размер файла : 7,77 Гбайт
Продолжительность : 1 ч. 52 м.
Общий поток : 9928 Кбит/сек
Название фильма : Thor: The Dark World (2013)
Дата кодирования : UTC 2014-02-14 08:46:31
Программа кодирования : mkvmerge v5.7.0 ('The Whirlwind') built on Aug 7 2012 14:11:40
Библиотека кодирования : libebml v1.2.3 + libmatroska v1.3.0

Видео
Идентификатор : 1
Формат : AVC
Формат/Информация : Advanced Video Codec
Профиль формата :
Параметр CABAC формата : Да
Параметр ReFrames формата : 4 кадра
Идентификатор кодека : V_MPEG4/ISO/AVC
Битрейт : 7389 Кбит/сек
Ширина : 1920 пикселей
Высота : 1080 пикселей
Соотношение сторон : 16:9
Режим частоты кадров : Переменный
Частота кадров в оригинале : 23,976 кадра/сек
Цветовое пространство : YUV
Субдискретизация насыщенности : 4:2:0
Битовая глубина : 8 бит
Тип развёртки : Прогрессивная
Заголовок : Тор.2.Царство.тьмы-Thor.The.Dark.World.(2013).BDRip.[1080p].3D.Crop
Библиотека кодирования : x264 core 129 r2245 bc13772
Настройки программы : cabac=1 / ref=4 / deblock=1:-3:-3 / analyse=0x3:0x113 / me=umh / subme=10 / psy=1 / psy_rd=1.00:0.15 / mixed_ref=1 / me_range=32 / chroma_me=1 / trellis=2 / 8x8dct=1 / cqm=0 / deadzone=21,11 / fast_pskip=1 / chroma_qp_offset=-3 / threads=12 / lookahead_threads=2 / sliced_threads=0 / nr=0 / decimate=1 / interlaced=0 / bluray_compat=0 / constrained_intra=0 / bframes=9 / b_pyramid=2 / b_adapt=2 / b_bias=0 / direct=3 / weightb=1 / open_gop=0 / weightp=2 / keyint=250 / keyint_min=23 / scenecut=40 / intra_refresh=0 / rc_lookahead=60 / rc=crf / mbtree=1 / crf=17.5 / qcomp=0.70 / qpmin=0 / qpmax=69 / qpstep=4 / vbv_maxrate=40000 / vbv_bufsize=30000 / crf_max=0.0 / nal_hrd=none / frame-packing=4 / ip_ratio=1.40 / aq=1:0.70
Язык : English
Default : Да
Forced : Нет

Аудио #1
Идентификатор : 2
Формат : AC-3
Формат/Информация : Audio Coding 3
Расширение режима : CM (complete main)
Параметр Endianness формата : Big
Идентификатор кодека : A_AC3
Продолжительность : 1 ч. 52 м.
Вид битрейта : Постоянный
Битрейт : 640 Кбит/сек
Каналы : 6 каналов
Расположение каналов : Front: L C R, Side: L R, LFE
Частота : 48,0 КГц
Битовая глубина : 16 бит
Метод сжатия : С потерями
Размер потока : 513 Мбайт (6%)
Заголовок : AC3 5.1 / 640 kbps / Dub (Blu-Ray EUR)
Язык : Russian
Default : Да
Forced : Нет

Аудио #2
Идентификатор : 3
Формат : DTS
Формат/Информация : Digital Theater Systems
Идентификатор кодека : A_DTS
Продолжительность : 1 ч. 52 м.
Вид битрейта : Постоянный
Битрейт : 1510 Кбит/сек
Каналы : 6 каналов
Расположение каналов : Front: L C R, Side: L R, LFE
Частота : 48,0 КГц
Битовая глубина : 24 бит
Метод сжатия : С потерями
Размер потока : 1,18 Гбайт (15%)
Заголовок : DTS 5.1 / 1536 kbps / Original
Язык : English
Default : Нет
Forced : Нет

Аудио #3
Идентификатор : 4
Формат : AC-3
Формат/Информация : Audio Coding 3
Расширение режима : CM (complete main)
Параметр Endianness формата : Big
Идентификатор кодека : A_AC3
Продолжительность : 1 ч. 52 м.
Вид битрейта : Постоянный
Битрейт : 192 Кбит/сек
Каналы : 2 канала
Расположение каналов : Front: L R
Частота : 48,0 КГц
Битовая глубина : 16 бит
Метод сжатия : С потерями
Размер потока : 154 Мбайт (2%)
Заголовок : AC3 2.0 / 192 kbps / Commentary
Язык : English
Default : Нет
Forced : Нет

Текст #1
Идентификатор : 5
Формат : UTF-8
Идентификатор кодека : S_TEXT/UTF8
Идентификатор кодека/Информация : UTF-8 Plain Text
Заголовок : Forced (на эльфийскую речь)
Язык : Russian
Default : Да
Forced : Нет

Текст #2
Идентификатор : 6
Формат : UTF-8
Идентификатор кодека : S_TEXT/UTF8
Идентификатор кодека/Информация : UTF-8 Plain Text
Заголовок : Full (с эльфийской речью)
Язык : Russian
Default : Нет
Forced : Нет

Текст #3
Идентификатор : 7
Формат : UTF-8
Идентификатор кодека : S_TEXT/UTF8
Идентификатор кодека/Информация : UTF-8 Plain Text
Заголовок : Forced
Язык : English
Default : Нет
Forced : Нет

Текст #4
Идентификатор : 8
Формат : UTF-8
Идентификатор кодека : S_TEXT/UTF8
Идентификатор кодека/Информация : UTF-8 Plain Text
Заголовок : SDH
Язык : English
Default : Нет
Forced : Нет

Текст #5
Идентификатор : 9
Формат : UTF-8
Идентификатор кодека : S_TEXT/UTF8
Идентификатор кодека/Информация : UTF-8 Plain Text
Заголовок : Commentary
Язык : English
Default : Нет
Forced : Нет

Меню
00:00:00.000 : en:Prologue
00:06:13.665 : en:The Nine Realms At Peace
00:13:05.535 : en:Strange Happenings In London
00:18:40.995 : en:The Aether Awakens
00:24:56.829 : en:Welcome To Asgard
00:29:07.663 : en:The Last Of The Kursed
00:41:33.366 : en:Attack On Asgard
00:49:40.227 : en:We Are Not Immortal
00:55:56.144 : en:Desperate Times
01:00:08.897 : en:Escape From Asgard
01:08:12.672 : en:Brothers In Arms
01:12:39.897 : en:Return To The Dark World
01:21:34.473 : en:Follow The Signs
01:26:22.094 : en:Thor vs. Malekith vs. The Convergence
01:33:58.800 : en:The Aether Unleashed
01:38:31.656 : en:Born To Be A King
01:41:49.520 : en:End Credits
Код:
Код: Выделить всё
Внимание! Справа и слева у видеоряда обрезано по 248р, что дает возможность просмотра на полный экран (без черных полос) на телевизорах с соотношением сторон 16:9 без изменения пропорций.
Скриншоты:


Правила, инструкции, FAQ!!!
Торрент  Добавлен [12 июл 2015, 12:34] Скачать торрент Магнет ссылка
Скачать торрент
39.74 КБ

Статус
Проверен 
 
Размер  7.77 ГБ
Приватный: Нет (DHT включён)
.torrent скачан  3
Как залить торрент? | Как скачать Torrent? | Как смотреть и слушать онлайн?  
Гость
 



Вернуться в HD-Video в 3D

Кто сейчас на конференции

Сейчас этот форум просматривают: нет зарегистрированных пользователей и гости: 3