Tito & Tarantula - Дискография (6 альбомов) (1997-2008) [FLAC|Lossless]<Rock, Blues-rock, Latin Rock, Hard Rock>


Статистика раздачи
Размер: 1.84 ГБ | Добавлен: 30 май 2014, 00:13 | Скачали: 0
Сидеров: 1  [0 байт/сек]    Личеров: 134  [0 байт/сек]

Сообщение Гость » 30 май 2014, 00:13

Tito & Tarantula - Дискография (6 альбомов) (1997-2008)



Год: 1997-2008
Жанр: Rock, Blues-Rock, Latin Rock, Hard Rock
Кодек: FLAC
Битрейт: Lossless
Тип битрейта: CBR
Трек лист: Image+cue
Общая продолжительность: 04:33:47
Год: 1997
Жанр: Rock, Blues-Rock, Latin Rock, Hard Rock
Продолжительность: 00:45:42
Кодек: FLAC
Тип битрейта: CBR
Битрейт: 991

Трек лист:
01 - After Dark
02 - Smilin' Karen
03 - Slidin'
04 - Strange Face
05 - Angry Cockroach
06 - This House
07 - Jupiter
08 - Cycle Of Life
09 - Flying In My Sleep
10 - Killing For Fun
AUDIOCHECKER v2.0 beta (build 457) - by Dester -
~~~~~~~~~~~~~~~~~~~~~~~~~~~~~~~~~~

Путь: ...\1997 - Tarantism

1 -=- Tito & Tarantula - 1997 - Tarantism.flac -=- CDDA (100%)

152341012
Exact Audio Copy V0.99 prebeta 4 from 23. January 2008

EAC Auslese-Logdatei vom 20. Juni 2009, 21:35

Tito & Tarantula / Tarantism

Benutztes Laufwerk : Optiarc BD ROM BC-5500S Adapter: 0 ID: 1

Lesemodus : Sicher
Benutze Accurate Stream : Ja
Audio Puffer abgeschaltet : Ja
Benutze C2 Fehlerinformationen : Nein

Leseoffset Korrektur : 48
Ьberlesen in das Lead-In und Lead-Out : Nein
Fьlle fehlende Offsetsample mit Stille auf : Ja
Lцsche fьhrende und nachfolgende stille Blцcke : Nein
Null Samples gehen in CRC Berechnungen ein : Ja
Benutzte Schnittstelle : Natьrliche Win32 Schnittstelle fьr Win NT/2000/XP

Benutztes Ausgabeformat : Benutzerdefinierter Komprimierer
Gewдhlte Bitrate : 1024 kBit/s
Qualitдt : Hoch
Fьge ID3 Tag hinzu : Nein
Kommandozeilen Komprimierer : C:\Program Files\Exact Audio Copy\Flac\flac.exe

TOC der ausgelesenen CD

Track | Start | Lдnge | Startsektor | Endsektor
-------------------------------------------------------
1 | 0:00.00 | 3:44.05 | 0 | 16804
2 | 3:44.05 | 3:58.05 | 16805 | 34659
3 | 7:42.10 | 3:42.62 | 34660 | 51371
4 | 11:24.72 | 5:38.10 | 51372 | 76731
5 | 17:03.07 | 4:38.55 | 76732 | 97636
6 | 21:41.62 | 4:31.20 | 97637 | 117981
7 | 26:13.07 | 6:08.05 | 117982 | 145586
8 | 32:21.12 | 4:58.28 | 145587 | 167964
9 | 37:19.40 | 3:58.10 | 167965 | 185824
10 | 41:17.50 | 4:24.32 | 185825 | 205656

Bereichsstatus und Fehler

Gewдhlter Bereich

Dateiname D:\Downloads\1997-2008 T & T\1997 - Tarantism\Tito & Tarantula - Tarantism.wav

Spitzenpegel 100.0 %
Bereichsqualitдt 100.0 %
Test CRC 1A40DC60
Kopie CRC 1A40DC60
Kopie OK

Keine Fehler aufgetreten

AccurateRip Ьbersicht

Track 1 akkurat gelesen (Zuversicht 28) [BAFFFD2B]
Track 2 akkurat gelesen (Zuversicht 27) [30CC46E8]
Track 3 akkurat gelesen (Zuversicht 27) [0AEA16B7]
Track 4 akkurat gelesen (Zuversicht 28) [5FDCCAD9]
Track 5 akkurat gelesen (Zuversicht 27) [9554ABA0]
Track 6 akkurat gelesen (Zuversicht 27) [92B68A2A]
Track 7 akkurat gelesen (Zuversicht 26) [2B597D64]
Track 8 akkurat gelesen (Zuversicht 26) [BECC27DB]
Track 9 akkurat gelesen (Zuversicht 27) [FDFB79BF]
Track 10 akkurat gelesen (Zuversicht 26) [9D981F41]

Alle Tracks wurden akkurat gelesen

Ende des Statusreports
#777Год: 1999
Жанр: Rock, Blues-Rock, Latin Rock, Hard Rock
Продолжительность: 00:1:01:50
Кодек: FLAC
Тип битрейта: CBR
Битрейт: 916

Трек лист:
01 - Bleeding Roses
02 - When You Cry
03 - Love In My Blood
04 - Slow Dream
05 - Hungry Sally
06 - German Fraulein
07 - Bet You Can't Play
08 - Clumbsy Beautyful World
09 - Devils In Love
10 - Woke Up Blind
11 - Pieces Of Time
AUDIOCHECKER v2.0 beta (build 457) - by Dester -
~~~~~~~~~~~~~~~~~~~~~~~~~~~~~~~~~~

Путь: ...\1999 - Hungry Sally & Other Killer Lullabies

1 -=- Tito & Tarantula - 1999 - Hungry Sally & Other Killer Lullabies.flac -=- CDDA (99%)

44079396
Exact Audio Copy V0.99 prebeta 4 from 23. January 2008

EAC Auslese-Logdatei vom 20. Juni 2009, 22:29

Tito & Tarantula / Hungry Sally and Other Killer Lullabies

Benutztes Laufwerk : Optiarc BD ROM BC-5500S Adapter: 0 ID: 1

Lesemodus : Sicher
Benutze Accurate Stream : Ja
Audio Puffer abgeschaltet : Ja
Benutze C2 Fehlerinformationen : Nein

Leseoffset Korrektur : 48
Ьberlesen in das Lead-In und Lead-Out : Nein
Fьlle fehlende Offsetsample mit Stille auf : Ja
Lцsche fьhrende und nachfolgende stille Blцcke : Nein
Null Samples gehen in CRC Berechnungen ein : Ja
Benutzte Schnittstelle : Natьrliche Win32 Schnittstelle fьr Win NT/2000/XP

Benutztes Ausgabeformat : Benutzerdefinierter Komprimierer
Gewдhlte Bitrate : 1024 kBit/s
Qualitдt : Hoch
Fьge ID3 Tag hinzu : Nein
Kommandozeilen Komprimierer : C:\Program Files\Exact Audio Copy\Flac\flac.exe

TOC der ausgelesenen CD

Track | Start | Lдnge | Startsektor | Endsektor
-------------------------------------------------------
1 | 0:00.00 | 5:49.49 | 0 | 26223
2 | 5:49.49 | 5:55.44 | 26224 | 52892
3 | 11:45.18 | 3:58.36 | 52893 | 70778
4 | 15:43.54 | 4:21.11 | 70779 | 90364
5 | 20:04.65 | 6:47.66 | 90365 | 120955
6 | 26:52.56 | 4:25.50 | 120956 | 140880
7 | 31:18.31 | 1:35.44 | 140881 | 148049
8 | 32:54.00 | 3:44.29 | 148050 | 164878
9 | 36:38.29 | 4:06.70 | 164879 | 183398
10 | 40:45.24 | 10:26.14 | 183399 | 230362
11 | 51:11.38 | 10:39.02 | 230363 | 278289

Bereichsstatus und Fehler

Gewдhlter Bereich

Dateiname D:\Downloads\1997-2008 T & T\1999 - Hungry Sally & other Killer Lullabies\Tito & Tarantula - Hungry Sally and Other Killer Lullabies.wav

Spitzenpegel 100.0 %
Bereichsqualitдt 100.0 %
Test CRC 0A4BA20E
Kopie CRC 0A4BA20E
Kopie OK

Keine Fehler aufgetreten

AccurateRip Ьbersicht

Track 1 akkurat gelesen (Zuversicht 2) [A445664B]
Track 2 akkurat gelesen (Zuversicht 2) [0AA35F31]
Track 3 kann nicht als akkurat verifiziert werden (Zuversicht 14) [174E8517], AccurateRip lieferte [2466D1E0]
Track 4 akkurat gelesen (Zuversicht 2) [450633C5]
Track 5 akkurat gelesen (Zuversicht 2) [FEF41407]
Track 6 akkurat gelesen (Zuversicht 2) [41852F69]
Track 7 akkurat gelesen (Zuversicht 2) [B386D487]
Track 8 akkurat gelesen (Zuversicht 2) [AC7DF18B]
Track 9 akkurat gelesen (Zuversicht 2) [B1AE1814]
Track 10 kann nicht als akkurat verifiziert werden (Zuversicht 15) [A0ED2C58], AccurateRip lieferte [DCF1F02C]
Track 11 akkurat gelesen (Zuversicht 2) [86059D78]

9 Track(s) akkurat gelesen
2 Track(s) nicht als akkurat verifiziert

Einige Tracks konnten nicht als akkurat verifiziert werden

Ende des Statusreports
#777Год: 2000
Жанр: Rock, Blues-Rock, Latin Rock, Hard Rock
Продолжительность: 00:52:51
Кодек: FLAC
Тип битрейта: CBR
Битрейт: 1010

Трек лист:
01 - Everybody Needs
02 - Unforgiven
03 - Crack In The World
04 - Goodbye Sadie
05 - Lady Don`t Leave
06 - Lonely Sweet Marie
07 - Shame
08 - Bitch
09 - World At My Feet
10 - Super Vita Jane
11 - Dead Person
12 - Silent Train
13 - Regresare
AUDIOCHECKER v2.0 beta (build 457) - by Dester -
~~~~~~~~~~~~~~~~~~~~~~~~~~~~~~~~~~

Путь: ...\2000 - Little Bitch

1 -=- Tito & Tarantula - 2000 - Little Bitch.flac -=- CDDA (100%)

83776740
Exact Audio Copy V0.99 prebeta 4 from 23. January 2008

EAC Auslese-Logdatei vom 20. Juni 2009, 23:49

Tito & Tarantula / Little Bitch

Benutztes Laufwerk : Optiarc BD ROM BC-5500S Adapter: 0 ID: 1

Lesemodus : Sicher
Benutze Accurate Stream : Ja
Audio Puffer abgeschaltet : Ja
Benutze C2 Fehlerinformationen : Nein

Leseoffset Korrektur : 48
Ьberlesen in das Lead-In und Lead-Out : Nein
Fьlle fehlende Offsetsample mit Stille auf : Ja
Lцsche fьhrende und nachfolgende stille Blцcke : Nein
Null Samples gehen in CRC Berechnungen ein : Ja
Benutzte Schnittstelle : Natьrliche Win32 Schnittstelle fьr Win NT/2000/XP

Benutztes Ausgabeformat : Benutzerdefinierter Komprimierer
Gewдhlte Bitrate : 1024 kBit/s
Qualitдt : Hoch
Fьge ID3 Tag hinzu : Nein
Kommandozeilen Komprimierer : C:\Program Files\Exact Audio Copy\Flac\flac.exe

TOC der ausgelesenen CD

Track | Start | Lдnge | Startsektor | Endsektor
-------------------------------------------------------
1 | 0:00.00 | 5:24.39 | 0 | 24338
2 | 5:24.39 | 5:27.52 | 24339 | 48915
3 | 10:52.16 | 3:29.39 | 48916 | 64629
4 | 14:21.55 | 4:43.34 | 64630 | 85888
5 | 19:05.14 | 4:02.73 | 85889 | 104111
6 | 23:08.12 | 3:28.22 | 104112 | 119733
7 | 26:36.34 | 3:10.62 | 119734 | 134045
8 | 29:47.21 | 3:09.06 | 134046 | 148226
9 | 32:56.27 | 4:26.60 | 148227 | 168236
10 | 37:23.12 | 3:39.48 | 168237 | 184709
11 | 41:02.60 | 4:00.61 | 184710 | 202770
12 | 45:03.46 | 4:30.66 | 202771 | 223086
13 | 49:34.37 | 3:16.58 | 223087 | 237844

Bereichsstatus und Fehler

Gewдhlter Bereich

Dateiname D:\Downloads\1997-2008 T & T\2000 - little bitch\Tito & Tarantula - Little Bitch.wav

Spitzenpegel 99.2 %
Bereichsqualitдt 100.0 %
Test CRC 735E24D5
Kopie CRC 735E24D5
Kopie OK

Keine Fehler aufgetreten

AccurateRip Ьbersicht

Track 1 akkurat gelesen (Zuversicht 14) [6B718C24]
Track 2 akkurat gelesen (Zuversicht 14) [8D66271D]
Track 3 akkurat gelesen (Zuversicht 14) [418067D7]
Track 4 akkurat gelesen (Zuversicht 14) [91D44870]
Track 5 akkurat gelesen (Zuversicht 14) [6CD53832]
Track 6 akkurat gelesen (Zuversicht 14) [B8C2F857]
Track 7 akkurat gelesen (Zuversicht 14) [1BF6A903]
Track 8 akkurat gelesen (Zuversicht 14) [FBA1DC6F]
Track 9 akkurat gelesen (Zuversicht 14) [472DA03D]
Track 10 akkurat gelesen (Zuversicht 13) [40E3AE43]
Track 11 akkurat gelesen (Zuversicht 14) [6B32C1C8]
Track 12 akkurat gelesen (Zuversicht 14) [1566A4F8]
Track 13 akkurat gelesen (Zuversicht 14) [290F3AF8]

Alle Tracks wurden akkurat gelesen

Ende des Statusreports
#777Год: 2002
Жанр: Rock, Blues-Rock, Latin Rock, Hard Rock
Продолжительность: 00:51:50
Кодек: FLAC
Тип битрейта: CBR
Битрейт: 909

Трек лист:
01 - Missed Your Eyes
02 - It's My Mistake
03 - California Girl
04 - You're The One I Love
05 - Torn To Pieces
06 - Hey Hey Hey Whada Ya Say
07 - Bulletts From A Gun
08 - Make Me
09 - In Your Hands
10 - Ready Made
11 - Effortless
12 - In Between
13 - Mexican Sky
14 - La Flor De Mal (Bonus Track)
AUDIOCHECKER v2.0 beta (build 457) - by Dester -
~~~~~~~~~~~~~~~~~~~~~~~~~~~~~~~~~~

Путь: ...\2002 - Andalucia

1 -=- Tito & Tarantula - 2002 - Andalucia.flac -=- CDDA (100%)

261003956
Exact Audio Copy V0.99 prebeta 4 from 23. January 2008

EAC Auslese-Logdatei vom 21. Juni 2009, 0:20

Tito & Tarantula / Andalucia

Benutztes Laufwerk : Optiarc BD ROM BC-5500S Adapter: 0 ID: 1

Lesemodus : Sicher
Benutze Accurate Stream : Ja
Audio Puffer abgeschaltet : Ja
Benutze C2 Fehlerinformationen : Nein

Leseoffset Korrektur : 48
Ьberlesen in das Lead-In und Lead-Out : Nein
Fьlle fehlende Offsetsample mit Stille auf : Ja
Lцsche fьhrende und nachfolgende stille Blцcke : Nein
Null Samples gehen in CRC Berechnungen ein : Ja
Benutzte Schnittstelle : Natьrliche Win32 Schnittstelle fьr Win NT/2000/XP

Benutztes Ausgabeformat : Benutzerdefinierter Komprimierer
Gewдhlte Bitrate : 1024 kBit/s
Qualitдt : Hoch
Fьge ID3 Tag hinzu : Nein
Kommandozeilen Komprimierer : C:\Program Files\Exact Audio Copy\Flac\flac.exe

TOC der ausgelesenen CD

Track | Start | Lдnge | Startsektor | Endsektor
-------------------------------------------------------
1 | 0:00.00 | 3:06.26 | 0 | 13975
2 | 3:06.26 | 3:17.56 | 13976 | 28806
3 | 6:24.07 | 3:30.27 | 28807 | 44583
4 | 9:54.34 | 3:16.23 | 44584 | 59306
5 | 13:10.57 | 2:55.18 | 59307 | 72449
6 | 16:06.00 | 2:13.21 | 72450 | 82445
7 | 18:19.21 | 5:30.59 | 82446 | 107254
8 | 23:50.05 | 4:11.45 | 107255 | 126124
9 | 28:01.50 | 4:04.05 | 126125 | 144429
10 | 32:05.55 | 3:20.54 | 144430 | 159483
11 | 35:26.34 | 4:22.30 | 159484 | 179163
12 | 39:48.64 | 3:18.53 | 179164 | 194066
13 | 43:07.42 | 4:16.45 | 194067 | 213311
14 | 47:24.12 | 4:26.30 | 213312 | 233291
15 | 54:22.42 | 13:39.26 | 244692 | 306142

Bereichsstatus und Fehler

Gewдhlter Bereich

Dateiname D:\Downloads\1997-2008 T & T\2002 - andalucia\andalucia\Tito & Tarantula - Andalucia.wav

Spitzenpegel 100.0 %
Bereichsqualitдt 100.0 %
Test CRC 170E7C20
Kopie CRC 170E7C20
Kopie OK

Keine Fehler aufgetreten

AccurateRip Ьbersicht

Track 1 akkurat gelesen (Zuversicht 16) [275F396C]
Track 2 akkurat gelesen (Zuversicht 16) [709CB1B6]
Track 3 akkurat gelesen (Zuversicht 16) [AF66B664]
Track 4 akkurat gelesen (Zuversicht 16) [A01A5423]
Track 5 akkurat gelesen (Zuversicht 16) [67B17E7D]
Track 6 akkurat gelesen (Zuversicht 16) [D1FCAB97]
Track 7 akkurat gelesen (Zuversicht 16) [76F64922]
Track 8 akkurat gelesen (Zuversicht 16) [D9B3F5CE]
Track 9 akkurat gelesen (Zuversicht 16) [3B187AE1]
Track 10 akkurat gelesen (Zuversicht 16) [C89755A1]
Track 11 akkurat gelesen (Zuversicht 16) [C1970F46]
Track 12 akkurat gelesen (Zuversicht 15) [E0A2C73D]
Track 13 akkurat gelesen (Zuversicht 16) [D0564690]
Track 14 akkurat gelesen (Zuversicht 15) [836970AF]

Alle Tracks wurden akkurat gelesen

Ende des Statusreports
#777Год: 2002
Жанр: Rock, Blues-Rock, Latin Rock, Hard Rock
Продолжительность: 00:16:55
Кодек: FLAC
Тип битрейта: CBR
Битрейт: 855

Трек лист:
01 - You're The One I Love
02 - In Between
03 - Make Me
04 - Torn To Pieces
05 - Mexican Sky
AUDIOCHECKER v2.0 beta (build 457) - by Dester -
~~~~~~~~~~~~~~~~~~~~~~~~~~~~~~~~~~

Путь: ...\2002 - Andalucia. The Malaga Acoustic Session

1 -=- Tito & Tarantula - 2002 - Andalucia. The Malaga Acoustic Session.flac -=- CDDA (100%)

70578724
Exact Audio Copy V0.99 prebeta 4 from 23. January 2008

EAC Auslese-Logdatei vom 21. Juni 2009, 0:42

Tito & Tarantula / Andalucia

Benutztes Laufwerk : Optiarc BD ROM BC-5500S Adapter: 0 ID: 1

Lesemodus : Sicher
Benutze Accurate Stream : Ja
Audio Puffer abgeschaltet : Ja
Benutze C2 Fehlerinformationen : Nein

Leseoffset Korrektur : 48
Ьberlesen in das Lead-In und Lead-Out : Nein
Fьlle fehlende Offsetsample mit Stille auf : Ja
Lцsche fьhrende und nachfolgende stille Blцcke : Nein
Null Samples gehen in CRC Berechnungen ein : Ja
Benutzte Schnittstelle : Natьrliche Win32 Schnittstelle fьr Win NT/2000/XP

Benutztes Ausgabeformat : Benutzerdefinierter Komprimierer
Gewдhlte Bitrate : 1024 kBit/s
Qualitдt : Hoch
Fьge ID3 Tag hinzu : Nein
Kommandozeilen Komprimierer : C:\Program Files\Exact Audio Copy\Flac\flac.exe

TOC der ausgelesenen CD

Track | Start | Lдnge | Startsektor | Endsektor
-------------------------------------------------------
1 | 0:00.00 | 3:17.67 | 0 | 14841
2 | 3:17.67 | 3:07.66 | 14842 | 28932
3 | 6:25.58 | 3:44.08 | 28933 | 45740
4 | 10:09.66 | 2:49.73 | 45741 | 58488
5 | 12:59.64 | 3:55.14 | 58489 | 76127

Bereichsstatus und Fehler

Gewдhlter Bereich

Dateiname D:\Downloads\1997-2008 T & T\2002 - andalucia\the malaga acoustic session\Tito & Tarantula - Andalucia.wav

Spitzenpegel 98.8 %
Bereichsqualitдt 100.0 %
Test CRC BFD259E5
Kopie CRC BFD259E5
Kopie OK

Keine Fehler aufgetreten

AccurateRip Ьbersicht

Track 1 akkurat gelesen (Zuversicht 7) [16FBC2FA]
Track 2 akkurat gelesen (Zuversicht 7) [E078AA5C]
Track 3 akkurat gelesen (Zuversicht 7) [7F9BDCB5]
Track 4 akkurat gelesen (Zuversicht 7) [61BCE9CF]
Track 5 akkurat gelesen (Zuversicht 7) [3D056035]

Alle Tracks wurden akkurat gelesen

Ende des Statusreports
#777Год: 2008
Жанр: Rock, Blues-Rock, Latin Rock, Hard Rock
Продолжительность: 00:44:37
Кодек: FLAC
Тип битрейта: CBR
Битрейт: 904

Трек лист:
01 - Come Out Clean
02 - Pretty Wasted
03 - Monsters
04 - Dust And Ashes
05 - The End Of Everything
06 - Now That You're Gone
07 - Machete
08 - Darkness
09 - Murder
10 - Like I Do
11 - In My Car
12 - If You Love Me
13 - Not Enough
AUDIOCHECKER v2.0 beta (build 457) - by Dester -
~~~~~~~~~~~~~~~~~~~~~~~~~~~~~~~~~~

Путь: ...\2008 - Back Into The Darkness

1 -=- Tito & Tarantula - 2008 - Back Into The Darkness.flac -=- CDDA (100%)

60677252
EAC extraction logfile from 13. October 2008, 18:41 for CD
Tito & Tarantula / Back Into The Darkness

Used drive : PLEXTOR DVDR PX-760A Adapter: 1 ID: 0
Read mode : Secure with NO C2, accurate stream, disable cache
Read offset correction : 30
Overread into Lead-In and Lead-Out : Yes

Used output format : Internal WAV Routines
44.100 Hz; 16 Bit; Stereo

Other options :
Fill up missing offset samples with silence : Yes
Delete leading and trailing silent blocks : No
Installed external ASPI interface

Range status and errors
Selected range
Filename E:\rip\Tito &Tarantula - Back Into The Darkness.wav

Peak level 99.8 %
Range quality 100.0 %
CRC F1683AE1
Copy OK

No errors occured

End of status report
Правила, инструкции, FAQ!!!
Торрент  Добавлен [30 май 2014, 00:13] Скачать торрент Магнет ссылка
Скачать торрент
24.85 КБ

Статус
Проверен 
 
Размер  1.84 ГБ
Приватный: Нет (DHT включён)
.torrent скачан  0
Как залить торрент? | Как скачать Torrent? | Как смотреть и слушать онлайн?  
Гость
 



Вернуться в Дискографии (Зарубежные)

Кто сейчас на конференции

Сейчас этот форум просматривают: нет зарегистрированных пользователей и гости: 0