Тихоокеанский рубеж 2 / Pacific Rim: Uprising (2018) BDRip 1080p от Ash61 | 3D-Video | halfOU | Лицензия


Статистика раздачи
Размер: 13.36 ГБ | Добавлен: 20 июл 2018, 10:21 | Скачали: 85
Сидеров: 81  [0 байт/сек]    Личеров: 46  [0 байт/сек]

Сообщение Гость » 20 июл 2018, 10:21

Тихоокеанский рубеж 2
Pacific Rim: Uprising
«Восстань»



#777Год выпуска: 2018
Страна: США, Китай, Великобритания (Universal Pictures, Legendary Pictures, Double Dare You (DDY), Khorgos Shanwey Film)
Жанр: фантастика, боевик, приключения
Продолжительность: 01:50:42

Перевод: Профессиональный дублированный (лицензия)

Режиссер: Стивен С. ДеНайт / Steven S. DeKnight



исполняли (дублировали):



Jake Pentecost - Джон Бойега (Олег Новиков)
Nate Lambert - Скотт Иствуд (Кирилл Туранский)
Amara Namani - Кэйли Спэни (Александра Курагина)
Dr. Hermann Gottlieb - Берн Горман (Евгений Вальц)
Dr. Newton Geiszler - Чарли Дэй (Александр Дасевич)
Liwen Shao - Цзин Тянь (Лина Иванова)
Marshal Quan - Макс Чжан (Станислав Тикунов)
Jules Reyes - Адриа Архона (Анна Киселёва)
Mako Mori - Ринко Кикути (Екатерина Виноградова)
Cadet Suresh - Каран Брэр (Прохор Чеховской)
Cadet Jinhai - Уэсли Вон (Евгений Толоконников)
Cadet Viktoria - Иванна Сахно (Юлия Горохова)



Описание: Команда пилотируемых роботов-защитников остановила вторжение гигантских инопланетных монстров. Великая битва за Тихоокеанский рубеж ознаменовала новую главу в истории человечества. Однако война только начинается…
Пришло время нового поколения отстаивать своё право на Землю.


Первый блокбастер в режиссёрской карьере Стивена С. ДеНайта, который прежде писал сценарии сериалов и снимал их.
Ошибка в фильме:
На 58 минуте во время разговора в Шао-Индастриз на планшете сначала есть символ корпорации, затем он исчезает.

Премьера: 21 марта 2018 (22 марта 2018)
Релиз на Blu-Ray (DVD) (Россия): 9 июля 2018
Бюджет: $150 000 000
Кассовые сборы: $290 061 297


.



Качество: BDRip (by Ash61)
Контейнер: MKV
Формат 3D: Half OverUnder / Вертикальная анаморфная стереопара
Порядок ракурсов: левый ракурс первый



Видео: AVC / 1920х1080p / 23,976 fps / 16.0 Mbps

Аудио:
#1 - Русский / AC3 / 48 KHz / 5.1 ch / 640 Kbps (Дубляж - BD CEE)
#2 - Украинский / AC3 / 48 KHz / 2 ch / 192 Kbps (Дубляж) (спасибо Hurtom!)
#3 - Английский / AC3 / 48 KHz / 5.1 ch / 448 Kbps (Original - BD 3D)

Субтитры (SRT):
Вшитые (softsub):
#1 - Русские Форсированные (включены по умолчанию)
#2 - Русские Полные
#3 - Украинские Форсированные [igor911 + uafilm.tv]
#4 - English Full
#5 - English SDH

Внешние (UTF-8):
#1 - Русские Форсированные (включены по умолчанию)
#2 - Русские Полные
#3 - Украинские Форсированные

General
Unique ID : 249918014580827432558170469453832648927 (0xBC047573698D566FB442D76F6DB7F8DF)
Complete name : D:PacificRim2(2018)3D-halfOU(Ash61)PacificRim2(2018)3D-halfOU(Ash61).mkv
Format : Matroska
Format version : Version 2
File size : 13.4 GiB
Duration : 1h 50mn
Overall bit rate : 17.3 Mbps
Movie name : Тихоокеанский рубеж 2 / Pacific Rim: Uprising (2018) in 3D
Encoded date : UTC 2018-07-19 20:09:02
Writing application : mkvmerge v5.8.0 ('No Sleep / Pillow') built on Sep 2 2012 15:37:04
Writing library : libebml v1.2.3 + libmatroska v1.3.0

Video
ID : 1
Format : AVC
Format/Info : Advanced Video Codec
Format profile : High@L4.1
Format settings, CABAC : Yes
Format settings, ReFrames : 4 frames
Codec ID : V_MPEG4/ISO/AVC
Duration : 1h 50mn
Bit rate : 16.0 Mbps
Width : 1 920 pixels
Height : 1 080 pixels
Display aspect ratio : 16:9
Frame rate mode : Constant
Frame rate : 23.976 (24000/1001) fps
Color space : YUV
Chroma subsampling : 4:2:0
Bit depth : 8 bits
Scan type : Progressive
Bits/(Pixel*Frame) : 0.322
Stream size : 12.1 GiB (91%)
Title : BDRip by Ash61
Writing library : x264 core 146 r2538 121396c
Encoding settings : cabac=1 / ref=4 / deblock=1:-3:-3 / analyse=0x3:0x113 / me=umh / subme=10 / psy=1 / psy_rd=1.00:0.00 / mixed_ref=1 / me_range=32 / chroma_me=1 / trellis=2 / 8x8dct=1 / cqm=0 / deadzone=21,11 / fast_pskip=0 / chroma_qp_offset=-2 / threads=12 / lookahead_threads=2 / sliced_threads=0 / nr=0 / decimate=0 / interlaced=0 / bluray_compat=0 / constrained_intra=0 / bframes=8 / b_pyramid=2 / b_adapt=2 / b_bias=0 / direct=3 / weightb=1 / open_gop=0 / weightp=2 / keyint=250 / keyint_min=23 / scenecut=40 / intra_refresh=0 / rc_lookahead=60 / rc=2pass / mbtree=0 / bitrate=16000 / ratetol=1.0 / qcomp=0.70 / qpmin=0 / qpmax=69 / qpstep=4 / cplxblur=20.0 / qblur=0.5 / vbv_maxrate=40000 / vbv_bufsize=30000 / nal_hrd=none / filler=0 / frame-packing=4 / ip_ratio=1.40 / pb_ratio=1.30 / aq=1:0.70
Language : English
Default : Yes
Forced : No

Audio #1
ID : 2
Format : AC-3
Format/Info : Audio Coding 3
Mode extension : CM (complete main)
Format settings, Endianness : Big
Codec ID : A_AC3
Duration : 1h 50mn
Bit rate mode : Constant
Bit rate : 640 Kbps
Channel(s) : 6 channels
Channel positions : Front: L C R, Side: L R, LFE
Sampling rate : 48.0 KHz
Frame rate : 31.250 fps (1536 spf)
Compression mode : Lossy
Stream size : 507 MiB (4%)
Title : Дубляж - BD CEE
Language : Russian
Default : Yes
Forced : No

Audio #2
ID : 3
Format : AC-3
Format/Info : Audio Coding 3
Mode extension : CM (complete main)
Format settings, Endianness : Big
Codec ID : A_AC3
Duration : 1h 50mn
Bit rate mode : Constant
Bit rate : 192 Kbps
Channel(s) : 2 channels
Channel positions : Front: L R
Sampling rate : 48.0 KHz
Frame rate : 31.250 fps (1536 spf)
Compression mode : Lossy
Stream size : 152 MiB (1%)
Title : Дубляж
Language : Ukrainian
Default : No
Forced : No

Audio #3
ID : 4
Format : AC-3
Format/Info : Audio Coding 3
Mode extension : CM (complete main)
Format settings, Endianness : Big
Codec ID : A_AC3
Duration : 1h 50mn
Bit rate mode : Constant
Bit rate : 448 Kbps
Channel(s) : 6 channels
Channel positions : Front: L C R, Side: L R, LFE
Sampling rate : 48.0 KHz
Frame rate : 31.250 fps (1536 spf)
Compression mode : Lossy
Stream size : 355 MiB (3%)
Title : Original
Language : English
Default : No
Forced : No

Text #1
ID : 5
Format : UTF-8
Codec ID : S_TEXT/UTF8
Codec ID/Info : UTF-8 Plain Text
Title : Форсированные
Language : Russian
Default : Yes
Forced : No

Text #2
ID : 6
Format : UTF-8
Codec ID : S_TEXT/UTF8
Codec ID/Info : UTF-8 Plain Text
Title : Полные
Language : Russian
Default : No
Forced : No

Text #3
ID : 7
Format : UTF-8
Codec ID : S_TEXT/UTF8
Codec ID/Info : UTF-8 Plain Text
Title : Форсированные
Language : Ukrainian
Default : No
Forced : No

Text #4
ID : 8
Format : UTF-8
Codec ID : S_TEXT/UTF8
Codec ID/Info : UTF-8 Plain Text
Title : Full
Language : English
Default : No
Forced : No

Text #5
ID : 9
Format : UTF-8
Codec ID : S_TEXT/UTF8
Codec ID/Info : UTF-8 Plain Text
Title : SDH
Language : English
Default : No
Forced : No

Menu
00:00:00.000 : :1
00:06:54.872 : :2
00:13:05.366 : :3
00:15:51.075 : :4
00:20:36.359 : :5
00:24:49.695 : :6
00:31:08.240 : :7
00:37:56.065 : :8
00:43:37.947 : :9
00:49:01.938 : :10
00:53:40.925 : :11
00:58:12.030 : :12
01:04:45.005 : :13
01:09:25.536 : :14
01:14:36.721 : :15
01:22:53.426 : :16
01:29:02.545 : :17
01:33:10.585 : :18
01:38:07.381 : :19
01:40:55.047 : :20



















Правила, инструкции, FAQ!!!
Торрент  Добавлен [20 июл 2018, 10:21] Скачать торрент Магнет ссылка
Скачать торрент
67.98 КБ

Статус
Проверен 
 
Размер  13.36 ГБ
Приватный: Нет (DHT включён)
.torrent скачан  85
Как залить торрент? | Как скачать Torrent? | Как смотреть и слушать онлайн?  
Гость
 



Вернуться в HD-Video в 3D

Кто сейчас на конференции

Сейчас этот форум просматривают: нет зарегистрированных пользователей и гости: 5