The Mini Beats - 3 альбома (1999-2000) Discography [FLAC|Lossless]<rock n roll,boyschoir>


Статистика раздачи
Размер: 568.47 МБ | Добавлен: 30 май 2014, 00:16 | Скачали: 0
Сидеров: 1  [0 байт/сек]    Личеров: 9  [0 байт/сек]

Сообщение Гость » 30 май 2014, 00:16

The Mini Beats - Discography (1999-2000)

Год: 1999-2000
Жанр: rock n roll,boyschoir
Продолжительность: 01:24:21

Кодек: FLAC
Битрейт: Lossless
Тип рипа: image+.cue

The Mini-Beats - это Philip Lawall (10 July 1989) лидер-вокал и гитара, Markus Attinger (28 April 1990) Hofner "violin" бас, Jonas Kenner (30 April 1988) ударные, и Andreas Schaupp (20 May 1988) лидер-гитара. Группа образовалась в 1999 году в Гамбурге, Германия, и изначально называлась The Mini Beatles.
Отец Филипа был музыкантом, и летом 1999 года помог ребятам записать 10 песен Битлз в домашней студии. Эти записи были выпущены на CD "Get Back", который вышел ограниченным тиражом, и распространялся в основном среди друзей и семьи. Сейчас он представляет редкость.
Весной 2000 года The Mini Beatles были приглашены на популярное шоу "TV total", где их увидели 4 миллиона зрителей. Они получили награду "Raab der Woche" и были приглашены опять, неделю спустя, и снова выиграли приз, победив во второй раз. Промоутеры, а также радио и телепрограммы, хотели заполучить мальчиков для своего шоу. Немецкий журнал для подростков "Bravo" назвал их "Boygroup of the Week" (Мальчишеская группа недели).
В том же году группа подписывает контракт с лейблом Zomba Records, и меняет название на The Mini-Beats. Выходит альбом "Rock N Roll Music", официальное видео, и макси-сингл. Последующие месяцы The Mini-Beats проводят в гастрольных выступлениях.
В апреле 2002 года ребята получают награду "Special Award for Outstanding Young International Performers" от организации "Young Artist Foundation". Однако несколько месяцев спустя, из-за изменившихся интересов, The Mini-Beats распались.

Таких битлов вы еще не слышали.
Альбом Get Back записан в домашней студии.Слышно как мальчишки немного "лажают",но видно что очень стараются.Остальные альбомы уже сделаны в профессиональных студиях,там уже все изъяны убрали.
#777Треклист:
[03:04] 01.Sgt. Peppers
[02:24] 02.Dizzy Miss Lizzy
[02:26] 03.Twist and Shout
[02:11] 04.Please Please Me
[02:26] 05.I Wanna Hold Your Hand
[02:48] 06.A Hard Day's Night
[02:47] 07.Magical Mystery Tour
[02:51] 08.Kansas City
[04:06] 09.Let It Be
[03:46] 10.Get Back
Продолжительность: 00:28:55
Код:
Код: Выделить всё
Exact Audio Copy V0.99 prebeta 5 from 4. May 2009

Отчёт EAC об извлечении, выполненном 3. марта 2011, 14:35

The Mini Beatles / Get Back

Дисковод: HL-DT-STDVD-RAM GH22LP20   Adapter: 0  ID: 1

Режим чтения                 : Достоверность
Использование точного потока : Да
Отключение кэша аудио        : Да
Использование указателей C2  : Нет

Коррекция смещения при чтении                     : 102
Способность читать области Lead-in и Lead-out     : Нет
Заполнение пропущенных сэмплов тишиной            : Да
Удаление блоков с тишиной в начале и конце        : Нет
При вычислениях CRC использовались нулевые сэмплы : Да
Интерфейс                                         : Встроенный Win32-интерфейс для Win NT/2000

Выходной формат : Внутренние WAV-операции
Формат сэмплов  : 44.100 Гц; 16 бит; стерео

TOC извлечённого CD

     Трек |   Старт  | Длительность | Начальный сектор | Конечный сектор
    ---------------------------------------------------------------------
       1  |  0:00.00 |    3:04.15   |           0      |      13814
       2  |  3:04.15 |    2:24.70   |       13815      |      24684
       3  |  5:29.10 |    2:26.39   |       24685      |      35673
       4  |  7:55.49 |    2:11.10   |       35674      |      45508
       5  | 10:06.59 |    2:26.63   |       45509      |      56521
       6  | 12:33.47 |    2:48.44   |       56522      |      69165
       7  | 15:22.16 |    2:47.67   |       69166      |      81757
       8  | 18:10.08 |    2:51.66   |       81758      |      94648
       9  | 21:01.74 |    4:06.56   |       94649      |     113154
      10  | 25:08.55 |    3:46.47   |      113155      |     130151

Характеристики диапазона извлечения и сообщения об ошибках

Выбранный диапазон

     Имя файла D:\Downloads\The Mini Beatles - Get Back.wav

     Пиковый уровень 100.0 %
     Качество диапазона 99.9 %
     CRC копии 953E839B
     Копирование... OK

Ошибок не произошло

AccurateRip: сводка

Трек  1  нет в базе данных
Трек  2  нет в базе данных
Трек  3  нет в базе данных
Трек  4  нет в базе данных
Трек  5  нет в базе данных
Трек  6  нет в базе данных
Трек  7  нет в базе данных
Трек  8  нет в базе данных
Трек  9  нет в базе данных
Трек 10  нет в базе данных

Ни одного трека нет в базе AccurateRip

Конец отчёта

Код:
Код: Выделить всё
-----------------------

DON'T MODIFY THIS FILE

-----------------------

PERFORMER: auCDtect Task Manager, ver. 1.5.1RC2 build 1.5.1.3
Copyright (c) 2008-2010 y-soft. All rights reserved
http:/y-soft.org

ANALYZER: auCDtect: CD records authenticity detector, version 0.8.2
Copyright (c) 2004 Oleg Berngardt. All rights reserved.
Copyright (c) 2004 Alexander Djourik. All rights reserved.

FILE: The Mini Beatles - Get Back.flac
  Size: 191467275 Hash: 12F9ED09430C7B05A6B77FB125C5E477 Accuracy: -m0
  Conclusion: CDDA 100%
  Signature: ED3B3EE03712145E472CC6576297D433345D12C6
#777Треклист:
[02:32] 01.Twist & Shout (Radio Edit)
[02:32] 02.Twist & Shout (Unplugged Version)
[03:50] 03. My Life (Original Version)
[03:29] 04.Twist & Shout (Extended Version)
[02:32] 05.Twist & Shout (Altern. Media Version)
Продолжительность: 00:14:57
Код:
Код: Выделить всё
Exact Audio Copy V0.99 prebeta 5 from 4. May 2009

Отчёт EAC об извлечении, выполненном 3. марта 2011, 15:22

The Mini Beats / Twist & Shout

Дисковод: HL-DT-STDVD-RAM GH22LP20   Adapter: 0  ID: 1

Режим чтения                 : Достоверность
Использование точного потока : Да
Отключение кэша аудио        : Да
Использование указателей C2  : Нет

Коррекция смещения при чтении                     : 102
Способность читать области Lead-in и Lead-out     : Нет
Заполнение пропущенных сэмплов тишиной            : Да
Удаление блоков с тишиной в начале и конце        : Нет
При вычислениях CRC использовались нулевые сэмплы : Да
Интерфейс                                         : Встроенный Win32-интерфейс для Win NT/2000

Выходной формат : Внутренние WAV-операции
Формат сэмплов  : 44.100 Гц; 16 бит; стерео

TOC извлечённого CD

     Трек |   Старт  | Длительность | Начальный сектор | Конечный сектор
    ---------------------------------------------------------------------
       1  |  0:00.00 |    2:32.40   |           0      |      11439
       2  |  2:32.40 |    2:32.38   |       11440      |      22877
       3  |  5:05.03 |    3:50.33   |       22878      |      40160
       4  |  8:55.36 |    3:29.47   |       40161      |      55882
       5  | 12:25.08 |    2:32.13   |       55883      |      67295

Характеристики диапазона извлечения и сообщения об ошибках

Выбранный диапазон

     Имя файла D:\Downloads\The Mini Beats - Twist & Shout.wav

     Пиковый уровень 98.8 %
     Качество диапазона 100.0 %
     CRC теста C344FA59
     CRC копии C344FA59
     Копирование... OK

Ошибок не произошло

AccurateRip: сводка

Трек  1  нет в базе данных
Трек  2  нет в базе данных
Трек  3  нет в базе данных
Трек  4  нет в базе данных
Трек  5  нет в базе данных

Ни одного трека нет в базе AccurateRip

Конец отчёта
Код:
Код: Выделить всё
-----------------------

DON'T MODIFY THIS FILE

-----------------------

PERFORMER: auCDtect Task Manager, ver. 1.5.1RC2 build 1.5.1.3
Copyright (c) 2008-2010 y-soft. All rights reserved
http:/y-soft.org

ANALYZER: auCDtect: CD records authenticity detector, version 0.8.2
Copyright (c) 2004 Oleg Berngardt. All rights reserved.
Copyright (c) 2004 Alexander Djourik. All rights reserved.

FILE: The Mini Beats - Twist & Shout.flac
  Size: 111456783 Hash: 1B2B02D695802DA943F4A52A2D73ACD6 Accuracy: -m0
  Conclusion: CDDA 100%
  Signature: E66191AF76587BA0975F8B34CC3EE5DE74A584F9
#777Треклист:
[02:32] 01.Twist & Shout
[02:34] 02.Rock'n' Roll Music
[04:13] 03.Happy X-Mas
[03:20] 04.A Hard Day's Night
[03:14] 05.Ob La Di
[02:41] 06.Give Me That Rock'n' Roll
[02:51] 07.Mr. Postman
[03:43] 08.Hey Marie
[03:45] 09.Let It Be
[02:36] 10.Boys
[03:03] 11.How Do You Do
[03:54] 12. It's My Life
Продолжительность: 00:38:31
Код:
Код: Выделить всё
Exact Audio Copy V0.99 prebeta 5 from 4. May 2009

Отчёт EAC об извлечении, выполненном 3. марта 2011, 16:02

The Mini-Beats / Rock'n'Roll Music

Дисковод: HL-DT-STDVD-RAM GH22LP20   Adapter: 0  ID: 1

Режим чтения                 : Достоверность
Использование точного потока : Да
Отключение кэша аудио        : Да
Использование указателей C2  : Нет

Коррекция смещения при чтении                     : 102
Способность читать области Lead-in и Lead-out     : Нет
Заполнение пропущенных сэмплов тишиной            : Да
Удаление блоков с тишиной в начале и конце        : Нет
При вычислениях CRC использовались нулевые сэмплы : Да
Интерфейс                                         : Встроенный Win32-интерфейс для Win NT/2000

Выходной формат : Внутренние WAV-операции
Формат сэмплов  : 44.100 Гц; 16 бит; стерео

TOC извлечённого CD

     Трек |   Старт  | Длительность | Начальный сектор | Конечный сектор
    ---------------------------------------------------------------------
       1  |  0:00.00 |    2:32.14   |           0      |      11413
       2  |  2:32.14 |    2:34.00   |       11414      |      22963
       3  |  5:06.14 |    4:13.43   |       22964      |      41981
       4  |  9:19.57 |    3:20.03   |       41982      |      56984
       5  | 12:39.60 |    3:14.68   |       56985      |      71602
       6  | 15:54.53 |    2:41.54   |       71603      |      83731
       7  | 18:36.32 |    2:51.11   |       83732      |      96567
       8  | 21:27.43 |    3:43.40   |       96568      |     113332
       9  | 25:11.08 |    3:45.06   |      113333      |     130213
      10  | 28:56.14 |    2:36.53   |      130214      |     141966
      11  | 31:32.67 |    3:03.44   |      141967      |     155735
      12  | 34:36.36 |    3:54.61   |      155736      |     173346

Характеристики диапазона извлечения и сообщения об ошибках

Выбранный диапазон

     Имя файла D:\Downloads\The Mini-Beats - Rock'n'Roll Music.wav

     Пиковый уровень 98.8 %
     Качество диапазона 100.0 %
     CRC теста 56BFBE2E
     CRC копии 56BFBE2E
     Копирование... OK

Ошибок не произошло

AccurateRip: сводка

Трек  1  нет в базе данных
Трек  2  нет в базе данных
Трек  3  нет в базе данных
Трек  4  нет в базе данных
Трек  5  нет в базе данных
Трек  6  нет в базе данных
Трек  7  нет в базе данных
Трек  8  нет в базе данных
Трек  9  нет в базе данных
Трек 10  нет в базе данных
Трек 11  нет в базе данных
Трек 12  нет в базе данных

Ни одного трека нет в базе AccurateRip

Конец отчёта
Код:
Код: Выделить всё
-----------------------

DON'T MODIFY THIS FILE

-----------------------

PERFORMER: auCDtect Task Manager, ver. 1.5.1RC2 build 1.5.1.3
Copyright (c) 2008-2010 y-soft. All rights reserved
http:/y-soft.org

ANALYZER: auCDtect: CD records authenticity detector, version 0.8.2
Copyright (c) 2004 Oleg Berngardt. All rights reserved.
Copyright (c) 2004 Alexander Djourik. All rights reserved.

FILE: The Mini-Beats - Rock'n'Roll Music.flac
  Size: 291214482 Hash: E5222BADB6CF2B45498BDA5D433156AD Accuracy: -m0
  Conclusion: CDDA 100%
  Signature: C32AC14F2C91565849E97B0CA67A2B4D8B1FBCFC
Правила, инструкции, FAQ!!!
Торрент  Добавлен [30 май 2014, 00:16] Скачать торрент Магнет ссылка
Скачать торрент
47.52 КБ

Статус
Проверен 
 
Размер  568.47 МБ
Приватный: Нет (DHT включён)
.torrent скачан  0
Как залить торрент? | Как скачать Torrent? | Как смотреть и слушать онлайн?  
Гость
 



Вернуться в Дискографии (Зарубежные)

Кто сейчас на конференции

Сейчас этот форум просматривают: нет зарегистрированных пользователей и гости: 0