(Tech/Extreme Prog Metal) [CD] Circles - The Last One - 2018, FLAC (image+.cue), lossless

Статистика раздачи
Размер: 328.82 МБ | Добавлен: 01 дек 2018, 12:34 | Скачали: 0
Сидеров: 2  [0 байт/сек]    Личеров: 1  [0 байт/сек]

Сообщение Гость » 01 дек 2018, 12:34

Circles - The Last One
Жанр: Tech/Extreme Prog Metal
Носитель: CD
Страна-производитель диска: EU
Год издания: 2018
Издатель-лейбл: Seasons Of Mist
Номер по каталогу: SOM 470D
Страна исполнителя: Australia
Аудиокодек: FLAC (*.flac)
Тип рипа: image+.cue
Битрейт аудио: lossless
Продолжительность: 00:45:25
Релизёр: BACKLASH (Thanks!)
Наличие сканов: yes
Треклист:
01. Winter (4:12)
02. Breaker (3:50)
03. The Messenger (3:29)
04. Arrival (5:57)
05. Tether (3:15)
06. Resolution (3:34)
07. Dream Sequence (4:51)
08. Renegade (5:29)
09. Blueprints for a Great Escape (4:50)
10. Alone With Ghosts (5:59)
Код: Выделить всё
Exact Audio Copy V1.3 from 2. September 2016
EAC extraction logfile from 17. October 2018, 19:54
Circles / The Last One
Used drive  : HL-DT-STDVDRAM GH24NSD1   Adapter: 1  ID: 0
Read mode               : Secure
Utilize accurate stream : Yes
Defeat audio cache      : Yes
Make use of C2 pointers : No
Read offset correction                      : 6
Overread into Lead-In and Lead-Out          : No
Fill up missing offset samples with silence : Yes
Delete leading and trailing silent blocks   : No
Null samples used in CRC calculations       : Yes
Used interface                              : Native Win32 interface for Win NT & 2000
Used output format              : User Defined Encoder
Selected bitrate                : 896 kBit/s
Quality                         : High
Add ID3 tag                     : No
Command line compressor         : C:\Program Files (x86)\Exact Audio Copy\Flac\flac.exe
Additional command line options : -6 -V %source%
TOC of the extracted CD
     Track |   Start  |  Length  | Start sector | End sector
    ---------------------------------------------------------
        1  |  0:00.00 |  4:12.00 |         0    |    18899
        2  |  4:12.00 |  3:50.37 |     18900    |    36186
        3  |  8:02.37 |  3:28.74 |     36187    |    51860
        4  | 11:31.36 |  5:57.17 |     51861    |    78652
        5  | 17:28.53 |  3:14.52 |     78653    |    93254
        6  | 20:43.30 |  3:33.42 |     93255    |   109271
        7  | 24:16.72 |  4:51.15 |    109272    |   131111
        8  | 29:08.12 |  5:29.21 |    131112    |   155807
        9  | 34:37.33 |  4:49.42 |    155808    |   177524
       10  | 39:27.00 |  5:58.63 |    177525    |   204437
Range status and errors
Selected range
     Filename C:\Users\User\Music\EAC\Circles - The Last One\Circles - The Last One.wav
     Peak level 94.7 %
     Extraction speed 1.6 X
     Range quality 100.0 %
     Test CRC 55CA3E88
     Copy CRC 55CA3E88
     Copy OK
No errors occurred
AccurateRip summary
Track  1  not present in database
Track  2  not present in database
Track  3  not present in database
Track  4  not present in database
Track  5  not present in database
Track  6  not present in database
Track  7  not present in database
Track  8  not present in database
Track  9  not present in database
Track 10  not present in database
None of the tracks are present in the AccurateRip database
End of status report
---- CUETools DB Plugin V2.1.6
[CTDB TOCID: DvHfQyQ3O5WntYfdMt_tTdNdGCk-] found
Submit result: DvHfQyQ3O5WntYfdMt_tTdNdGCk- has been confirmed
Track | CTDB Status
  1   | (1/1) Accurately ripped
  2   | (1/1) Accurately ripped
  3   | (1/1) Accurately ripped
  4   | (1/1) Accurately ripped
  5   | (1/1) Accurately ripped
  6   | (1/1) Accurately ripped
  7   | (1/1) Accurately ripped
  8   | (1/1) Accurately ripped
  9   | (1/1) Accurately ripped
 10   | (1/1) Accurately ripped
==== Log checksum 7255FFF0FACBB00D4649AC9A16EF1DD7884FA4871EF0BFECDB02D95051619062 ====
Правила, инструкции, FAQ!!!
Торрент  Добавлен [01 дек 2018, 12:34] Скачать торрент Магнет ссылка
Скачать торрент
[ Размер 13.84 КБ / Просмотров 2 ]

Статус
Проверен 
 
Размер  328.82 МБ
Приватный: Нет (DHT включён)
.torrent скачан  0
Как залить торрент? | Как скачать Torrent? | Как смотреть и слушать онлайн?  
Гость
 


  • Похожие торренты
    Ответы
    Просмотры
    Последнее сообщение

Вернуться в Heavy, Power, Progressive (Metal)

Кто сейчас на конференции

Сейчас этот форум просматривают: нет зарегистрированных пользователей и гости: 0