Тайны темных джунглей / Mysteries of the dark jungle / I misteri della giungla nera [1991, Приключения, DVDRip]


Статистика раздачи
Размер: 3.54 ГБ | Добавлен: 16 мар 2013, 23:24 | Скачали: 11
Сидеров: 40  [0 байт/сек]    Личеров: 2  [0 байт/сек]

Сообщение Гость » 16 мар 2013, 23:24

Название: Тайны темных джунглей
Оригинальное название: Mysteries of the dark jungle / I misteri della giungla nera
Год выхода: 1991
Жанр: Приключения
Режиссер: Кевин Коннор

В фильме снимались: Стейси Кич / Stacy Keach, Вирна Лизи / Virna Lisi, Джон Рис-Дэвис / John Rhys-Davies, Кабир Беди / Kabir Bedi, Гюнтер Мария Халмер / Gunther Maria Halmer, Корнелия Хэйес О’Херлихи / Cornelia Hayes O'Herlihy, Габриель Анвар / Gabrielle Anwar, Энтони Калф / Anthony Calf, Боб Кристо / Bob Christo, Эмержит Дью / Amerjit Deu, Айеша Дхаркер / Ayesha Dharker, Эннио Фантастичини / Ennio Fantastichini, Санчо Грация / Sancho Gracia, Джессика Хэтэуэй / Jessica Hathaway

Вкратце:
По одноименному роману Эмилио Сальгари.
К офицеру, несколько лет живущему в Индии, приезжают его жена и две дочери. Увидев одну из них, местный раджа решает, что она послана богами для спасения его племени — самого жестокого и кровожадного в стране — и должна быть принесена в жертву…



Страна: Испания, Италия, Франция, Германия, Австрия
Продолжительность: 01:39:28+01:33:10+01:45:01 (297 минут)
Перевод: Профессиональный двухголосый закадровый (РТР)

Формат: avi
Кодек: XviD build 50
Качество: DVDrip
Видео: XviD build 50, 640x480, 1498 кб/с
Звук: AC3, 2ch, 192 кб/с
Субтитры: отсутствуют



General
Complete name : Mysteries.of.the.dark.jungle.DVDRip.2.Rus.avi
Format : AVI
Format/Info : Audio Video Interleave
File size : 1.11 GiB
Duration : 1h 33mn
Overall bit rate : 1 701 Kbps
Writing application : VirtualDubMod 1.5.10.2 (build 2540/release)
Writing library : VirtualDubMod build 2540/release

Video
ID : 0
Format : MPEG-4 Visual
Format profile : Advanced Simple@L5
Format settings, BVOP : 1
Format settings, QPel : No
Format settings, GMC : No warppoints
Format settings, Matrix : Default (H.263)
Codec ID : XVID
Codec ID/Hint : XviD
Duration : 1h 33mn
Bit rate : 1 499 Kbps
Width : 640 pixels
Height : 480 pixels
Display aspect ratio : 4:3
Frame rate : 25.000 fps
Color space : YUV
Chroma subsampling : 4:2:0
Bit depth : 8 bits
Scan type : Progressive
Compression mode : Lossy
Bits/(Pixel*Frame) : 0.195
Stream size : 999 MiB (88%)
Writing library : XviD 1.2.1 (UTC 2008-12-04)

Audio
ID : 1
Format : AC-3
Format/Info : Audio Coding 3
Mode extension : CM (complete main)
Codec ID : 2000
Duration : 1h 33mn
Bit rate mode : Constant
Bit rate : 192 Kbps
Channel(s) : 2 channels
Channel positions : Front: L R
Sampling rate : 48.0 KHz
Bit depth : 16 bits
Compression mode : Lossy
Stream size : 128 MiB (11%)
Alignment : Split accross interleaves
Interleave, duration : 40 ms (1.00 video frame)
Interleave, preload duration : 500 ms




Дополнительная информация: За основу взят немецкий DVD выпуск (в РФ данный фильм на лицензии не выходил), убрана немецкая дорожка и заменена соответственно на русскую, снятую с VHS записи 90х
Так же, что бы избежать вопросов о количестве эпизодов. В РФ фильм был разделен на 6 эпизодов по ~ 50 мин каждый, в немецкой версии всего три, те же 6 эпизодов, но объеденные в 1ч40мин 3 части.
Правила, инструкции, FAQ!!!
Торрент  Добавлен [16 мар 2013, 23:24] Скачать торрент Магнет ссылка
Скачать торрент
18.45 КБ

Статус
Проверен 
 
Размер  3.54 ГБ
Приватный: Нет (DHT включён)
.torrent скачан  11
Как залить торрент? | Как скачать Torrent? | Как смотреть и слушать онлайн?  
Гость
 



Вернуться в Приключения

Кто сейчас на конференции

Сейчас этот форум просматривают: нет зарегистрированных пользователей и гости: 0