Т2 Трейнспоттинг / На игле 2 / T2 Trainspotting (2017) BDRip 1080p | Лицензия

Статистика раздачи
Размер: 9.11 ГБ | Добавлен: 26 май 2017, 21:05 | Скачали: 355
Сидеров: 469  [0 байт/сек]    Личеров: 582  [0 байт/сек]

Сообщение Гость » 26 май 2017, 21:05

Год выхода: 2017
Жанр: Драма
Режиссер: Дэнни Бойл
В ролях: Эван МакГрегор, Юэн Бремнер, Джонни Ли Миллер, Роберт Карлайл, Кевин МакКидд, Кайл Фицпатрик, Келли Макдоналд, Анжела Недялкова, Полин Линч, Джеймс Космо

О фильме:
Прошло двадцать лет. Рентон возвращается в единственное место, которое может считать своим домом. Они все ждут его: Кочерыжка, Кайфолом и Бегби. А вместе с ними другие старые знакомые: месть и страх, ненависть и любовь, дружба, сожаление и надежда. Все они выстроились в шеренгу, приветствуя Рентона, и он, кажется, готов к ним присоединиться.



Страна: Великобритания
Продолжительность: 01:57:22
Перевод: Профессиональный (полное дублирование) | Лицензия
Субтитры: Английские

Рейтинг R получают фильмы, в содержании которых обязательно содержится материал, предназначенный только для взрослой аудитории. Родителям рекомендуется хорошо подумать, прежде чем посмотреть такой фильм вместе со своими детьми.
Фильм, получивший рейтинг R, скорее всего содержит сексуальные сцены, эпизоды с употреблением наркотиков, нецензурную брань, фрагменты с насилием и т.д.

Качество: BDRip 1080p
Формат: MKV
Видео кодек: AVC
Аудио кодек: AC3, DTS
Видео: 1920x1040, 23.976 fps, 9 156 Kbps (0.191 bit/pixel)
Аудио #1: AC3, 448 kb/s, 6 ch, 48.0 KHz [Russian]
Аудио #2: DTS, 1509 kb/s, 6 ch, 48.0 KHz [English]

Общее
Уникальный идентификатор : 185796528856662715015633992356145329190 (0x8BC71C1F0D788C17B939E3CE0816F426)
Полное имя : 2017.T2.Trainspotting.BDRip.1080p.mkv
Формат : Matroska
Версия формата : Version 4 / Version 2
Размер файла : 9,11 Гбайт
Продолжительность : 1 ч. 57 м.
Общий поток : 11,1 Мбит/сек
Дата кодирования : UTC 2017-05-26 10:35:51
Программа кодирования : mkvmerge v12.0.0 ('Trust / Lust') 64bit
Библиотека кодирования : libebml v1.3.4 + libmatroska v1.4.5

Видео
Идентификатор : 1
Формат : AVC
Формат/Информация : Advanced Video Codec
Профиль формата : High@L4.1
Параметр CABAC формата : Да
Параметр ReFrames формата : 4 кадра
Идентификатор кодека : V_MPEG4/ISO/AVC
Продолжительность : 1 ч. 57 м.
Битрейт : 9156 Кбит/сек
Ширина : 1920 пикселей
Высота : 1040 пикселей
Соотношение сторон : 1,85:1
Режим частоты кадров : Постоянный
Частота кадров : 23,976 (24000/1001) кадра/сек
Цветовое пространство : YUV
Субдискретизация насыщенности : 4:2:0
Битовая глубина : 8 бит
Тип развёртки : Прогрессивная
Бит/(Пиксели*Кадры) : 0.191
Размер потока : 7,51 Гбайт (82%)
Библиотека кодирования : x264 core 150 r2829 d1fe6fd
Настройки программы : cabac=1 / ref=4 / deblock=1:-3:-3 / analyse=0x3:0x133 / me=umh / subme=8 / psy=1 / psy_rd=1.00:0.00 / mixed_ref=1 / me_range=16 / chroma_me=1 / trellis=1 / 8x8dct=1 / cqm=0 / deadzone=21,11 / fast_pskip=0 / chroma_qp_offset=-1 / threads=18 / lookahead_threads=3 / sliced_threads=0 / nr=0 / decimate=1 / interlaced=0 / bluray_compat=0 / constrained_intra=0 / bframes=3 / b_pyramid=2 / b_adapt=1 / b_bias=0 / direct=3 / weightb=1 / open_gop=0 / weightp=2 / keyint=240 / keyint_min=23 / scenecut=40 / intra_refresh=0 / rc_lookahead=40 / rc=2pass / mbtree=1 / bitrate=9156 / ratetol=1.0 / qcomp=0.60 / qpmin=10 / qpmax=51 / qpstep=4 / cplxblur=20.0 / qblur=0.5 / ip_ratio=1.40 / aq=1:1.00
Язык : English
Default : Да
Forced : Нет

Аудио #1
Идентификатор : 2
Формат : AC-3
Формат/Информация : Audio Coding 3
Параметр Endianness формата : Big
Идентификатор кодека : A_AC3
Продолжительность : 1 ч. 57 м.
Вид битрейта : Постоянный
Битрейт : 448 Кбит/сек
Каналы : 6 каналов
Расположение каналов : Front: L C R, Side: L R, LFE
Частота : 48,0 КГц
Частота кадров : 31,250 кадров/сек (1536 spf)
Битовая глубина : 16 бит
Метод сжатия : С потерями
Размер потока : 376 Мбайт (4%)
Заголовок : DUB
Язык : Russian
ServiceKind/St.ring : Complete Main
Default : Нет
Forced : Нет

Аудио #2
Идентификатор : 3
Формат : DTS
Формат/Информация : Digital Theater Systems
Режим : 16
Параметр Endianness формата : Big
Идентификатор кодека : A_DTS
Продолжительность : 1 ч. 57 м.
Вид битрейта : Постоянный
Битрейт : 1509 Кбит/сек
Каналы : 6 каналов
Расположение каналов : Front: L C R, Side: L R, LFE
Частота : 48,0 КГц
Частота кадров : 93,750 кадра/сек (512 spf)
Битовая глубина : 16 бит
Метод сжатия : С потерями
Размер потока : 1,24 Гбайт (14%)
Язык : English
Default : Да
Forced : Нет

Текст
Идентификатор : 4
Формат : UTF-8
Идентификатор кодека : S_TEXT/UTF8
Идентификатор кодека/Информация : UTF-8 Plain Text
Продолжительность : 18 с. 759 мс.
Битрейт : 121 бит/сек
ElementCount : 9
Размер потока : 286 байт (0%)
Язык : English
Default : Да
Forced : Нет

Меню
00:00:00.000 : en:00:00:00.000
00:08:03.274 : en:00:08:03.274
00:14:26.574 : en:00:14:26.574
00:20:20.552 : en:00:20:20.552
00:27:35.236 : en:00:27:35.236
00:36:22.138 : en:00:36:22.138
00:44:13.192 : en:00:44:13.192
00:52:33.358 : en:00:52:33.358
00:57:29.821 : en:00:57:29.821
01:03:28.179 : en:01:03:28.179
01:09:31.750 : en:01:09:31.750
01:15:48.752 : en:01:15:48.752
01:22:57.305 : en:01:22:57.305
01:31:03.332 : en:01:31:03.332
01:37:39.979 : en:01:37:39.979
01:45:56.558 : en:01:45:56.558
Правила, инструкции, FAQ!!!
Торрент  Добавлен [26 май 2017, 21:05]

Статус
Проверен Admin (09 июл 2017, 20:44)
 
Размер  9.11 ГБ
Приватный: Нет (DHT включён)
.torrent скачан  355
Как залить торрент? | Как скачать Torrent? | Как смотреть и слушать онлайн?  
Гость
 


  • Похожие торренты
    Ответы
    Просмотры
    Последнее сообщение

Вернуться в Новинки кино

Кто сейчас на конференции

Сейчас этот форум просматривают: нет зарегистрированных пользователей и гости: 0