(Symphonic Prog) Poços & Nuvens (Pocos E Nuvens) - Clouds On The Road (Live In Interói 2005) - CD2012, FLAC (tracks+.cue+artwork), lossless


Статистика раздачи
Размер: 572.63 МБ | Добавлен: 09 мар 2019, 11:26 | Скачали: 0
Сидеров: 0  [0 байт/сек]    Личеров: 0  [0 байт/сек]

Сообщение Гость » 09 мар 2019, 11:26

Poços & Nuvens / Clouds On The Road
Жанр: Symphonic Prog
Год издания: 2012
Издатель (лейбл): Musea Records / Rock Symphony
Номер по каталогу: FGBG 4771 / RSLN 099
Страна: Brazil
Аудиокодек: FLAC (*.flac)
Тип рипа: tracks+.cue
Битрейт аудио: lossless
Продолжительность: 1:13:58
Источник (релизер): свой рип
Наличие сканов в содержимом раздачи: да (350dpi, png)
Треклист:
1. Vega (9:13)
2. Vindima E Ventania (4:15)
3. Copla (4:47)
4. Balada Outonal (5:15)
5. A Sagração Do Outono (4:04)
6. Amanhecer (4:48)
7. Dança Ao Crepúsculo (3:24)
8. Milonguita (3:55)
9. Incenso E Chuva (13:01)
10. No Inverno (3:29)
11. Todas As Estações (4:17)
12. Geração Perdida (4:33)
13. Poços E Nuvens (8:50)
Vindima E Ventania
|| progarchives.com || rateyourmusic.com || discorder.com || cduniverse.com || musearecords.com ||
Код: Выделить всё
Exact Audio Copy V1.0 beta 3 from 29. August 2011
EAC extraction logfile from 19. July 2013, 10:09
Pocos E Nuvens / Clouds On The Road
Used drive  : ASUS    DRW-1608P3S   Adapter: 1  ID: 1
Read mode               : Secure
Utilize accurate stream : Yes
Defeat audio cache      : Yes
Make use of C2 pointers : No
Read offset correction                      : 48
Overread into Lead-In and Lead-Out          : No
Fill up missing offset samples with silence : Yes
Delete leading and trailing silent blocks   : No
Null samples used in CRC calculations       : Yes
Used interface                              : Installed external ASPI interface
Gap handling                                : Appended to previous track
Used output format              : User Defined Encoder
Selected bitrate                : 128 kBit/s
Quality                         : High
Add ID3 tag                     : No
Command line compressor         : C:\Program Files\Exact Audio Copy\Flac\flac.exe
Additional command line options : -V -8 -T "Date=%year%" -T "Genre=%genre%" %source%
TOC of the extracted CD
     Track |   Start  |  Length  | Start sector | End sector
    ---------------------------------------------------------
        1  |  0:00.00 |  9:13.57 |         0    |    41531
        2  |  9:13.57 |  4:15.04 |     41532    |    60660
        3  | 13:28.61 |  4:47.30 |     60661    |    82215
        4  | 18:16.16 |  5:15.29 |     82216    |   105869
        5  | 23:31.45 |  4:04.26 |    105870    |   124195
        6  | 27:35.71 |  4:48.54 |    124196    |   145849
        7  | 32:24.50 |  3:24.34 |    145850    |   161183
        8  | 35:49.09 |  3:55.58 |    161184    |   178866
        9  | 39:44.67 | 13:01.29 |    178867    |   237470
       10  | 52:46.21 |  3:29.60 |    237471    |   253205
       11  | 56:16.06 |  4:17.22 |    253206    |   272502
       12  | 60:33.28 |  4:33.57 |    272503    |   293034
       13  | 65:07.10 |  8:50.30 |    293035    |   332814
Track  1
     Filename E:\bzp01\Pocos E Nuvens - Clouds On The Road (2012) [FLAC] {RSLN099}\01 - Vega.wav
     Pre-gap length  0:00:02.00
     Peak level 96.6 %
     Extraction speed 4.9 X
     Track quality 99.9 %
     Test CRC DF0DC0E6
     Copy CRC DF0DC0E6
     Accurately ripped (confidence 1)  [CADB6D0A]  (AR v1)
     Copy OK
Track  2
     Filename E:\bzp01\Pocos E Nuvens - Clouds On The Road (2012) [FLAC] {RSLN099}\02 - Vindmina E Ventania.wav
     Peak level 98.1 %
     Extraction speed 5.5 X
     Track quality 100.0 %
     Test CRC B3FE6544
     Copy CRC B3FE6544
     Accurately ripped (confidence 1)  [1E2E0457]  (AR v1)
     Copy OK
Track  3
     Filename E:\bzp01\Pocos E Nuvens - Clouds On The Road (2012) [FLAC] {RSLN099}\03 - Copla.wav
     Peak level 98.1 %
     Extraction speed 5.9 X
     Track quality 100.0 %
     Test CRC BA4AC69D
     Copy CRC BA4AC69D
     Accurately ripped (confidence 1)  [B05FCD70]  (AR v1)
     Copy OK
Track  4
     Filename E:\bzp01\Pocos E Nuvens - Clouds On The Road (2012) [FLAC] {RSLN099}\04 - Balada Outonal.wav
     Peak level 95.9 %
     Extraction speed 5.7 X
     Track quality 99.9 %
     Test CRC F95036D2
     Copy CRC F95036D2
     Accurately ripped (confidence 1)  [369F04AF]  (AR v1)
     Copy OK
Track  5
     Filename E:\bzp01\Pocos E Nuvens - Clouds On The Road (2012) [FLAC] {RSLN099}\05 - A Sagracao Do Outono.wav
     Peak level 97.3 %
     Extraction speed 5.6 X
     Track quality 99.9 %
     Test CRC 53DB5E4D
     Copy CRC 53DB5E4D
     Accurately ripped (confidence 1)  [1FFCF5B9]  (AR v1)
     Copy OK
Track  6
     Filename E:\bzp01\Pocos E Nuvens - Clouds On The Road (2012) [FLAC] {RSLN099}\06 - Amanhecer.wav
     Peak level 97.3 %
     Extraction speed 6.9 X
     Track quality 100.0 %
     Test CRC 1EC7EF0D
     Copy CRC 1EC7EF0D
     Accurately ripped (confidence 1)  [79E53A70]  (AR v1)
     Copy OK
Track  7
     Filename E:\bzp01\Pocos E Nuvens - Clouds On The Road (2012) [FLAC] {RSLN099}\07 - Danca Ao Crepusculo.wav
     Peak level 97.5 %
     Extraction speed 6.9 X
     Track quality 100.0 %
     Test CRC CCE53DC2
     Copy CRC CCE53DC2
     Accurately ripped (confidence 1)  [0C156103]  (AR v1)
     Copy OK
Track  8
     Filename E:\bzp01\Pocos E Nuvens - Clouds On The Road (2012) [FLAC] {RSLN099}\08 - Milonguita.wav
     Peak level 97.6 %
     Extraction speed 7.2 X
     Track quality 100.0 %
     Test CRC 5B0CAC89
     Copy CRC 5B0CAC89
     Accurately ripped (confidence 1)  [A413F47A]  (AR v1)
     Copy OK
Track  9
     Filename E:\bzp01\Pocos E Nuvens - Clouds On The Road (2012) [FLAC] {RSLN099}\09 - Incenso E Chuva.wav
     Peak level 98.1 %
     Extraction speed 8.4 X
     Track quality 100.0 %
     Test CRC 34ADB5C1
     Copy CRC 34ADB5C1
     Accurately ripped (confidence 1)  [36E8829D]  (AR v1)
     Copy OK
Track 10
     Filename E:\bzp01\Pocos E Nuvens - Clouds On The Road (2012) [FLAC] {RSLN099}\10 - No Inverno.wav
     Peak level 97.2 %
     Extraction speed 6.9 X
     Track quality 99.9 %
     Test CRC 87B1AD63
     Copy CRC 87B1AD63
     Accurately ripped (confidence 1)  [1AF60BBE]  (AR v1)
     Copy OK
Track 11
     Filename E:\bzp01\Pocos E Nuvens - Clouds On The Road (2012) [FLAC] {RSLN099}\11 - Todas As Estacoes.wav
     Peak level 97.2 %
     Extraction speed 7.3 X
     Track quality 99.9 %
     Test CRC 806F0335
     Copy CRC 806F0335
     Accurately ripped (confidence 1)  [0B1EFA13]  (AR v1)
     Copy OK
Track 12
     Filename E:\bzp01\Pocos E Nuvens - Clouds On The Road (2012) [FLAC] {RSLN099}\12 - Geracao Perdida.wav
     Peak level 98.1 %
     Extraction speed 8.4 X
     Track quality 100.0 %
     Test CRC 04DCC5A8
     Copy CRC 04DCC5A8
     Accurately ripped (confidence 1)  [2CB0F2F3]  (AR v1)
     Copy OK
Track 13
     Filename E:\bzp01\Pocos E Nuvens - Clouds On The Road (2012) [FLAC] {RSLN099}\13 - Pocos E Nuvens.wav
     Peak level 96.6 %
     Extraction speed 9.3 X
     Track quality 100.0 %
     Test CRC B8AEF56C
     Copy CRC B8AEF56C
     Accurately ripped (confidence 1)  [DCB37635]  (AR v1)
     Copy OK
All tracks accurately ripped
No errors occurred
End of status report
==== Log checksum EA1BDCE1D7F95D232AAC59CAE50B531C3D7EAA3D0218068199241C11EAE33A3D ====
Код: Выделить всё
REM GENRE "Progressive Rock"
REM DATE 2012
REM DISCID C511550D
REM COMMENT "ExactAudioCopy v1.0b3"
PERFORMER "Poços & Nuvens"
TITLE "Clouds On The Road"
FILE "01 - Vega.wav" WAVE
  TRACK 01 AUDIO
    TITLE "Vega"
    PERFORMER "Poços & Nuvens"
    INDEX 01 00:00:00
FILE "02 - Vindmina E Ventania.wav" WAVE
  TRACK 02 AUDIO
    TITLE "Vindmina E Ventania"
    PERFORMER "Poços & Nuvens"
    INDEX 01 00:00:00
FILE "03 - Copla.wav" WAVE
  TRACK 03 AUDIO
    TITLE "Copla"
    PERFORMER "Poços & Nuvens"
    INDEX 01 00:00:00
FILE "04 - Balada Outonal.wav" WAVE
  TRACK 04 AUDIO
    TITLE "Balada Outonal"
    PERFORMER "Poços & Nuvens"
    INDEX 01 00:00:00
FILE "05 - A Sagração Do Outono.wav" WAVE
  TRACK 05 AUDIO
    TITLE "A Sagração Do Outono"
    PERFORMER "Poços & Nuvens"
    INDEX 01 00:00:00
FILE "06 - Amanhecer.wav" WAVE
  TRACK 06 AUDIO
    TITLE "Amanhecer"
    PERFORMER "Poços & Nuvens"
    INDEX 01 00:00:00
FILE "07 - Dança Ao Crepúsculo.wav" WAVE
  TRACK 07 AUDIO
    TITLE "Danca Ao Crepúsculo"
    PERFORMER "Poços & Nuvens"
    INDEX 01 00:00:00
FILE "08 - Milonguita.wav" WAVE
  TRACK 08 AUDIO
    TITLE "Milonguita"
    PERFORMER "Poços & Nuvens"
    INDEX 01 00:00:00
FILE "09 - Incenso E Chuva.wav" WAVE
  TRACK 09 AUDIO
    TITLE "Incenso E Chuva"
    PERFORMER "Poços & Nuvens"
    INDEX 01 00:00:00
FILE "10 - No Inverno.wav" WAVE
  TRACK 10 AUDIO
    TITLE "No Inverno"
    PERFORMER "Poços & Nuvens"
    INDEX 01 00:00:00
FILE "11 - Todas As Estações.wav" WAVE
  TRACK 11 AUDIO
    TITLE "Todas As Estações"
    PERFORMER "Poços & Nuvens"
    INDEX 01 00:00:00
FILE "12 - Geração Perdida.wav" WAVE
  TRACK 12 AUDIO
    TITLE "Geração Perdida"
    PERFORMER "Poços & Nuvens"
    INDEX 01 00:00:00
FILE "13 - Poços E Nuvens.wav" WAVE
  TRACK 13 AUDIO
    TITLE "Poços E Nuvens"
    PERFORMER "Poços & Nuvens"
    INDEX 01 00:00:00
Код: Выделить всё
[CUETools log; Date: 08.03.2019 15:08:06; Version: 2.1.5]
[CTDB TOCID: LS0R42yUB879hvGO1g2tfMSMtD8-] found.
        [ CTDBID ] Status
        [8261723e] (2/2) Accurately ripped
Track | CTDB Status
  1   | (2/2) Accurately ripped
  2   | (2/2) Accurately ripped
  3   | (2/2) Accurately ripped
  4   | (2/2) Accurately ripped
  5   | (2/2) Accurately ripped
  6   | (2/2) Accurately ripped
  7   | (2/2) Accurately ripped
  8   | (2/2) Accurately ripped
  9   | (2/2) Accurately ripped
 10   | (2/2) Accurately ripped
 11   | (2/2) Accurately ripped
 12   | (2/2) Accurately ripped
 13   | (2/2) Accurately ripped
[AccurateRip ID: 0022eefe-015a2f34-c511550d] found.
Track   [  CRC   |   V2   ] Status
 01     [cadb6d0a|deec03ff] (1+1/2) Accurately ripped
 02     [1e2e0457|8161c084] (1+1/2) Accurately ripped
 03     [b05fcd70|f38da3ed] (1+1/2) Accurately ripped
 04     [369f04af|583850bb] (1+1/2) Accurately ripped
 05     [1ffcf5b9|35bd1176] (1+1/2) Accurately ripped
 06     [79e53a70|d49057b0] (1+1/2) Accurately ripped
 07     [0c156103|20701195] (1+1/2) Accurately ripped
 08     [a413f47a|15962098] (1+1/2) Accurately ripped
 09     [36e8829d|9cb6e0db] (1+1/2) Accurately ripped
 10     [1af60bbe|56ca7967] (1+1/2) Accurately ripped
 11     [0b1efa13|9b0ef62e] (1+1/2) Accurately ripped
 12     [2cb0f2f3|eecaecec] (1+1/2) Accurately ripped
 13     [dcb37635|a4409675] (1+1/2) Accurately ripped
Track Peak [ CRC32  ] [W/O NULL] [  LOG   ]
 --   98,1 [F2BBDFE8] [130461D7]
 01   96,6 [DF0DC0E6] [E6E85663]   CRC32
 02   98,1 [B3FE6544] [4B165059]   CRC32
 03   98,1 [BA4AC69D] [55C64881]   CRC32
 04   95,9 [F95036D2] [15B2E86E]   CRC32
 05   97,3 [53DB5E4D] [BCBAB646]   CRC32
 06   97,3 [1EC7EF0D] [6B9B5752]   CRC32
 07   97,5 [CCE53DC2] [AF57BDD2]   CRC32
 08   97,6 [5B0CAC89] [94DC39BE]   CRC32
 09   98,1 [34ADB5C1] [15E164D3]   CRC32
 10   97,2 [87B1AD63] [5AAC5520]   CRC32
 11   97,2 [806F0335] [77B6ACC3]   CRC32
 12   98,1 [04DCC5A8] [64B8A185]   CRC32
 13   96,6 [B8AEF56C] [C8A8FFD3]   CRC32
Код: Выделить всё
-----------------------
DON'T MODIFY THIS FILE
-----------------------
PERFORMER: auCDtect Task Manager, ver. 1.6.0 RC1 build 1.6.0.1
Copyright (c) 2008-2010 y-soft. All rights reserved
[url=http://y-soft.org]http://y-soft.org[/url]
ANALYZER: auCDtect: CD records authenticity detector, version 0.8.2
Copyright (c) 2004 Oleg Berngardt. All rights reserved.
Copyright (c) 2004 Alexander Djourik. All rights reserved.
FILE: 13 - Poços E Nuvens.flac
  Size: 59542852 Hash: C92594FE32A1394EACCC00BF4F14436A Accuracy: -m0
  Conclusion: CDDA 100%
  Signature: 0283840708DF7681D910E6C82B8992DCE6E86AA7
FILE: 12 - Geração Perdida.flac
  Size: 36860967 Hash: A516EA23D6C08A593DD783CE1D9ECE1F Accuracy: -m0
  Conclusion: CDDA 100%
  Signature: E121A1470EC2720193E7A1A53AF0E0186A1A0A85
FILE: 11 - Todas As Estações.flac
  Size: 32999952 Hash: B8A2B68E31FA0E01EAA1C0C390EBB287 Accuracy: -m0
  Conclusion: CDDA 100%
  Signature: B5F4760D2AE05978CD5FA91607E040AC34404562
FILE: 10 - No Inverno.flac
  Size: 24140047 Hash: DC526D461214597874EAB17CD1C4BE62 Accuracy: -m0
  Conclusion: CDDA 99%
  Signature: 0A21CEC40C37BEC3BD645F4EB0AD51869833AB1A
FILE: 09 - Incenso E Chuva.flac
  Size: 81007961 Hash: A2AB7C45D3E05112074BBB4B3E0C1EF4 Accuracy: -m0
  Conclusion: CDDA 100%
  Signature: 2B111284558D46FACC3AF943F75BB9E4BF81C7BA
FILE: 08 - Milonguita.flac
  Size: 24102489 Hash: BCF105C5A21956D030BBE07A8E5BF5B5 Accuracy: -m0
  Conclusion: CDDA 100%
  Signature: FCD15024EE09C2357EA504B4C335935CCF1CE3D7
FILE: 07 - Dança Ao Crepúsculo.flac
  Size: 19221387 Hash: 820CD09DD31C5568D817FEF983E2CD15 Accuracy: -m0
  Conclusion: CDDA 99%
  Signature: BEDE5B2E2837897E5E6EB4E61ACAE6B8BD3ECF7F
FILE: 06 - Amanhecer.flac
  Size: 33072406 Hash: 8D471B87D22F427BD4C296F689C12530 Accuracy: -m0
  Conclusion: CDDA 99%
  Signature: E6A5DBDDAB19AF4D652920C2BCEDBECB030BC903
FILE: 05 - A Sagração Do Outono.flac
  Size: 32585287 Hash: C880215E0C4C0D1D534F4F2A1074742E Accuracy: -m0
  Conclusion: CDDA 100%
  Signature: 07DD197C673B36D669968FA05E52ECD47FD9D913
FILE: 04 - Balada Outonal.flac
  Size: 34700256 Hash: A1FB172376FEDDE235FB993F54C77584 Accuracy: -m0
  Conclusion: CDDA 99%
  Signature: EBFDB3B0B5771E9E6352850407912DE98D299D43
FILE: 03 - Copla.flac
  Size: 34263619 Hash: 0B54B528D34545CB98E058436F6F3B61 Accuracy: -m0
  Conclusion: CDDA 100%
  Signature: AD61BB2C488A1DBA05EDFAF2EC3A16DF094D14DF
FILE: 02 - Vindmina E Ventania.flac
  Size: 32599547 Hash: EE188B4AA885EB59CF3BA5647286559E Accuracy: -m0
  Conclusion: CDDA 100%
  Signature: CECEC6E2545B66D96B5735CDAE381B78A39EDB5D
FILE: 01 - Vega.flac
  Size: 67668426 Hash: B710470C8B87A6CDC663D44A539CBEBD Accuracy: -m0
  Conclusion: CDDA 99%
  Signature: 484BFC254B165DCEAD2309A99B4F697456D0F70E
Poços & Nuvens biography
Featuring on the current Brazilian scene, POÇOS & NUVENS is a band that is conquering more and more popularity among the prog scene world-wide. With great musicianship, the band uses a wide range of instruments, where violins and flutes compete for attention with great keyboards textures and extraordinary guitar arrangements. Many influences are present on their music, but it's obvious that JETHRO TULL and YES stand out here, as well as some Italian classics.
A blending of all those influences results on the finest symphonic music, having all the necessary ingredients in place to please every prog style's fans. Vocals are in Portuguese, bringing themes from southern brazil on the lyrics at many times. There are significant changes from song to song, keeping a fresh feel along the albums. The band showed great musicianship already at their debut album "Ano Veloz Outono Dentro" but the second release "Provincia Universo" features among the 10 top albums of 2001.
Highly recommended!
http://www.progarchives.com/artist.asp?id=413
Pocos & Nuvens - Clouds On The Road
POCOS E NUVENS is a Brazilian current band. An ambitious concept-album, recorded in 1998 and using a varied range of sounds (Brass, chords...), "AnoVELOZOutono Adentro" goes from neo Progressive music to the most complex symphonic one (!)... Issued three years later, "Provincia - Universo" follows successfully in a formula that should please most people. Some parts worth of YES follow some sequences that could remind of DJAM KARET. "Clouds On The Road" is the testimony of a performance given by POCOS E NUVENS September 10th 2005 in Niteroi, in the Rio De Janeiro area, during a festival held by the Rock Symphony label. Here's the oppirtunity to listen to the best titles of Gerson WERLANG and his crew of five, played with the energy and the heat of the moment. Not to be missed!
http://www.musearecords.com/boutique/anglais/index.php?ficheprod=1&artiste=PO...S&refp=38219
"Clouds On The Road" концертная запись выступления Pocos & Nuvens 10 сентября 2005 года в г. Нитерой (штат Рио-де-Жанейро, Бразилия), во время фестиваля, который проводился под эгидой бразильского лейбла Rock Symphony.
- Edgar Sleifer / electric guitars, flute and voice
- Gerson Werlang / electric nd acoustic guitars, voice and effects
- Savio Werlang / keyboards, accordion and voice
- Iva Giracca / violin and voice
- Chico Goncalves / electric bass and voice
- Rodrigo Bernardon / drums and percussion
Правила, инструкции, FAQ!!!
Торрент  Добавлен [09 мар 2019, 11:26] Скачать торрент Магнет ссылка
Скачать торрент
13.11 КБ

Статус
Проверен 
 
Размер  572.63 МБ
Приватный: Нет (DHT включён)
.torrent скачан  0
Как залить торрент? | Как скачать Torrent? | Как смотреть и слушать онлайн?  
Гость
 



Вернуться в Progressive & Art-Rock

Кто сейчас на конференции

Сейчас этот форум просматривают: нет зарегистрированных пользователей и гости: 2