(Sympho Heavy Metal) [CD] Чёрная метка - Ступивший за грань (2005) - 2005, FLAC (image+.cue), lossless


Статистика раздачи
Размер: 328.15 МБ | Добавлен: 27 янв 2019, 12:23 | Скачали: 0
Сидеров: 3  [0 байт/сек]    Личеров: 1  [0 байт/сек]

Сообщение Гость » 27 янв 2019, 12:23

Чёрная метка / Ступивший за грань (2005)
Жанр: Sympho Heavy Metal
Носитель: CD
Страна-производитель диска (релиза): Россия
Год издания: 2005
Издатель (лейбл): Санкт-Петербург- студия * Нева *
Номер по каталогу: No
Страна исполнителя (группы): Россия
Аудиокодек: FLAC (*.flac)
Тип рипа: image+.cue
Битрейт аудио: lossless
Продолжительность: 00:44:15
Источник: собственный рип
Наличие сканов в содержимом раздачи: да
Треклист:
01 - Ночь
02 - Чёрная Метка
03 - Смерть
04 - Тени
05 - Зельда
06 - Месть
07 - Очарован
08 - Ветер
09 - Триединый Сон
10 - Эпилог
11 - Разбить Мир
Код: Выделить всё
Exact Audio Copy V1.1 from 23. June 2015
EAC extraction logfile from 26. January 2019, 4:19
Чёрная Метка  / Ступивший За Грань
Used drive  : MATSHITADVD-RAM UJ8DB   Adapter: 1  ID: 0
Read mode               : Secure
Utilize accurate stream : Yes
Defeat audio cache      : Yes
Make use of C2 pointers : No
Read offset correction                      : 6
Overread into Lead-In and Lead-Out          : No
Fill up missing offset samples with silence : Yes
Delete leading and trailing silent blocks   : No
Null samples used in CRC calculations       : Yes
Used interface                              : Native Win32 interface for Win NT & 2000
Used output format              : User Defined Encoder
Selected bitrate                : 1024 kBit/s
Quality                         : High
Add ID3 tag                     : No
Command line compressor         : C:\Program Files (x86)\Exact Audio Copy\Flac\flac.exe
Additional command line options :  -V -8 -T "Date=%year%" -T "Genre=%genre%" %source%
TOC of the extracted CD
     Track |   Start  |  Length  | Start sector | End sector
    ---------------------------------------------------------
        1  |  0:00.00 |  1:44.23 |         0    |     7822
        2  |  1:44.23 |  5:22.37 |      7823    |    32009
        3  |  7:06.60 |  4:17.41 |     32010    |    51325
        4  | 11:24.26 |  6:19.14 |     51326    |    79764
        5  | 17:43.40 |  1:19.38 |     79765    |    85727
        6  | 19:03.03 |  4:36.04 |     85728    |   106431
        7  | 23:39.07 |  4:32.65 |    106432    |   126896
        8  | 28:11.72 |  3:57.08 |    126897    |   144679
        9  | 32:09.05 |  5:09.35 |    144680    |   167889
       10  | 37:18.40 |  1:19.67 |    167890    |   173881
       11  | 38:38.32 |  5:36.62 |    173882    |   199143
Range status and errors
Selected range
     Filename D:\My RiP\Чёрная Метка  - Ступивший За Грань.wav
     Peak level 100.0 %
     Extraction speed 4.1 X
     Range quality 100.0 %
     Test CRC 950E9C08
     Copy CRC 950E9C08
     Copy OK
No errors occurred
End of status report
---- CUETools DB Plugin V2.1.6
[CTDB TOCID: IJPkbHzwuHGS39RojN4kOmO.FTk-] disk not present in database
Submit result: IJPkbHzwuHGS39RojN4kOmO.FTk- has been uploaded
==== Log checksum 3F25FB960BD1AC79DCB5512E91B0DF14F5189EA73274D32993E2CB6FA0D91867 ====
------------------------------------------------------------
Группа ЧЕРНАЯ МЕТКА (изначально называвшаяся BLACK LABEL) как музыкальный проект образовалась весной 2001 года, когда её основатель, известный в музыкальных кругах Санкт-Петербурга как Зак, записал демо-версию композиции "Black Label" ("Чёрная Метка") и "Triangular Dream" ("Триединый Сон"), и как группа - чуть позже, когда познакомился с соло-гитаристом Александром. Проработав первую вещь, и сыгравшись немного, группа ищет остальных музыкантов, но пол года эти поиски длятся безрезультатно. Однако, в начале осени этого же года к ним присоединяется бас-гитарист Воронин Павел и барабанщик Дмитриев Кирилл, чуть погодя, 8 октября 2001, комплектацию состава завершает вокалист Владимир Ветюков. Этой датой было решено считать рождение группы...
В начале Января 2005 группа завершает сведение и мастеринг первого альбома под названием "Ступивший за Грань".
В конце января в группу приходит новый барабанщик Сергей Бушкевич и ЧЕРНАЯ МЕТКА приступает к плотным репетициям и подготовке к концертной деятельности, результатом чего стала череда концертов "весеннего сезона" в питерских клубах.
Из-за проблем с оформлением дебютного диска релиз состоялся только в июне. Альбом выпущен и расспространялся собственными силами музыкантов
Tau Analyzer определил треки № 7,9 и 10 как mpeg - см. отчёт TAU
Зак Эсви - гитара
Джо Эсви - клавишные
Владимир Ветюков - вокал
Сергей Цхэ - гитара
Павел Воронин - бас
Кирилл Дмитриев - ударные
Правила, инструкции, FAQ!!!
Торрент  Добавлен [27 янв 2019, 12:23] Скачать торрент Магнет ссылка
Скачать торрент
27.04 КБ

Статус
Проверен 
 
Размер  328.15 МБ
Приватный: Нет (DHT включён)
.torrent скачан  0
Как залить торрент? | Как скачать Torrent? | Как смотреть и слушать онлайн?  
Гость
 



Вернуться в Русский рок

Кто сейчас на конференции

Сейчас этот форум просматривают: нет зарегистрированных пользователей и гости: 0