Steve Hackett - Дискография (студийные альбомы) 22 CD (1975 - 2011), FLAC (image+.cue), lossless


Статистика раздачи
Размер: 8.47 ГБ | Добавлен: 18 янв 2013, 20:39 | Скачали: 0
Сидеров: 5  [0 байт/сек]    Личеров: 73  [0 байт/сек]

Сообщение Гость » 18 янв 2013, 20:39

Steve Hackett - Дискография (студийные альбомы) 22 CD (1975 - 2011)







Жанр: progressive rock, art rock, Genesis-Family
Страна: UK
Аудио кодек: FLAC (*.flac)
Тип рипа: image+.cue
Битрейт аудио: lossless
Наличие сканов в содержимом раздачи: 300dpi, Tiff, Png




Все рипы выполнены с фирменных дисков из личной коллекции, Secure mode, Accurate stream, Test & Copy





[font="Georgia"]Год выпуска диска[/font]: 2005
[font="Georgia"]Производитель диска[/font]: EU
[font="Georgia"]Лейбл[/font]: EMI/Virgin Records
[font="Georgia"]Номер по каталогу[/font]: 00946 337242 2 8
[font="Georgia"]Продолжительность[/font]: 64min










01. Steve Hackett - Ace Of Wands
02. Steve Hackett - Hands Of The Priestess, Pt. 1
03. Steve Hackett - A Tower Struck Down
04. Steve Hackett - Hands Of The Priestess, Pt. 2
05. Steve Hackett - The Hermit
06. Steve Hackett - Star Of Sirius
07. Steve Hackett - The Lovers
08. Steve Hackett - Shadow Of The Hierophant
Bonus Tracks:
09. Steve Hackett - Ace Of Wands [Live]
10. Steve Hackett - Shadow Of The Hierophant [Extended Playout Version]




X Lossless Decoder version 20091129 (114.3)

XLD extraction logfile from 2010-12-28 18:33:47 +0000

Steve Hackett / Voyage Of the Acolyte [Bonus Tracks]

Used drive : PIONEER DVD-RW DVR-218L (revision 1.02)

Use cdparanoia mode : YES (CDParanoia III 10.2 engine)
Disable audio cache : OK for the drive with cache less than 2750KB
Make use of C2 pointers : NO
Read offset correction : 6
Max retry count : 100

TOC of the extracted CD
Track | Start | Length | Start sector | End sector
---------------------------------------------------------
1 | 00:00:00 | 05:23:03 | 0 | 24227
2 | 05:23:03 | 03:28:14 | 24228 | 39841
3 | 08:51:17 | 04:50:20 | 39842 | 61611
4 | 13:41:37 | 01:33:48 | 61612 | 68634
5 | 15:15:10 | 04:53:46 | 68635 | 90655
6 | 20:08:56 | 07:07:45 | 90656 | 122725
7 | 27:16:26 | 01:50:07 | 122726 | 130982
8 | 29:06:33 | 11:43:35 | 130983 | 183742
9 | 40:49:68 | 06:31:69 | 183743 | 213136
10 | 47:21:62 | 17:01:11 | 213137 | 289722

All Tracks
Filename : /Volumes/MacOSX/Music/AUDIO/Art Rock/Steve Hackett/Steve Hackett - Voyage Of The Acolyte - 1975 (EMI 2005, Digital Remastered + Bonus Tracks )/Voyage Of the Acolyte [Bonus Tracks].aiff
CRC32 hash (test run) : 6B5098F4
CRC32 hash : 6B5098F4
CRC32 hash (skip zero) : 3E4303B1
Statistics
Read error : 0
Skipped (treated as error) : 0
Edge jitter error (maybe fixed) : 0
Atom jitter error (maybe fixed) : 0
Drift error (maybe fixed) : 0
Dropped bytes error (maybe fixed) : 0
Duplicated bytes error (maybe fixed) : 0
Inconsistency in error sectors : 0

Track 01
CRC32 hash (test run) : 62494B67
CRC32 hash : 62494B67
CRC32 hash (skip zero) : 077F859B
Statistics
Read error : 0
Skipped (treated as error) : 0
Edge jitter error (maybe fixed) : 0
Atom jitter error (maybe fixed) : 0
Drift error (maybe fixed) : 0
Dropped bytes error (maybe fixed) : 0
Duplicated bytes error (maybe fixed) : 0
Inconsistency in error sectors : 0

Track 02
CRC32 hash (test run) : 9E51DA23
CRC32 hash : 9E51DA23
CRC32 hash (skip zero) : FC73D788
Statistics
Read error : 0
Skipped (treated as error) : 0
Edge jitter error (maybe fixed) : 0
Atom jitter error (maybe fixed) : 0
Drift error (maybe fixed) : 0
Dropped bytes error (maybe fixed) : 0
Duplicated bytes error (maybe fixed) : 0
Inconsistency in error sectors : 0

Track 03
CRC32 hash (test run) : 18834B3C
CRC32 hash : 18834B3C
CRC32 hash (skip zero) : A8D298CD
Statistics
Read error : 0
Skipped (treated as error) : 0
Edge jitter error (maybe fixed) : 0
Atom jitter error (maybe fixed) : 0
Drift error (maybe fixed) : 0
Dropped bytes error (maybe fixed) : 0
Duplicated bytes error (maybe fixed) : 0
Inconsistency in error sectors : 0

Track 04
CRC32 hash (test run) : A78DD5A9
CRC32 hash : A78DD5A9
CRC32 hash (skip zero) : 0D795BCD
Statistics
Read error : 0
Skipped (treated as error) : 0
Edge jitter error (maybe fixed) : 0
Atom jitter error (maybe fixed) : 0
Drift error (maybe fixed) : 0
Dropped bytes error (maybe fixed) : 0
Duplicated bytes error (maybe fixed) : 0
Inconsistency in error sectors : 0

Track 05
CRC32 hash (test run) : CD5630E0
CRC32 hash : CD5630E0
CRC32 hash (skip zero) : CBF343C0
Statistics
Read error : 0
Skipped (treated as error) : 0
Edge jitter error (maybe fixed) : 0
Atom jitter error (maybe fixed) : 0
Drift error (maybe fixed) : 0
Dropped bytes error (maybe fixed) : 0
Duplicated bytes error (maybe fixed) : 0
Inconsistency in error sectors : 0

Track 06
CRC32 hash (test run) : 618FA7B7
CRC32 hash : 618FA7B7
CRC32 hash (skip zero) : 72638176
Statistics
Read error : 0
Skipped (treated as error) : 0
Edge jitter error (maybe fixed) : 0
Atom jitter error (maybe fixed) : 0
Drift error (maybe fixed) : 0
Dropped bytes error (maybe fixed) : 0
Duplicated bytes error (maybe fixed) : 0
Inconsistency in error sectors : 0

Track 07
CRC32 hash (test run) : 1C1DF83B
CRC32 hash : 1C1DF83B
CRC32 hash (skip zero) : D2D37EE4
Statistics
Read error : 0
Skipped (treated as error) : 0
Edge jitter error (maybe fixed) : 0
Atom jitter error (maybe fixed) : 0
Drift error (maybe fixed) : 0
Dropped bytes error (maybe fixed) : 0
Duplicated bytes error (maybe fixed) : 0
Inconsistency in error sectors : 0

Track 08
CRC32 hash (test run) : A1309B59
CRC32 hash : A1309B59
CRC32 hash (skip zero) : F0F538E5
Statistics
Read error : 0
Skipped (treated as error) : 0
Edge jitter error (maybe fixed) : 0
Atom jitter error (maybe fixed) : 0
Drift error (maybe fixed) : 0
Dropped bytes error (maybe fixed) : 0
Duplicated bytes error (maybe fixed) : 0
Inconsistency in error sectors : 0

Track 09
CRC32 hash (test run) : B7A56BD9
CRC32 hash : B7A56BD9
CRC32 hash (skip zero) : 6B95ED01
Statistics
Read error : 0
Skipped (treated as error) : 0
Edge jitter error (maybe fixed) : 0
Atom jitter error (maybe fixed) : 0
Drift error (maybe fixed) : 0
Dropped bytes error (maybe fixed) : 0
Duplicated bytes error (maybe fixed) : 0
Inconsistency in error sectors : 0

Track 10
CRC32 hash (test run) : E627CE36
CRC32 hash : E627CE36
CRC32 hash (skip zero) : 86C0C6DF
Statistics
Read error : 0
Skipped (treated as error) : 0
Edge jitter error (maybe fixed) : 0
Atom jitter error (maybe fixed) : 0
Drift error (maybe fixed) : 0
Dropped bytes error (maybe fixed) : 0
Duplicated bytes error (maybe fixed) : 0
Inconsistency in error sectors : 0

No errors occurred

End of status report









[font="Georgia"]Год выпуска диска[/font]: 2005
[font="Georgia"]Производитель диска[/font]: EU
[font="Georgia"]Лейбл[/font]: EMI/Virgin Records
[font="Georgia"]Номер по каталогу[/font]: 00946 337222 2 4
[font="Georgia"]Продолжительность[/font]: 54 min










01. Steve Hackett - Narnia
02. Steve Hackett - Carry On Up The Vicarage
03. Steve Hackett - Racing In A
04. Steve Hackett - Kim
05. Steve Hackett - How Can I?
06. Steve Hackett - Hoping Love Will Last
07. Steve Hackett - Land Of A Thousand Autumns
08. Steve Hackett - Please Don't Touch
09. Steve Hackett - The Voice Of Necam
10. Steve Hackett - Icarus Ascending
Bonus Tracks:
11. Steve Hackett - Narnia (John Perry Vocal Version) (2005 Digital Remaster)
12. Steve Hackett - Land Of A Thousand Autumns / Please Don't Touch [Live]
13. Steve Hackett - Narnia (Alternate version)




X Lossless Decoder version 20091129 (114.3)

XLD extraction logfile from 2010-12-28 18:54:44 +0000

Steve Hackett / Please Don't Touch (Remastered)

Used drive : PIONEER DVD-RW DVR-218L (revision 1.02)

Use cdparanoia mode : YES (CDParanoia III 10.2 engine)
Disable audio cache : OK for the drive with cache less than 2750KB
Make use of C2 pointers : NO
Read offset correction : 6
Max retry count : 100

TOC of the extracted CD
Track | Start | Length | Start sector | End sector
---------------------------------------------------------
1 | 00:00:00 | 04:05:17 | 0 | 18391
2 | 04:05:17 | 03:10:50 | 18392 | 32691
3 | 07:15:67 | 05:06:36 | 32692 | 55677
4 | 12:22:28 | 02:12:68 | 55678 | 65645
5 | 14:35:21 | 04:38:06 | 65646 | 86501
6 | 19:13:27 | 04:22:52 | 86502 | 106203
7 | 23:36:04 | 01:37:38 | 106204 | 113516
8 | 25:13:42 | 03:38:47 | 113517 | 129913
9 | 28:52:14 | 03:10:39 | 129914 | 144202
10 | 32:02:53 | 06:26:68 | 144203 | 173220
11 | 38:29:46 | 03:36:07 | 173221 | 189427
12 | 42:05:53 | 07:52:54 | 189428 | 224881
13 | 49:58:32 | 04:30:27 | 224882 | 245158

All Tracks
Filename : /Volumes/MacOSX/Music/AUDIO/Art Rock/Steve Hackett/Steve Hackett - Please Don't Touch - 1978 (EMI 2005, Digital Remastered + Bonus Tracks)/Please Don't Touch (Remastered).aiff
CRC32 hash (test run) : CBBBE0D2
CRC32 hash : CBBBE0D2
CRC32 hash (skip zero) : A8E8B0D6
Statistics
Read error : 0
Skipped (treated as error) : 0
Edge jitter error (maybe fixed) : 0
Atom jitter error (maybe fixed) : 0
Drift error (maybe fixed) : 0
Dropped bytes error (maybe fixed) : 0
Duplicated bytes error (maybe fixed) : 0
Inconsistency in error sectors : 0

Track 01
CRC32 hash (test run) : D96852FD
CRC32 hash : D96852FD
CRC32 hash (skip zero) : 7A74E007
Statistics
Read error : 0
Skipped (treated as error) : 0
Edge jitter error (maybe fixed) : 0
Atom jitter error (maybe fixed) : 0
Drift error (maybe fixed) : 0
Dropped bytes error (maybe fixed) : 0
Duplicated bytes error (maybe fixed) : 0
Inconsistency in error sectors : 0

Track 02
CRC32 hash (test run) : 070BE983
CRC32 hash : 070BE983
CRC32 hash (skip zero) : 63220543
Statistics
Read error : 0
Skipped (treated as error) : 0
Edge jitter error (maybe fixed) : 0
Atom jitter error (maybe fixed) : 0
Drift error (maybe fixed) : 0
Dropped bytes error (maybe fixed) : 0
Duplicated bytes error (maybe fixed) : 0
Inconsistency in error sectors : 0

Track 03
CRC32 hash (test run) : 6DA542DF
CRC32 hash : 6DA542DF
CRC32 hash (skip zero) : 8B777A53
Statistics
Read error : 0
Skipped (treated as error) : 0
Edge jitter error (maybe fixed) : 0
Atom jitter error (maybe fixed) : 0
Drift error (maybe fixed) : 0
Dropped bytes error (maybe fixed) : 0
Duplicated bytes error (maybe fixed) : 0
Inconsistency in error sectors : 0

Track 04
CRC32 hash (test run) : 10302714
CRC32 hash : 10302714
CRC32 hash (skip zero) : C692FCDE
Statistics
Read error : 0
Skipped (treated as error) : 0
Edge jitter error (maybe fixed) : 0
Atom jitter error (maybe fixed) : 0
Drift error (maybe fixed) : 0
Dropped bytes error (maybe fixed) : 0
Duplicated bytes error (maybe fixed) : 0
Inconsistency in error sectors : 0

Track 05
CRC32 hash (test run) : 9505BF58
CRC32 hash : 9505BF58
CRC32 hash (skip zero) : D28EC369
Statistics
Read error : 0
Skipped (treated as error) : 0
Edge jitter error (maybe fixed) : 0
Atom jitter error (maybe fixed) : 0
Drift error (maybe fixed) : 0
Dropped bytes error (maybe fixed) : 0
Duplicated bytes error (maybe fixed) : 0
Inconsistency in error sectors : 0

Track 06
CRC32 hash (test run) : 7A029057
CRC32 hash : 7A029057
CRC32 hash (skip zero) : 72A35011
Statistics
Read error : 0
Skipped (treated as error) : 0
Edge jitter error (maybe fixed) : 0
Atom jitter error (maybe fixed) : 0
Drift error (maybe fixed) : 0
Dropped bytes error (maybe fixed) : 0
Duplicated bytes error (maybe fixed) : 0
Inconsistency in error sectors : 0

Track 07
CRC32 hash (test run) : 0F7C7B1C
CRC32 hash : 0F7C7B1C
CRC32 hash (skip zero) : 47819003
Statistics
Read error : 0
Skipped (treated as error) : 0
Edge jitter error (maybe fixed) : 0
Atom jitter error (maybe fixed) : 0
Drift error (maybe fixed) : 0
Dropped bytes error (maybe fixed) : 0
Duplicated bytes error (maybe fixed) : 0
Inconsistency in error sectors : 0

Track 08
CRC32 hash (test run) : FF60D4E4
CRC32 hash : FF60D4E4
CRC32 hash (skip zero) : 91163116
Statistics
Read error : 0
Skipped (treated as error) : 0
Edge jitter error (maybe fixed) : 0
Atom jitter error (maybe fixed) : 0
Drift error (maybe fixed) : 0
Dropped bytes error (maybe fixed) : 0
Duplicated bytes error (maybe fixed) : 0
Inconsistency in error sectors : 0

Track 09
CRC32 hash (test run) : 7B0F3477
CRC32 hash : 7B0F3477
CRC32 hash (skip zero) : F64180CE
Statistics
Read error : 0
Skipped (treated as error) : 0
Edge jitter error (maybe fixed) : 0
Atom jitter error (maybe fixed) : 0
Drift error (maybe fixed) : 0
Dropped bytes error (maybe fixed) : 0
Duplicated bytes error (maybe fixed) : 0
Inconsistency in error sectors : 0

Track 10
CRC32 hash (test run) : 65ECFEB0
CRC32 hash : 65ECFEB0
CRC32 hash (skip zero) : 0909E033
Statistics
Read error : 0
Skipped (treated as error) : 0
Edge jitter error (maybe fixed) : 0
Atom jitter error (maybe fixed) : 0
Drift error (maybe fixed) : 0
Dropped bytes error (maybe fixed) : 0
Duplicated bytes error (maybe fixed) : 0
Inconsistency in error sectors : 0

Track 11
CRC32 hash (test run) : 632F3E70
CRC32 hash : 632F3E70
CRC32 hash (skip zero) : A6FADF6E
Statistics
Read error : 0
Skipped (treated as error) : 0
Edge jitter error (maybe fixed) : 0
Atom jitter error (maybe fixed) : 0
Drift error (maybe fixed) : 0
Dropped bytes error (maybe fixed) : 0
Duplicated bytes error (maybe fixed) : 0
Inconsistency in error sectors : 0

Track 12
CRC32 hash (test run) : 03881B85
CRC32 hash : 03881B85
CRC32 hash (skip zero) : E106D1A8
Statistics
Read error : 0
Skipped (treated as error) : 0
Edge jitter error (maybe fixed) : 0
Atom jitter error (maybe fixed) : 0
Drift error (maybe fixed) : 0
Dropped bytes error (maybe fixed) : 0
Duplicated bytes error (maybe fixed) : 0
Inconsistency in error sectors : 0

Track 13
CRC32 hash (test run) : 15406208
CRC32 hash : 15406208
CRC32 hash (skip zero) : B53BA69E
Statistics
Read error : 0
Skipped (treated as error) : 0
Edge jitter error (maybe fixed) : 0
Atom jitter error (maybe fixed) : 0
Drift error (maybe fixed) : 0
Dropped bytes error (maybe fixed) : 0
Duplicated bytes error (maybe fixed) : 0
Inconsistency in error sectors : 0

No errors occurred

End of status report









[font="Georgia"]Год выпуска диска[/font]: 2005
[font="Georgia"]Производитель диска[/font]: EU
[font="Georgia"]Лейбл[/font]: EMI/Virgin Records
[font="Georgia"]Номер по каталогу[/font]: 00946 352313 2 8
[font="Georgia"]Продолжительность[/font]: 73min










01. Steve Hackett - Every Day
02. Steve Hackett - The Virgin And The Gypsy
03. Steve Hackett - The Red Flower Of Tachai Blooms Everywhere
04. Steve Hackett - Clocks - The Angel Of Mons
05. Steve Hackett - The Ballad Of The Decomposing Man
06. Steve Hackett - Lost Time In Cordoba
07. Steve Hackett - Tigermoth
08. Steve Hackett - Spectral Mornings
Bonus Tracks:
09. Steve Hackett - Every Day (Alternate Mix)
10. Steve Hackett - The Virgin And The Gypsy (Alternate Mix)
11. Steve Hackett - Tigermoth (Alternate Mix)
12. Steve Hackett - The Ballad Of The Decomposing Man (Alternate Mix)
13. Steve Hackett - Clocks - The Angel Of Mons (Single Version)
14. Steve Hackett - Medley -- Etude In A Minor-Blood On The rooftops-Horizons-Kim (Live Acoustic Set)
15. Steve Hackett - Tigermoth (Live)
16. Steve Hackett - Extra track (No Music)




X Lossless Decoder version 20091129 (114.3)

XLD extraction logfile from 2011-01-11 23:37:15 +0000

Steve Hackett / Spectral Mornings (2005 Remaster)

Used drive : PIONEER DVD-RW DVR-218L (revision 1.02)

Use cdparanoia mode : YES (CDParanoia III 10.2 engine)
Disable audio cache : OK for the drive with cache less than 2750KB
Make use of C2 pointers : NO
Read offset correction : 6
Max retry count : 100

TOC of the extracted CD
Track | Start | Length | Start sector | End sector
---------------------------------------------------------
1 | 00:00:00 | 06:14:17 | 0 | 28066
2 | 06:14:17 | 04:28:54 | 28067 | 48220
3 | 10:42:71 | 02:06:66 | 48221 | 57736
4 | 12:49:62 | 04:15:17 | 57737 | 76878
5 | 17:05:04 | 03:49:56 | 76879 | 94109
6 | 20:54:60 | 04:05:74 | 94110 | 112558
7 | 25:00:59 | 07:34:58 | 112559 | 146666
8 | 32:35:42 | 06:37:09 | 146667 | 176450
9 | 39:12:51 | 07:08:74 | 176451 | 208624
10 | 46:21:50 | 04:26:41 | 208625 | 228615
11 | 50:48:16 | 03:19:56 | 228616 | 243596
12 | 54:07:72 | 04:23:45 | 243597 | 263366
13 | 58:31:42 | 03:37:67 | 263367 | 279708
14 | 62:09:34 | 05:39:69 | 279709 | 305202
15 | 67:49:28 | 03:58:46 | 305203 | 323098
16 | 71:47:74 | 01:41:01 | 323099 | 330674

All Tracks
Filename : /Volumes/DISC2/Lossless/Art Rock/Steve Hackett/Steve Hackett - Spectral Mornings - 1979 (EMI 2005, Digital Remastered + Bonus Tracks)/Spectral Mornings (2005 Remaster).aiff
CRC32 hash (test run) : FF75CB0F
CRC32 hash : FF75CB0F
CRC32 hash (skip zero) : 49D75FDC
Statistics
Read error : 0
Skipped (treated as error) : 0
Edge jitter error (maybe fixed) : 0
Atom jitter error (maybe fixed) : 0
Drift error (maybe fixed) : 0
Dropped bytes error (maybe fixed) : 0
Duplicated bytes error (maybe fixed) : 0
Inconsistency in error sectors : 0

Track 01
CRC32 hash (test run) : 9584AA42
CRC32 hash : 9584AA42
CRC32 hash (skip zero) : 87A1C02C
Statistics
Read error : 0
Skipped (treated as error) : 0
Edge jitter error (maybe fixed) : 0
Atom jitter error (maybe fixed) : 0
Drift error (maybe fixed) : 0
Dropped bytes error (maybe fixed) : 0
Duplicated bytes error (maybe fixed) : 0
Inconsistency in error sectors : 0

Track 02
CRC32 hash (test run) : BCE08B13
CRC32 hash : BCE08B13
CRC32 hash (skip zero) : F80F4569
Statistics
Read error : 0
Skipped (treated as error) : 0
Edge jitter error (maybe fixed) : 0
Atom jitter error (maybe fixed) : 0
Drift error (maybe fixed) : 0
Dropped bytes error (maybe fixed) : 0
Duplicated bytes error (maybe fixed) : 0
Inconsistency in error sectors : 0

Track 03
CRC32 hash (test run) : C04DE3DF
CRC32 hash : C04DE3DF
CRC32 hash (skip zero) : A8DD1881
Statistics
Read error : 0
Skipped (treated as error) : 0
Edge jitter error (maybe fixed) : 0
Atom jitter error (maybe fixed) : 0
Drift error (maybe fixed) : 0
Dropped bytes error (maybe fixed) : 0
Duplicated bytes error (maybe fixed) : 0
Inconsistency in error sectors : 0

Track 04
CRC32 hash (test run) : 05B96CF3
CRC32 hash : 05B96CF3
CRC32 hash (skip zero) : F9F792A9
Statistics
Read error : 0
Skipped (treated as error) : 0
Edge jitter error (maybe fixed) : 0
Atom jitter error (maybe fixed) : 0
Drift error (maybe fixed) : 0
Dropped bytes error (maybe fixed) : 0
Duplicated bytes error (maybe fixed) : 0
Inconsistency in error sectors : 0

Track 05
CRC32 hash (test run) : A5AFE9A8
CRC32 hash : A5AFE9A8
CRC32 hash (skip zero) : F0E1A5DF
Statistics
Read error : 0
Skipped (treated as error) : 0
Edge jitter error (maybe fixed) : 0
Atom jitter error (maybe fixed) : 0
Drift error (maybe fixed) : 0
Dropped bytes error (maybe fixed) : 0
Duplicated bytes error (maybe fixed) : 0
Inconsistency in error sectors : 0

Track 06
CRC32 hash (test run) : 786515A2
CRC32 hash : 786515A2
CRC32 hash (skip zero) : FF2A45E0
Statistics
Read error : 0
Skipped (treated as error) : 0
Edge jitter error (maybe fixed) : 0
Atom jitter error (maybe fixed) : 0
Drift error (maybe fixed) : 0
Dropped bytes error (maybe fixed) : 0
Duplicated bytes error (maybe fixed) : 0
Inconsistency in error sectors : 0

Track 07
CRC32 hash (test run) : E9B3F938
CRC32 hash : E9B3F938
CRC32 hash (skip zero) : ABEF4D6C
Statistics
Read error : 0
Skipped (treated as error) : 0
Edge jitter error (maybe fixed) : 0
Atom jitter error (maybe fixed) : 0
Drift error (maybe fixed) : 0
Dropped bytes error (maybe fixed) : 0
Duplicated bytes error (maybe fixed) : 0
Inconsistency in error sectors : 0

Track 08
CRC32 hash (test run) : D54E697C
CRC32 hash : D54E697C
CRC32 hash (skip zero) : 134448CB
Statistics
Read error : 0
Skipped (treated as error) : 0
Edge jitter error (maybe fixed) : 0
Atom jitter error (maybe fixed) : 0
Drift error (maybe fixed) : 0
Dropped bytes error (maybe fixed) : 0
Duplicated bytes error (maybe fixed) : 0
Inconsistency in error sectors : 0

Track 09
CRC32 hash (test run) : C5DBA8AC
CRC32 hash : C5DBA8AC
CRC32 hash (skip zero) : A50E8008
Statistics
Read error : 0
Skipped (treated as error) : 0
Edge jitter error (maybe fixed) : 0
Atom jitter error (maybe fixed) : 0
Drift error (maybe fixed) : 0
Dropped bytes error (maybe fixed) : 0
Duplicated bytes error (maybe fixed) : 0
Inconsistency in error sectors : 0

Track 10
CRC32 hash (test run) : D9E670C9
CRC32 hash : D9E670C9
CRC32 hash (skip zero) : 2FEE076B
Statistics
Read error : 0
Skipped (treated as error) : 0
Edge jitter error (maybe fixed) : 0
Atom jitter error (maybe fixed) : 0
Drift error (maybe fixed) : 0
Dropped bytes error (maybe fixed) : 0
Duplicated bytes error (maybe fixed) : 0
Inconsistency in error sectors : 0

Track 11
CRC32 hash (test run) : F99D3717
CRC32 hash : F99D3717
CRC32 hash (skip zero) : 48098421
Statistics
Read error : 0
Skipped (treated as error) : 0
Edge jitter error (maybe fixed) : 0
Atom jitter error (maybe fixed) : 0
Drift error (maybe fixed) : 0
Dropped bytes error (maybe fixed) : 0
Duplicated bytes error (maybe fixed) : 0
Inconsistency in error sectors : 0

Track 12
CRC32 hash (test run) : 4321FD59
CRC32 hash : 4321FD59
CRC32 hash (skip zero) : BFA97441
Statistics
Read error : 0
Skipped (treated as error) : 0
Edge jitter error (maybe fixed) : 0
Atom jitter error (maybe fixed) : 0
Drift error (maybe fixed) : 0
Dropped bytes error (maybe fixed) : 0
Duplicated bytes error (maybe fixed) : 0
Inconsistency in error sectors : 0

Track 13
CRC32 hash (test run) : 6899E8F0
CRC32 hash : 6899E8F0
CRC32 hash (skip zero) : 15A23739
Statistics
Read error : 0
Skipped (treated as error) : 0
Edge jitter error (maybe fixed) : 0
Atom jitter error (maybe fixed) : 0
Drift error (maybe fixed) : 0
Dropped bytes error (maybe fixed) : 0
Duplicated bytes error (maybe fixed) : 0
Inconsistency in error sectors : 0

Track 14
CRC32 hash (test run) : 6AFBAD51
CRC32 hash : 6AFBAD51
CRC32 hash (skip zero) : 33AD5408
Statistics
Read error : 0
Skipped (treated as error) : 0
Edge jitter error (maybe fixed) : 0
Atom jitter error (maybe fixed) : 0
Drift error (maybe fixed) : 0
Dropped bytes error (maybe fixed) : 0
Duplicated bytes error (maybe fixed) : 0
Inconsistency in error sectors : 0

Track 15
CRC32 hash (test run) : DF672946
CRC32 hash : DF672946
CRC32 hash (skip zero) : 06F12C99
Statistics
Read error : 0
Skipped (treated as error) : 0
Edge jitter error (maybe fixed) : 0
Atom jitter error (maybe fixed) : 0
Drift error (maybe fixed) : 0
Dropped bytes error (maybe fixed) : 0
Duplicated bytes error (maybe fixed) : 0
Inconsistency in error sectors : 0

Track 16
CRC32 hash (test run) : 5829568D
CRC32 hash : 5829568D
CRC32 hash (skip zero) : D319A963
Statistics
Read error : 0
Skipped (treated as error) : 0
Edge jitter error (maybe fixed) : 0
Atom jitter error (maybe fixed) : 0
Drift error (maybe fixed) : 0
Dropped bytes error (maybe fixed) : 0
Duplicated bytes error (maybe fixed) : 0
Inconsistency in error sectors : 0

No errors occurred

End of status report









[font="Georgia"]Год выпуска диска[/font]: 2005
[font="Georgia"]Производитель диска[/font]: EU
[font="Georgia"]Лейбл[/font]: EMI/Virgin Records
[font="Georgia"]Номер по каталогу[/font]: 00946 337209 2 3
[font="Georgia"]Продолжительность[/font]: 60min











01. Steve Hackett - The Steppes
02. Steve Hackett - Time To Get Out
03. Steve Hackett - Slogans
04. Steve Hackett - Leaving
05. Steve Hackett - Two Vamps As Guests
06. Steve Hackett - Jacuzzi
07. Steve Hackett - Hammer In The Sand
08. Steve Hackett - The Toast
09. Steve Hackett - The Show
10. Steve Hackett - Sentimental Institution
Bonus Tracks:
11. Steve Hackett - Hercules Unchained
12. Steve Hackett - Sentimental Institution (Live at The Theatre Royal, Drury Lane)
13. Steve Hackett - The Steppes (Live at the Reading Festival)
14. Steve Hackett - Slogans (Live at the Reading Festival)
15. Steve Hackett - Clocks - The Angel of Mons (Live at the Reading Festival)




Exact Audio Copy V0.99 prebeta 5 from 4. May 2009

Отчёт EAC об извлечении, выполненном 28. декабря 2010, 21:58

Steve Hackett / Defector [2005 Remaster]

Дисковод: PIONEER DVD-RW DVR-115D Adapter: 1 ID: 0

Режим чтения : Достоверность
Использование точного потока : Да
Отключение кэша аудио : Да
Использование указателей C2 : Нет

Коррекция смещения при чтении : 48
Способность читать области Lead-in и Lead-out : Нет
Заполнение пропущенных сэмплов тишиной : Да
Удаление блоков с тишиной в начале и конце : Нет
При вычислениях CRC использовались нулевые сэмплы : Да
Интерфейс : Установленный внешний ASPI-интерфейс

Выходной формат : Внутренние WAV-операции
Формат сэмплов : 44.100 Гц; 16 бит; стерео

TOC извлечённого CD

Трек | Старт | Длительность | Начальный сектор | Конечный сектор
---------------------------------------------------------------------
1 | 0:00.00 | 6:05.00 | 0 | 27374
2 | 6:05.00 | 4:12.69 | 27375 | 46343
3 | 10:17.69 | 3:57.45 | 46344 | 64163
4 | 14:15.39 | 3:04.69 | 64164 | 78032
5 | 17:20.33 | 1:55.24 | 78033 | 86681
6 | 19:15.57 | 4:36.48 | 86682 | 107429
7 | 23:52.30 | 3:10.70 | 107430 | 121749
8 | 27:03.25 | 3:42.74 | 121750 | 138473
9 | 30:46.24 | 3:40.71 | 138474 | 155044
10 | 34:27.20 | 2:44.33 | 155045 | 167377
11 | 37:11.53 | 2:44.33 | 167378 | 179710
12 | 39:56.11 | 3:02.71 | 179711 | 193431
13 | 42:59.07 | 6:33.13 | 193432 | 222919
14 | 49:32.20 | 4:19.18 | 222920 | 242362
15 | 53:51.38 | 5:54.44 | 242363 | 268956

Характеристики диапазона извлечения и сообщения об ошибках

Выбранный диапазон

Имя файла E:\AUDIO\Steve Hackett\Steve Hackett - Defector - 1980 (EMI 2005, Digital Remastered + Bonus Tracks)\Steve Hackett - Defector [2005 Remaster].wav

Пиковый уровень 94.4 %
Качество диапазона 100.0 %
CRC теста 63C8588E
CRC копии 63C8588E
Копирование... OK

Ошибок не произошло

Конец отчёта








[font="Georgia"]Год выпуска диска[/font]: 2007
[font="Georgia"]Производитель диска[/font]: EU
[font="Georgia"]Лейбл[/font]: EMI/Virgin Records
[font="Georgia"]Номер по каталогу[/font]: 00946 384415 2 6
[font="Georgia"]Продолжительность[/font]: 42min










01. Steve Hackett - Hope I Don`t Wake
02. Steve Hackett - Picture Postcard
03. Steve Hackett - Can`t Let Go
04. Steve Hackett - The Air Conditioned Nightmare
05. Steve Hackett - Funny Feeling
06. Steve Hackett - A Cradle Of Swans
07. Steve Hackett - Overnight Sleeper
08. Steve Hackett - Turn Back Time
Bonus Tracks:
09. Steve Hackett - Tales of The Riverbank
10. Steve Hackett - Second Chance
11. Steve Hackett - The Air-Conditioned Nightmare




X Lossless Decoder version 20091129 (114.3)

XLD extraction logfile from 2010-12-28 20:04:08 +0000

Steve Hackett / Cured (2007 Digital Remaster)

Used drive : PIONEER DVD-RW DVR-218L (revision 1.02)

Use cdparanoia mode : YES (CDParanoia III 10.2 engine)
Disable audio cache : OK for the drive with cache less than 2750KB
Make use of C2 pointers : NO
Read offset correction : 6
Max retry count : 100

TOC of the extracted CD
Track | Start | Length | Start sector | End sector
---------------------------------------------------------
1 | 00:00:00 | 03:47:39 | 0 | 17063
2 | 03:47:39 | 03:54:36 | 17064 | 34649
3 | 07:42:00 | 05:42:47 | 34650 | 60346
4 | 13:24:47 | 04:42:08 | 60347 | 81504
5 | 18:06:55 | 04:06:43 | 81505 | 99997
6 | 22:13:23 | 02:49:04 | 99998 | 112676
7 | 25:02:27 | 04:37:00 | 112677 | 133451
8 | 29:39:27 | 04:23:05 | 133452 | 153181
9 | 34:02:32 | 02:00:06 | 153182 | 162187
10 | 36:02:38 | 02:00:35 | 162188 | 171222
11 | 38:02:73 | 04:08:34 | 171223 | 189856

All Tracks
Filename : /Volumes/MacOSX/Music/AUDIO/Art Rock/Steve Hackett/Steve Hackett - Cured - 1981 (EMI 2005, Digital Remastered + Bonus Tracks)/Cured (2007 Digital Remaster).aiff
CRC32 hash (test run) : 1C4D5D32
CRC32 hash : 1C4D5D32
CRC32 hash (skip zero) : 4D97801C
Statistics
Read error : 0
Skipped (treated as error) : 0
Edge jitter error (maybe fixed) : 0
Atom jitter error (maybe fixed) : 0
Drift error (maybe fixed) : 0
Dropped bytes error (maybe fixed) : 0
Duplicated bytes error (maybe fixed) : 0
Inconsistency in error sectors : 0

Track 01
CRC32 hash (test run) : ADD55E1B
CRC32 hash : ADD55E1B
CRC32 hash (skip zero) : FF2807F8
Statistics
Read error : 0
Skipped (treated as error) : 0
Edge jitter error (maybe fixed) : 0
Atom jitter error (maybe fixed) : 0
Drift error (maybe fixed) : 0
Dropped bytes error (maybe fixed) : 0
Duplicated bytes error (maybe fixed) : 0
Inconsistency in error sectors : 0

Track 02
CRC32 hash (test run) : D527C5EC
CRC32 hash : D527C5EC
CRC32 hash (skip zero) : 60BC7E56
Statistics
Read error : 0
Skipped (treated as error) : 0
Edge jitter error (maybe fixed) : 0
Atom jitter error (maybe fixed) : 0
Drift error (maybe fixed) : 0
Dropped bytes error (maybe fixed) : 0
Duplicated bytes error (maybe fixed) : 0
Inconsistency in error sectors : 0

Track 03
CRC32 hash (test run) : 0F97540D
CRC32 hash : 0F97540D
CRC32 hash (skip zero) : B1255945
Statistics
Read error : 0
Skipped (treated as error) : 0
Edge jitter error (maybe fixed) : 0
Atom jitter error (maybe fixed) : 0
Drift error (maybe fixed) : 0
Dropped bytes error (maybe fixed) : 0
Duplicated bytes error (maybe fixed) : 0
Inconsistency in error sectors : 0

Track 04
CRC32 hash (test run) : AFA5B5E3
CRC32 hash : AFA5B5E3
CRC32 hash (skip zero) : 4C91A543
Statistics
Read error : 0
Skipped (treated as error) : 0
Edge jitter error (maybe fixed) : 0
Atom jitter error (maybe fixed) : 0
Drift error (maybe fixed) : 0
Dropped bytes error (maybe fixed) : 0
Duplicated bytes error (maybe fixed) : 0
Inconsistency in error sectors : 0

Track 05
CRC32 hash (test run) : DCD05117
CRC32 hash : DCD05117
CRC32 hash (skip zero) : 48677C25
Statistics
Read error : 0
Skipped (treated as error) : 0
Edge jitter error (maybe fixed) : 0
Atom jitter error (maybe fixed) : 0
Drift error (maybe fixed) : 0
Dropped bytes error (maybe fixed) : 0
Duplicated bytes error (maybe fixed) : 0
Inconsistency in error sectors : 0

Track 06
CRC32 hash (test run) : 97819625
CRC32 hash : 97819625
CRC32 hash (skip zero) : 688D715B
Statistics
Read error : 0
Skipped (treated as error) : 0
Edge jitter error (maybe fixed) : 0
Atom jitter error (maybe fixed) : 0
Drift error (maybe fixed) : 0
Dropped bytes error (maybe fixed) : 0
Duplicated bytes error (maybe fixed) : 0
Inconsistency in error sectors : 0

Track 07
CRC32 hash (test run) : 5EB6E6C8
CRC32 hash : 5EB6E6C8
CRC32 hash (skip zero) : 78B6606F
Statistics
Read error : 0
Skipped (treated as error) : 0
Edge jitter error (maybe fixed) : 0
Atom jitter error (maybe fixed) : 0
Drift error (maybe fixed) : 0
Dropped bytes error (maybe fixed) : 0
Duplicated bytes error (maybe fixed) : 0
Inconsistency in error sectors : 0

Track 08
CRC32 hash (test run) : 45CF9E5F
CRC32 hash : 45CF9E5F
CRC32 hash (skip zero) : E2FEDAFC
Statistics
Read error : 0
Skipped (treated as error) : 0
Edge jitter error (maybe fixed) : 0
Atom jitter error (maybe fixed) : 0
Drift error (maybe fixed) : 0
Dropped bytes error (maybe fixed) : 0
Duplicated bytes error (maybe fixed) : 0
Inconsistency in error sectors : 0

Track 09
CRC32 hash (test run) : 8EA0E89A
CRC32 hash : 8EA0E89A
CRC32 hash (skip zero) : 9CFBA5AC
Statistics
Read error : 0
Skipped (treated as error) : 0
Edge jitter error (maybe fixed) : 0
Atom jitter error (maybe fixed) : 0
Drift error (maybe fixed) : 0
Dropped bytes error (maybe fixed) : 0
Duplicated bytes error (maybe fixed) : 0
Inconsistency in error sectors : 0

Track 10
CRC32 hash (test run) : 285158EF
CRC32 hash : 285158EF
CRC32 hash (skip zero) : 436B518E
Statistics
Read error : 0
Skipped (treated as error) : 0
Edge jitter error (maybe fixed) : 0
Atom jitter error (maybe fixed) : 0
Drift error (maybe fixed) : 0
Dropped bytes error (maybe fixed) : 0
Duplicated bytes error (maybe fixed) : 0
Inconsistency in error sectors : 0

Track 11
CRC32 hash (test run) : 59E8822D
CRC32 hash : 59E8822D
CRC32 hash (skip zero) : D2AC4BD4
Statistics
Read error : 0
Skipped (treated as error) : 0
Edge jitter error (maybe fixed) : 0
Atom jitter error (maybe fixed) : 0
Drift error (maybe fixed) : 0
Dropped bytes error (maybe fixed) : 0
Duplicated bytes error (maybe fixed) : 0
Inconsistency in error sectors : 0

No errors occurred

End of status report








[font="Georgia"]Год выпуска диска[/font]: 1989
[font="Georgia"]Производитель диска[/font]: UK
[font="Georgia"]Лейбл[/font]: Virgin/Charisma Records
[font="Georgia"]Номер по каталогу[/font]: HACKCD1
[font="Georgia"]Продолжительность[/font]: 38min










01 - Camino Royale
02 - Cell 151
03 - Always Somewhere Else
04 - Walking Through Walls
05 - Give It Away
06 - Weightless
07 - Group Therapy
08 - India Rubber Man
09 - Hackett To Pieces




Exact Audio Copy V0.99 prebeta 5 from 4. May 2009

Отчёт EAC об извлечении, выполненном 17. января 2011, 14:28

Steve Hackett / Highly Strung

Дисковод: PIONEER DVD-RW DVR-115D Adapter: 1 ID: 0

Режим чтения : Достоверность
Использование точного потока : Да
Отключение кэша аудио : Да
Использование указателей C2 : Нет

Коррекция смещения при чтении : 48
Способность читать области Lead-in и Lead-out : Нет
Заполнение пропущенных сэмплов тишиной : Да
Удаление блоков с тишиной в начале и конце : Нет
При вычислениях CRC использовались нулевые сэмплы : Да
Интерфейс : Установленный внешний ASPI-интерфейс

Выходной формат : Внутренние WAV-операции
Формат сэмплов : 44.100 Гц; 16 бит; стерео

TOC извлечённого CD

Трек | Старт | Длительность | Начальный сектор | Конечный сектор
---------------------------------------------------------------------
1 | 0:00.02 | 5:25.65 | 2 | 24441
2 | 5:25.67 | 6:25.53 | 24442 | 53369
3 | 11:51.45 | 3:58.27 | 53370 | 71246
4 | 15:49.72 | 3:45.40 | 71247 | 88161
5 | 19:35.37 | 4:05.65 | 88162 | 106601
6 | 23:41.27 | 3:29.73 | 106602 | 122349
7 | 27:11.25 | 5:44.65 | 122350 | 148214
8 | 32:56.15 | 2:29.42 | 148215 | 159431
9 | 35:25.57 | 2:38.10 | 159432 | 171291

Характеристики диапазона извлечения и сообщения об ошибках

Выбранный диапазон

Имя файла K:\Lossless MUSIC Archive\Art Rock\England\Steve Hackett\Steve Hackett - Highly Strung - 1983 (Virgin Records 1989, HACKCD1)\Steve Hackett - Highly Strung.wav

Пиковый уровень 100.0 %
Качество диапазона 100.0 %
CRC теста D00BDCD2
CRC копии D00BDCD2
Копирование... OK

Ошибок не произошло

AccurateRip: сводка

Трек 1 точное извлечение (доверие 12) [06A8106A]
Трек 2 точное извлечение (доверие 12) [056D522B]
Трек 3 точное извлечение (доверие 12) [AF189674]
Трек 4 точное извлечение (доверие 12) [0F657D90]
Трек 5 точное извлечение (доверие 12) [6D687764]
Трек 6 точное извлечение (доверие 12) [5F4D38C6]
Трек 7 точное извлечение (доверие 12) [BCA4314C]
Трек 8 точное извлечение (доверие 12) [9C6BB22A]
Трек 9 точное извлечение (доверие 12) [4A48FC7F]

Все треки извлечены точно

Конец отчёта









[font="Georgia"]Год выпуска диска[/font]: 1994
[font="Georgia"]Производитель диска[/font]: Japan
[font="Georgia"]Лейбл[/font]: WHD Entertainment Inc.
[font="Georgia"]Номер по каталогу[/font]: IECP - 10101
[font="Georgia"]Продолжительность[/font]: 44min










01 - Bay Of Kings
02 - The Journey
03 - Kim
04 - Marigold
05 - St Elmo's Fire
06 - Petropolis
07 - Second Chance
08 - Cast Adrift
09 - Horizons
10 - Black Light
11 - The Barren Land
12 - Calmaria
13 - Time Lapse At Milton Keynes
14 - Tales Of The Riverbank
15 - Skye Boat Song




Exact Audio Copy V0.99 prebeta 5 from 4. May 2009

Отчёт EAC об извлечении, выполненном 17. января 2011, 14:51

Steve Hackett / Bay Of Kings

Дисковод: PIONEER DVD-RW DVR-115D Adapter: 1 ID: 0

Режим чтения : Достоверность
Использование точного потока : Да
Отключение кэша аудио : Да
Использование указателей C2 : Нет

Коррекция смещения при чтении : 48
Способность читать области Lead-in и Lead-out : Нет
Заполнение пропущенных сэмплов тишиной : Да
Удаление блоков с тишиной в начале и конце : Нет
При вычислениях CRC использовались нулевые сэмплы : Да
Интерфейс : Установленный внешний ASPI-интерфейс

Выходной формат : Внутренние WAV-операции
Формат сэмплов : 44.100 Гц; 16 бит; стерео

TOC извлечённого CD

Трек | Старт | Длительность | Начальный сектор | Конечный сектор
---------------------------------------------------------------------
1 | 0:00.00 | 4:56.66 | 0 | 22265
2 | 4:56.66 | 4:14.56 | 22266 | 41371
3 | 9:11.47 | 2:25.14 | 41372 | 52260
4 | 11:36.61 | 3:36.35 | 52261 | 68495
5 | 15:13.21 | 3:08.58 | 68496 | 82653
6 | 18:22.04 | 2:45.56 | 82654 | 95084
7 | 21:07.60 | 1:58.10 | 95085 | 103944
8 | 23:05.70 | 2:15.21 | 103945 | 114090
9 | 25:21.16 | 1:47.60 | 114091 | 122175
10 | 27:09.01 | 2:31.07 | 122176 | 133507
11 | 29:40.08 | 3:46.40 | 133508 | 150497
12 | 33:26.48 | 3:23.08 | 150498 | 165730
13 | 36:49.56 | 3:56.33 | 165731 | 183463
14 | 40:46.14 | 2:02.51 | 183464 | 192664
15 | 42:48.65 | 1:35.68 | 192665 | 199857

Характеристики диапазона извлечения и сообщения об ошибках

Выбранный диапазон

Имя файла K:\Lossless MUSIC Archive\Art Rock\England\Steve Hackett\Steve Hackett - Bay Of Kings - 1983 (Japan, 1994, IECP - 10101)\Steve Hackett - Bay Of Kings.wav

Пиковый уровень 100.0 %
Качество диапазона 100.0 %
CRC теста 336ECCF1
CRC копии 336ECCF1
Копирование... OK

Ошибок не произошло

AccurateRip: сводка

Трек 1 точное извлечение (доверие 1) [0CDA5D20]
Трек 2 точное извлечение (доверие 1) [C7606AD4]
Трек 3 точное извлечение (доверие 1) [E1FC0285]
Трек 4 точное извлечение (доверие 1) [22CC6258]
Трек 5 точное извлечение (доверие 1) [E725AB84]
Трек 6 точное извлечение (доверие 1) [D6570646]
Трек 7 точное извлечение (доверие 1) [E1E17566]
Трек 8 точное извлечение (доверие 1) [4FA83123]
Трек 9 точное извлечение (доверие 1) [86364558]
Трек 10 точное извлечение (доверие 1) [06B74D75]
Трек 11 точное извлечение (доверие 1) [6D8AE0C5]
Трек 12 точное извлечение (доверие 1) [7A35096D]
Трек 13 точное извлечение (доверие 1) [A854F141]
Трек 14 точное извлечение (доверие 1) [ADFF17C5]
Трек 15 точное извлечение (доверие 1) [71A68197]

Все треки извлечены точно

Конец отчёта








[font="Georgia"]Год выпуска диска[/font]: 1994
[font="Georgia"]Производитель диска[/font]: Japan
[font="Georgia"]Лейбл[/font]: WHD Entertainment Inc.
[font="Georgia"]Номер по каталогу[/font]: IECP - 10102
[font="Georgia"]Продолжительность[/font]: 52min










01 - What's My Name
02 - The Rio Connection
03 - Matilda Smith-Williams Home For The Aged
04 - Let Me Count The Ways
05 - A Doll That's Made In Japan
06 - Duel
07 - Myopia
08 - Taking The Easy Way Out
09 - The Gulf
10 - Stadiums Of The Damned
11 - When You Wish Upon A Star




Exact Audio Copy V0.99 prebeta 5 from 4. May 2009

Отчёт EAC об извлечении, выполненном 17. января 2011, 15:34

Steve Hackett / Till We Have Faces

Дисковод: PIONEER DVD-RW DVR-115D Adapter: 1 ID: 0

Режим чтения : Достоверность
Использование точного потока : Да
Отключение кэша аудио : Да
Использование указателей C2 : Нет

Коррекция смещения при чтении : 48
Способность читать области Lead-in и Lead-out : Нет
Заполнение пропущенных сэмплов тишиной : Да
Удаление блоков с тишиной в начале и конце : Нет
При вычислениях CRC использовались нулевые сэмплы : Да
Интерфейс : Установленный внешний ASPI-интерфейс

Выходной формат : Внутренние WAV-операции
Формат сэмплов : 44.100 Гц; 16 бит; стерео

TOC извлечённого CD

Трек | Старт | Длительность | Начальный сектор | Конечный сектор
---------------------------------------------------------------------
1 | 0:00.00 | 7:05.68 | 0 | 31942
2 | 7:05.68 | 3:20.59 | 31943 | 47001
3 | 10:26.52 | 8:06.63 | 47002 | 83514
4 | 18:33.40 | 6:05.69 | 83515 | 110958
5 | 24:39.34 | 3:56.61 | 110959 | 128719
6 | 28:36.20 | 4:48.15 | 128720 | 150334
7 | 33:24.35 | 2:55.43 | 150335 | 163502
8 | 36:20.03 | 3:49.38 | 163503 | 180715
9 | 40:09.41 | 6:33.01 | 180716 | 210191
10 | 46:42.42 | 4:37.30 | 210192 | 230996
11 | 51:19.72 | 0:48.57 | 230997 | 234653

Характеристики диапазона извлечения и сообщения об ошибках

Выбранный диапазон

Имя файла K:\Lossless MUSIC Archive\Art Rock\England\Steve Hackett\Steve Hackett - Till We Have Faces - 1984 (Japan, 1994, IECP - 10102)\Steve Hackett - Till We Have Faces.wav

Пиковый уровень 95.7 %
Качество диапазона 99.9 %
CRC теста A8536FF7
CRC копии A8536FF7
Копирование... OK

Ошибок не произошло

AccurateRip: сводка

Трек 1 точное извлечение (доверие 1) [FDDFB238]
Трек 2 точное извлечение (доверие 1) [C77CD407]
Трек 3 точное извлечение (доверие 1) [1EC93623]
Трек 4 точное извлечение (доверие 1) [FEB8E77D]
Трек 5 точное извлечение (доверие 1) [43EEFE26]
Трек 6 точное извлечение (доверие 1) [21FF7DCA]
Трек 7 точное извлечение (доверие 1) [5EB929D0]
Трек 8 точное извлечение (доверие 1) [0CA38666]
Трек 9 точное извлечение (доверие 1) [3D74BF68]
Трек 10 точное извлечение (доверие 1) [34620AA7]
Трек 11 точное извлечение (доверие 1) [EE411EEF]

Все треки извлечены точно

Конец отчёта









[font="Georgia"]Год выпуска диска[/font]: 1997
[font="Georgia"]Производитель диска[/font]: UK
[font="Georgia"]Лейбл[/font]: Camino Records.
[font="Georgia"]Номер по каталогу[/font]: CAMCD 10
[font="Georgia"]Продолжительность[/font]: 61min










01 - Cavalcanti
02 - The Sleeping Sea
03 - Portrait Of A Brazilian Lady
04 - When The Bell Breaks
05 - A Bed, A Chair And A Guitar
06 - Concert For Munich
07 - Last Rites Of Innocence
08 - Troubled Spirit
09 - Variation On A Theme By Chopin
10 - Pierrot
11 - Momentum
12 - Bouree
13 - An Open Window
14 - The Vigil




Exact Audio Copy V0.99 prebeta 5 from 4. May 2009

Отчёт EAC об извлечении, выполненном 17. января 2011, 16:05

Hackett, Steve / Momentum

Дисковод: PIONEER DVD-RW DVR-115D Adapter: 1 ID: 0

Режим чтения : Достоверность
Использование точного потока : Да
Отключение кэша аудио : Да
Использование указателей C2 : Нет

Коррекция смещения при чтении : 48
Способность читать области Lead-in и Lead-out : Нет
Заполнение пропущенных сэмплов тишиной : Да
Удаление блоков с тишиной в начале и конце : Нет
При вычислениях CRC использовались нулевые сэмплы : Да
Интерфейс : Установленный внешний ASPI-интерфейс

Выходной формат : Внутренние WAV-операции
Формат сэмплов : 44.100 Гц; 16 бит; стерео

TOC извлечённого CD

Трек | Старт | Длительность | Начальный сектор | Конечный сектор
---------------------------------------------------------------------
1 | 0:00.00 | 6:13.55 | 0 | 28029
2 | 6:13.55 | 3:27.65 | 28030 | 43619
3 | 9:41.45 | 5:15.32 | 43620 | 67276
4 | 14:57.02 | 3:03.15 | 67277 | 81016
5 | 18:00.17 | 2:44.08 | 81017 | 93324
6 | 20:44.25 | 4:55.65 | 93325 | 115514
7 | 25:40.15 | 5:28.15 | 115515 | 140129
8 | 31:08.30 | 2:30.45 | 140130 | 151424
9 | 33:39.00 | 4:55.47 | 151425 | 173596
10 | 38:34.47 | 2:53.45 | 173597 | 186616
11 | 41:28.17 | 2:38.25 | 186617 | 198491
12 | 44:06.42 | 1:34.10 | 198492 | 205551
13 | 45:40.52 | 9:02.48 | 205552 | 246249
14 | 54:43.25 | 6:19.25 | 246250 | 274699

Характеристики диапазона извлечения и сообщения об ошибках

Выбранный диапазон

Имя файла K:\Lossless MUSIC Archive\Art Rock\England\Steve Hackett\Steve Hackett - Momentum - 1988\Hackett, Steve - Momentum.wav

Пиковый уровень 99.6 %
Качество диапазона 99.9 %
CRC теста 147A2AE1
CRC копии 147A2AE1
Копирование... OK

Ошибок не произошло

AccurateRip: сводка

Трек 1 точность не определена (достоверность 5) [2C2EFF99], AccurateRip вернул [F45482BA]
Трек 2 точность не определена (достоверность 5) [6F372336], AccurateRip вернул [89C2CA3F]
Трек 3 точность не определена (достоверность 5) [95AC9ACD], AccurateRip вернул [22492FA4]
Трек 4 точность не определена (достоверность 5) [0C34702B], AccurateRip вернул [18A64BCA]
Трек 5 точность не определена (достоверность 5) [99FEB234], AccurateRip вернул [682BE5B7]
Трек 6 точность не определена (достоверность 5) [975A8C5D], AccurateRip вернул [23478A7D]
Трек 7 точность не определена (достоверность 5) [D3F701B7], AccurateRip вернул [CF1D3CB0]
Трек 8 точность не определена (достоверность 5) [14F37C61], AccurateRip вернул [17FBD237]
Трек 9 точность не определена (достоверность 5) [414DE20D], AccurateRip вернул [22073880]
Трек 10 точность не определена (достоверность 5) [6FF4447F], AccurateRip вернул [6CE455EF]
Трек 11 точность не определена (достоверность 5) [DB722643], AccurateRip вернул [4AFDE0EB]
Трек 12 точность не определена (достоверность 5) [2C0A0437], AccurateRip вернул [A50D6DB7]
Трек 13 точность не определена (достоверность 5) [02BC538E], AccurateRip вернул [4A24FC5B]
Трек 14 точность не определена (достоверность 5) [4D2D1070], AccurateRip вернул [D9A7947E]

Ни один трек не прошёл проверки на точность
В вашей базе может быть иной вариант штамповки диска

Конец отчёта









[font="Georgia"]Год выпуска диска[/font]: 1993
[font="Georgia"]Производитель диска[/font]: Israel
[font="Georgia"]Лейбл[/font]: Viceroy Music.
[font="Georgia"]Номер по каталогу[/font]: VIC8008-2
[font="Georgia"]Продолжительность[/font]: 56min










01 - Lost in Your Eyes
02 - In the Heart of the City
03 - Sierra Quemada
04 - Vampire with a Healthy Appetite
05 - Take These Pearls
06 - Little America
07 - There Are Many Sides To the Night
08 - Walking Away from Rainbows
09 - Like an Arrow
10 - Dark as The Grave
11 - Paint Your Picture
12 - Tristesse
13 - Cassandra




Exact Audio Copy V0.99 prebeta 5 from 4. May 2009

Отчёт EAC об извлечении, выполненном 17. января 2011, 16:56

Steve Hackett / Guitar Noir

Дисковод: PIONEER DVD-RW DVR-115D Adapter: 1 ID: 0

Режим чтения : Достоверность
Использование точного потока : Да
Отключение кэша аудио : Да
Использование указателей C2 : Нет

Коррекция смещения при чтении : 48
Способность читать области Lead-in и Lead-out : Нет
Заполнение пропущенных сэмплов тишиной : Да
Удаление блоков с тишиной в начале и конце : Нет
При вычислениях CRC использовались нулевые сэмплы : Да
Интерфейс : Установленный внешний ASPI-интерфейс

Выходной формат : Внутренние WAV-операции
Формат сэмплов : 44.100 Гц; 16 бит; стерео

TOC извлечённого CD

Трек | Старт | Длительность | Начальный сектор | Конечный сектор
---------------------------------------------------------------------
1 | 0:00.00 | 4:10.32 | 0 | 18781
2 | 4:10.32 | 4:32.48 | 18782 | 39229
3 | 8:43.05 | 5:05.05 | 39230 | 62109
4 | 13:48.10 | 5:20.60 | 62110 | 86169
5 | 19:08.70 | 4:12.37 | 86170 | 105106
6 | 23:21.32 | 4:41.23 | 105107 | 126204
7 | 28:02.55 | 6:56.40 | 126205 | 157444
8 | 34:59.20 | 3:10.02 | 157445 | 171696
9 | 38:09.22 | 2:49.53 | 171697 | 184424
10 | 40:59.00 | 4:37.65 | 184425 | 205264
11 | 45:36.65 | 2:59.00 | 205265 | 218689
12 | 48:35.65 | 3:58.17 | 218690 | 236556
13 | 52:34.07 | 3:42.23 | 236557 | 253229

Характеристики диапазона извлечения и сообщения об ошибках

Выбранный диапазон

Имя файла K:\Lossless MUSIC Archive\Art Rock\England\Steve Hackett\Steve Hackett - Guitar Noir - 1993 (Viceroy Music, Israel, VIC8008-2)\Steve Hackett - Guitar Noir.wav

Пиковый уровень 100.0 %
Качество диапазона 99.9 %
CRC теста C74422D9
CRC копии C74422D9
Копирование... OK

Ошибок не произошло

AccurateRip: сводка

Трек 1 точное извлечение (доверие 9) [81EEE821]
Трек 2 точное извлечение (доверие 9) [DA18CA54]
Трек 3 точное извлечение (доверие 9) [245FB6AA]
Трек 4 точное извлечение (доверие 9) [C5DC5516]
Трек 5 точное извлечение (доверие 9) [44DFB239]
Трек 6 точное извлечение (доверие 9) [9EBFF304]
Трек 7 точное извлечение (доверие 9) [2A49FC51]
Трек 8 точное извлечение (доверие 9) [763631DD]
Трек 9 точное извлечение (доверие 9) [7F241331]
Трек 10 точное извлечение (доверие 9) [AA157734]
Трек 11 точное извлечение (доверие 9) [A24E4124]
Трек 12 точное извлечение (доверие 9) [610AB22F]
Трек 13 точное извлечение (доверие 9) [17E2471C]

Все треки извлечены точно

Конец отчёта








[font="Georgia"]Год выпуска диска[/font]: 1994
[font="Georgia"]Производитель диска[/font]: Japan
[font="Georgia"]Лейбл[/font]: WHD Entertainment Inc.
[font="Georgia"]Номер по каталогу[/font]: IECP - 10106
[font="Georgia"]Продолжительность[/font]: 47min










01 - Born In Chicago
02 - The Stumble
03 - Love Of Another Kind
04 - Way Down South
05 - A Blue Part Of Town
06 - Footloose
07 - Tombstone Roller
08 - Blues With A Feeling
09 - Big Dallas Sky
10 - The 13th Floor
11 - So Many Roads
12 - Solid Ground




Exact Audio Copy V0.99 prebeta 5 from 4. May 2009

Отчёт EAC об извлечении, выполненном 17. января 2011, 18:22

Steve Hackett / Blues With A Feeling

Дисковод: PIONEER DVD-RW DVR-115D Adapter: 1 ID: 0

Режим чтения : Достоверность
Использование точного потока : Да
Отключение кэша аудио : Да
Использование указателей C2 : Нет

Коррекция смещения при чтении : 48
Способность читать области Lead-in и Lead-out : Нет
Заполнение пропущенных сэмплов тишиной : Да
Удаление блоков с тишиной в начале и конце : Нет
При вычислениях CRC использовались нулевые сэмплы : Да
Интерфейс : Установленный внешний ASPI-интерфейс

Выходной формат : Внутренние WAV-операции
Формат сэмплов : 44.100 Гц; 16 бит; стерео

TOC извлечённого CD

Трек | Старт | Длительность | Начальный сектор | Конечный сектор
---------------------------------------------------------------------
1 | 0:00.00 | 3:57.65 | 0 | 17839
2 | 3:57.65 | 2:55.10 | 17840 | 30974
3 | 6:53.00 | 3:59.50 | 30975 | 48949
4 | 10:52.50 | 4:28.45 | 48950 | 69094
5 | 15:21.20 | 3:03.70 | 69095 | 82889
6 | 18:25.15 | 2:30.15 | 82890 | 94154
7 | 20:55.30 | 5:17.45 | 94155 | 117974
8 | 26:13.00 | 4:22.35 | 117975 | 137659
9 | 30:35.35 | 4:47.50 | 137660 | 159234
10 | 35:23.10 | 3:29.05 | 159235 | 174914
11 | 38:52.15 | 3:15.35 | 174915 | 189574
12 | 42:07.50 | 4:27.65 | 189575 | 209664

Характеристики диапазона извлечения и сообщения об ошибках

Выбранный диапазон

Имя файла K:\Lossless MUSIC Archive\Art Rock\England\Steve Hackett\11 - Steve Hackett - Blues With A Feeling - 1994 (Japan, 1994 IECP - 10106)\Steve Hackett - Blues With A Feeling.wav

Пиковый уровень 96.8 %
Качество диапазона 100.0 %
CRC теста 09E62D85
CRC копии 09E62D85
Копирование... OK

Ошибок не произошло

AccurateRip: сводка

Трек 1 нет в базе данных
Трек 2 нет в базе данных
Трек 3 нет в базе данных
Трек 4 нет в базе данных
Трек 5 нет в базе данных
Трек 6 нет в базе данных
Трек 7 нет в базе данных
Трек 8 нет в базе данных
Трек 9 нет в базе данных
Трек 10 нет в базе данных
Трек 11 нет в базе данных
Трек 12 нет в базе данных

Ни одного трека нет в базе AccurateRip

Конец отчёта









[font="Georgia"]Год выпуска диска[/font]: 2003
[font="Georgia"]Производитель диска[/font]: UK
[font="Georgia"]Лейбл[/font]: Snapper Classic, Watcher Ltd.
[font="Georgia"]Номер по каталогу[/font]: SDPCD126
[font="Georgia"]Продолжительность[/font]: 76min










01 - Watcher of the Skies
02 - Dance on a Volcano
03 - Valley of the Kings
04 - Deja Vu
05 - Firth of Fifth
06 - For Absent Friends
07 - Your Own Special Way
08 - Fountain of Salmacis
09 - Waiting Room Only
10 - I Know What I Like
11 - Los Endos




Exact Audio Copy V0.99 prebeta 5 from 4. May 2009

Отчёт EAC об извлечении, выполненном 19. января 2011, 2:24

Steve Hackett / Watcher of the Skies (Genesis Revisited)

Дисковод: PIONEER DVD-RW DVR-115D Adapter: 1 ID: 0

Режим чтения : Достоверность
Использование точного потока : Да
Отключение кэша аудио : Да
Использование указателей C2 : Нет

Коррекция смещения при чтении : 48
Способность читать области Lead-in и Lead-out : Нет
Заполнение пропущенных сэмплов тишиной : Да
Удаление блоков с тишиной в начале и конце : Нет
При вычислениях CRC использовались нулевые сэмплы : Да
Интерфейс : Установленный внешний ASPI-интерфейс

Выходной формат : Внутренние WAV-операции
Формат сэмплов : 44.100 Гц; 16 бит; стерео

TOC извлечённого CD

Трек | Старт | Длительность | Начальный сектор | Конечный сектор
---------------------------------------------------------------------
1 | 0:00.00 | 8:39.35 | 0 | 38959
2 | 8:39.35 | 7:27.20 | 38960 | 72504
3 | 16:06.55 | 6:31.40 | 72505 | 101869
4 | 22:38.20 | 5:53.00 | 101870 | 128344
5 | 28:31.20 | 9:39.57 | 128345 | 171826
6 | 38:11.02 | 3:02.55 | 171827 | 185531
7 | 41:13.57 | 4:18.18 | 185532 | 204899
8 | 45:32.00 | 9:53.57 | 204900 | 249431
9 | 55:25.57 | 6:53.18 | 249432 | 280424
10 | 62:19.00 | 5:37.12 | 280425 | 305711
11 | 67:56.12 | 8:46.05 | 305712 | 345166

Характеристики диапазона извлечения и сообщения об ошибках

Выбранный диапазон

Имя файла K:\Lossless MUSIC Archive\Art Rock\England\Steve Hackett\12 - Steve Hackett - Genesis Revisited - 1996\Steve Hackett - Watcher of the Skies (Genesis Revisited).wav

Пиковый уровень 95.5 %
Качество диапазона 100.0 %
CRC теста 57287E27
CRC копии 57287E27
Копирование... OK

Ошибок не произошло

AccurateRip: сводка

Трек 1 точность не определена (достоверность 5) [2CB00416], AccurateRip вернул [09CA2E71]
Трек 2 точность не определена (достоверность 5) [5BFE3FAB], AccurateRip вернул [91AAD7F2]
Трек 3 точность не определена (достоверность 5) [B77E3D30], AccurateRip вернул [EF73BE3E]
Трек 4 точность не определена (достоверность 5) [EC17683D], AccurateRip вернул [3916D49C]
Трек 5 точность не определена (достоверность 5) [43A5BA8D], AccurateRip вернул [F6617EB4]
Трек 6 точность не определена (достоверность 5) [7ABCC807], AccurateRip вернул [6EF861F3]
Трек 7 точность не определена (достоверность 5) [64826154], AccurateRip вернул [2C1D203A]
Трек 8 точность не определена (достоверность 5) [BD2D3694], AccurateRip вернул [D2235D62]
Трек 9 точность не определена (достоверность 5) [1C5B4679], AccurateRip вернул [584DC035]
Трек 10 точность не определена (достоверность 5) [21B59FD6], AccurateRip вернул [90C38B95]
Трек 11 точность не определена (достоверность 5) [D322E6FA], AccurateRip вернул [0F86C82A]

Ни один трек не прошёл проверки на точность
В вашей базе может быть иной вариант штамповки диска

Конец отчёта








[font="Georgia"]Год выпуска диска[/font]: 1997
[font="Georgia"]Производитель диска[/font]: UK
[font="Georgia"]Лейбл[/font]: Camino Records.
[font="Georgia"]Номер по каталогу[/font]: CAMCD22
[font="Georgia"]Продолжительность[/font]: 62min










01 - The Palace of Theseus
02 - A Form In Wax
03 - By Paved Fountain
04 - Titania
05 - Set Your Heart At Rest
06 - Oberon
07 - Within This Wood
08 - In The Beached Margent Of The Sea
09 - Between The Cold Moon & The Earth
10 - Puck
11 - Helena
12 - Peaseblossom, Cobweb, Moth & Mustardseed
13 - Mountains Turned Into Clouds
14 - The Lunatic, The Lover & The Poet
15 - Starlight
16 - Lysander & Demetrius
17 - Celebration
18 - All Is Mended




Exact Audio Copy V0.99 prebeta 5 from 4. May 2009

Отчёт EAC об извлечении, выполненном 6. мая 2011, 17:56

Steve Hackett / A Midsummer Night's Dream

Дисковод: PIONEER DVD-RW DVR-115D Adapter: 1 ID: 0

Режим чтения : Достоверность
Использование точного потока : Да
Отключение кэша аудио : Да
Использование указателей C2 : Нет

Коррекция смещения при чтении : 48
Способность читать области Lead-in и Lead-out : Нет
Заполнение пропущенных сэмплов тишиной : Да
Удаление блоков с тишиной в начале и конце : Нет
При вычислениях CRC использовались нулевые сэмплы : Да
Интерфейс : Установленный внешний ASPI-интерфейс

Выходной формат : Внутренние WAV-операции
Формат сэмплов : 44.100 Гц; 16 бит; стерео

TOC извлечённого CD

Трек | Старт | Длительность | Начальный сектор | Конечный сектор
---------------------------------------------------------------------
1 | 0:00.00 | 2:46.17 | 0 | 12466
2 | 2:46.17 | 4:40.61 | 12467 | 33527
3 | 7:27.03 | 2:00.45 | 33528 | 42572
4 | 9:27.48 | 2:24.07 | 42573 | 53379
5 | 11:51.55 | 3:31.28 | 53380 | 69232
6 | 15:23.08 | 2:31.70 | 69233 | 80627
7 | 17:55.03 | 2:36.12 | 80628 | 92339
8 | 20:31.15 | 2:38.61 | 92340 | 104250
9 | 23:10.01 | 2:44.65 | 104251 | 116615
10 | 25:54.66 | 1:52.67 | 116616 | 125082
11 | 27:47.58 | 4:21.41 | 125083 | 144698
12 | 32:09.24 | 4:28.50 | 144699 | 164848
13 | 36:37.74 | 4:36.60 | 164849 | 185608
14 | 41:14.59 | 4:14.36 | 185609 | 204694
15 | 45:29.20 | 4:47.73 | 204695 | 226292
16 | 50:17.18 | 2:45.54 | 226293 | 238721
17 | 53:02.72 | 6:15.23 | 238722 | 266869
18 | 59:18.20 | 3:13.62 | 266870 | 281406
19 | 65:04.07 | 8:01.58 | 292807 | 328939

Характеристики диапазона извлечения и сообщения об ошибках

Выбранный диапазон

Имя файла K:\Lossless MUSIC Archive\Art Rock\England\Steve Hackett\13 - Steve Hackett - A Midsummer Night's Dream - 1997 (Camino Records 1997, CAMCD22)\Steve Hackett - A Midsummer Night's Dream.wav

Пиковый уровень 98.5 %
Качество диапазона 99.9 %
CRC теста EFFCE6F3
CRC копии EFFCE6F3
Копирование... OK

Ошибок не произошло

AccurateRip: сводка

Трек 1 точное извлечение (доверие 3) [18837551]
Трек 2 точное извлечение (доверие 3) [843ABCB1]
Трек 3 точное извлечение (доверие 3) [74D7B9AC]
Трек 4 точное извлечение (доверие 3) [DB23F41E]
Трек 5 точное извлечение (доверие 3) [F9FF99B4]
Трек 6 точное извлечение (доверие 3) [7339C8D8]
Трек 7 точное извлечение (доверие 3) [2C5C664F]
Трек 8 точное извлечение (доверие 3) [30F29960]
Трек 9 точное извлечение (доверие 3) [BF94B289]
Трек 10 точное извлечение (доверие 3) [6606F989]
Трек 11 точное извлечение (доверие 3) [9B1EB1F2]
Трек 12 точное извлечение (доверие 3) [EAAF7CC4]
Трек 13 точное извлечение (доверие 3) [E6B4D948]
Трек 14 точное извлечение (доверие 3) [AC4E047F]
Трек 15 точное извлечение (доверие 3) [710A7C5D]
Трек 16 точное извлечение (доверие 3) [F8B1530B]
Трек 17 точное извлечение (доверие 3) [D0C6F84D]
Трек 18 точное извлечение (доверие 2) [F6AE7B30]

Все треки извлечены точно

Конец отчёта









[font="Georgia"]Год выпуска диска[/font]: 1999
[font="Georgia"]Производитель диска[/font]: UK
[font="Georgia"]Лейбл[/font]: Camino Records.
[font="Georgia"]Номер по каталогу[/font]: CAMCD17
[font="Georgia"]Продолжительность[/font]: 57min










01 - Omega Metallicus
02 - Darktown
03 - Man Overboard
04 - The Golden Age Of Steam
05 - Days Of Long Ago
06 - Dreaming With Open Eyes
07 - Twice Around The Sun
08 - Rise Again
09 - Jane Austen's Door
10 - Darktown Riot
11 - In Memoriam




Exact Audio Copy V0.99 prebeta 5 from 4. May 2009

Отчёт EAC об извлечении, выполненном 6. мая 2011, 19:12

Steve Hackett / Darktown

Дисковод: PIONEER DVD-RW DVR-115D Adapter: 1 ID: 0

Режим чтения : Достоверность
Использование точного потока : Да
Отключение кэша аудио : Да
Использование указателей C2 : Нет

Коррекция смещения при чтении : 48
Способность читать области Lead-in и Lead-out : Нет
Заполнение пропущенных сэмплов тишиной : Да
Удаление блоков с тишиной в начале и конце : Нет
При вычислениях CRC использовались нулевые сэмплы : Да
Интерфейс : Установленный внешний ASPI-интерфейс

Выходной формат : Внутренние WAV-операции
Формат сэмплов : 44.100 Гц; 16 бит; стерео

TOC извлечённого CD

Трек | Старт | Длительность | Начальный сектор | Конечный сектор
---------------------------------------------------------------------
1 | 0:00.00 | 3:48.21 | 0 | 17120
2 | 3:48.21 | 4:59.44 | 17121 | 39589
3 | 8:47.65 | 4:17.36 | 39590 | 58900
4 | 13:05.26 | 4:09.19 | 58901 | 77594
5 | 17:14.45 | 3:23.15 | 77595 | 92834
6 | 20:37.60 | 6:54.59 | 92835 | 123943
7 | 27:32.44 | 7:15.17 | 123944 | 156585
8 | 34:47.61 | 4:26.30 | 156586 | 176565
9 | 39:14.16 | 6:13.04 | 176566 | 204544
10 | 45:27.20 | 3:10.33 | 204545 | 218827
11 | 48:37.53 | 7:59.65 | 218828 | 254817

Характеристики диапазона извлечения и сообщения об ошибках

Выбранный диапазон

Имя файла K:\Lossless MUSIC Archive\Art Rock\England\Steve Hackett\14 - Steve Hackett - Darktown - 1999 (Camino Records 1999, CAMCD17)\Steve Hackett - Darktown.wav

Пиковый уровень 94.4 %
Качество диапазона 100.0 %
CRC теста 62D76E31
CRC копии 62D76E31
Копирование... OK

Ошибок не произошло

AccurateRip: сводка

Трек 1 точное извлечение (доверие 39) [0E2EAAD4]
Трек 2 точное извлечение (доверие 39) [75EE058C]
Трек 3 точное извлечение (доверие 39) [D3E505FD]
Трек 4 точное извлечение (доверие 39) [30DE2A4C]
Трек 5 точное извлечение (доверие 39) [2FF8BFA1]
Трек 6 точное извлечение (доверие 39) [3661C5C0]
Трек 7 точное извлечение (доверие 39) [1AC45CFB]
Трек 8 точное извлечение (доверие 39) [8BA09813]
Трек 9 точное извлечение (доверие 39) [EF047ED9]
Трек 10 точное извлечение (доверие 39) [AA2C8834]
Трек 11 точное извлечение (доверие 39) [132A23A3]

Все треки извлечены точно

Конец отчёта








[font="Georgia"]Год выпуска диска[/font]: 2000
[font="Georgia"]Производитель диска[/font]: UK
[font="Georgia"]Лейбл[/font]: Camino Records.
[font="Georgia"]Номер по каталогу[/font]: CAMCD21
[font="Georgia"]Продолжительность[/font]: 37min











01 - Cassandra
02 - Prizefighters
03 - Slot Machine
04 - Stadiums of the Damned
05 - Don't Fall
06 - Oh How I Love You
07 - Notre Dame Les Fleurs
08 - The Gulf




Exact Audio Copy V1.0 beta 3 from 29. August 2011

EAC extraction logfile from 21. June 2012, 14:28

Steve Hackett / Feedback 86

Used drive : PIONEER DVD-RW DVR-115D Adapter: 1 ID: 0

Read mode : Secure
Utilize accurate stream : Yes
Defeat audio cache : Yes
Make use of C2 pointers : No

Read offset correction : 48
Overread into Lead-In and Lead-Out : No
Fill up missing offset samples with silence : Yes
Delete leading and trailing silent blocks : No
Null samples used in CRC calculations : Yes
Used interface : Installed external ASPI interface

Used output format : User Defined Encoder
Selected bitrate : 320 kBit/s
Quality : High
Add ID3 tag : No
Command line compressor : C:\Program Files\Exact Audio Copy 1.0\Flac\flac.exe
Additional command line options : -V -8 -T "Genre=%genre%" -T "Artist=%artist%" -T "Title=%title%" -T "Album=%albumtitle%" -T "Date=%year%" -T "Tracknumber=%tracknr%" -T "Comment=%comment%" %source%

TOC of the extracted CD

Track | Start | Length | Start sector | End sector
---------------------------------------------------------
1 | 0:00.00 | 4:07.50 | 0 | 18574
2 | 4:07.50 | 5:13.20 | 18575 | 42069
3 | 9:20.70 | 4:23.05 | 42070 | 61799
4 | 13:44.00 | 4:42.52 | 61800 | 83001
5 | 18:26.52 | 4:25.58 | 83002 | 102934
6 | 22:52.35 | 3:58.27 | 102935 | 120811
7 | 26:50.62 | 3:11.73 | 120812 | 135209
8 | 30:02.60 | 7:19.32 | 135210 | 168166
9 | 39:54.17 | 36:27.72 | 179567 | 343663

Range status and errors

Selected range

Filename K:\Lossless Temp\Steve Hackett\Steve Hackett - Feedback 86 - 1986 (2000 Camino Records, CAMCD21)\Steve Hackett - Feedback 86.wav

Peak level 99.0 %
Extraction speed 5.8 X
Range quality 100.0 %
Test CRC 089EDB78
Copy CRC 089EDB78
Copy OK

No errors occurred

AccurateRip summary

Track 1 accurately ripped (confidence 13) [8132628D] (AR v1)
Track 2 accurately ripped (confidence 13) [6DE4ABF9] (AR v1)
Track 3 accurately ripped (confidence 13) [D28E13BA] (AR v1)
Track 4 accurately ripped (confidence 13) [DC4AC24F] (AR v1)
Track 5 accurately ripped (confidence 13) [5224D570] (AR v1)
Track 6 accurately ripped (confidence 13) [4A602743] (AR v1)
Track 7 accurately ripped (confidence 13) [7AC37D96] (AR v1)
Track 8 accurately ripped (confidence 13) [CC63A569] (AR v1)

All tracks accurately ripped

End of status report

==== Log checksum 002E48321817367B6C14CFB44C7A4A5AB85BFFA4D1DF14411BFBBE627F5FE24C ====







[font="Georgia"]Год выпуска диска[/font]: 2003
[font="Georgia"]Производитель диска[/font]: Germany
[font="Georgia"]Лейбл[/font]: Camino Records.
[font="Georgia"]Номер по каталогу[/font]: 6 93723 00342 9
[font="Georgia"]Продолжительность[/font]: 73min










01 - Strutton Ground
02 - Circus Of Becoming
03 - The Devil Is An Englishman
04 - Frozen Statues
05 - Mechanical Bride
06 - Wind, Sand And Stars
07 - Brand New
08 - This World
09 - Rebecca
10 - The Silk Road
11 - Pollution B
12 - Fire Island
13 - Marijuana Assassin Of Youth
14 - Come Away
15 - The Moon Under Water
16 - Serpentine Song
17 - If You Only Knew



Exact Audio Copy V0.99 prebeta 5 from 4. May 2009

Отчёт EAC об извлечении, выполненном 6. мая 2011, 22:54

Steve Hackett / To Watch The Storms

Дисковод: PIONEER DVD-RW DVR-115D Adapter: 1 ID: 0

Режим чтения : Достоверность
Использование точного потока : Да
Отключение кэша аудио : Да
Использование указателей C2 : Нет

Коррекция смещения при чтении : 48
Способность читать области Lead-in и Lead-out : Нет
Заполнение пропущенных сэмплов тишиной : Да
Удаление блоков с тишиной в начале и конце : Нет
При вычислениях CRC использовались нулевые сэмплы : Да
Интерфейс : Установленный внешний ASPI-интерфейс

Выходной формат : Внутренние WAV-операции
Формат сэмплов : 44.100 Гц; 16 бит; стерео

TOC извлечённого CD

Трек | Старт | Длительность | Начальный сектор | Конечный сектор
---------------------------------------------------------------------
1 | 0:00.00 | 3:04.68 | 0 | 13867
2 | 3:04.68 | 3:48.63 | 13868 | 31030
3 | 6:53.56 | 4:27.60 | 31031 | 51115
4 | 11:21.41 | 2:58.57 | 51116 | 64522
5 | 14:20.23 | 6:40.20 | 64523 | 94542
6 | 21:00.43 | 5:08.20 | 94543 | 117662
7 | 26:08.63 | 4:41.04 | 117663 | 138741
8 | 30:49.67 | 5:19.44 | 138742 | 162710
9 | 36:09.36 | 4:20.45 | 162711 | 182255
10 | 40:30.06 | 5:25.06 | 182256 | 206636
11 | 45:55.12 | 0:59.40 | 206637 | 211101
12 | 46:54.52 | 5:24.48 | 211102 | 235449
13 | 52:19.25 | 5:49.57 | 235450 | 261681
14 | 58:09.07 | 3:12.50 | 261682 | 276131
15 | 61:21.57 | 2:14.05 | 276132 | 286186
16 | 63:35.62 | 6:52.40 | 286187 | 317126
17 | 70:28.27 | 2:25.11 | 317127 | 328012

Характеристики диапазона извлечения и сообщения об ошибках

Выбранный диапазон

Имя файла K:\Lossless MUSIC Archive\Art Rock\England\Steve Hackett\15 - Steve Hackett - To Watch The Storms (Special Edition) - 2003 (Camino Records 2003, Special Edition 6 93723 00342 9)\Steve Hackett - To Watch The Storms Special Edition.wav

Пиковый уровень 95.6 %
Качество диапазона 99.9 %
CRC теста 6CDC6F31
CRC копии 6CDC6F31
Копирование... OK

Ошибок не произошло

AccurateRip: сводка

Трек 1 точное извлечение (доверие 30) [06F8FBC3]
Трек 2 точное извлечение (доверие 30) [4908C754]
Трек 3 точное извлечение (доверие 29) [C3279EDE]
Трек 4 точное извлечение (доверие 30) [5C923F1F]
Трек 5 точное извлечение (доверие 30) [712F01B0]
Трек 6 точное извлечение (доверие 30) [5EF978F6]
Трек 7 точное извлечение (доверие 30) [752A8368]
Трек 8 точное извлечение (доверие 30) [5A7DB85F]
Трек 9 точное извлечение (доверие 30) [D176E41C]
Трек 10 точное извлечение (доверие 28) [CB4704B1]
Трек 11 точное извлечение (доверие 29) [85381AB8]
Трек 12 точное извлечение (доверие 29) [E15E3DB0]
Трек 13 точное извлечение (доверие 30) [5B0DDDF4]
Трек 14 точное извлечение (доверие 30) [C1B39D93]
Трек 15 точное извлечение (доверие 30) [56B24C0F]
Трек 16 точное извлечение (доверие 30) [24B238A5]
Трек 17 точное извлечение (доверие 30) [D5F5ECDB]

Все треки извлечены точно

Конец отчёта








[font="Georgia"]Год выпуска диска[/font]: 2005
[font="Georgia"]Производитель диска[/font]: UK
[font="Georgia"]Лейбл[/font]: Camino Records.
[font="Georgia"]Номер по каталогу[/font]: CAMCD35
[font="Georgia"]Продолжительность[/font]: 57min










01 - The Pool Of Memory And The Pool Of Forgetfulness
02 - To Earth Like Rain
03 - Song To Nature
04 - One Real Flower
05 - The Dancing Ground
06 - That Vast Life
07 - Eurydice Taken
08 - Charon's Call
09 - Cerberus At Peace
10 - Under The World - Orpheus Looks Back
11 - The Broken Lyre
12 - Severance
13 - Elegy
14 - Return To The Realm Of Eternal Renewal
15 - Lyra




Exact Audio Copy V0.99 prebeta 5 from 4. May 2009

Отчёт EAC об извлечении, выполненном 7. мая 2011, 1:01

Steve Hackett / Metamorpheus

Дисковод: PIONEER DVD-RW DVR-115D Adapter: 1 ID: 0

Режим чтения : Достоверность
Использование точного потока : Да
Отключение кэша аудио : Да
Использование указателей C2 : Нет

Коррекция смещения при чтении : 48
Способность читать области Lead-in и Lead-out : Нет
Заполнение пропущенных сэмплов тишиной : Да
Удаление блоков с тишиной в начале и конце : Нет
При вычислениях CRC использовались нулевые сэмплы : Да
Интерфейс : Установленный внешний ASPI-интерфейс

Выходной формат : Внутренние WAV-операции
Формат сэмплов : 44.100 Гц; 16 бит; стерео

TOC извлечённого CD

Трек | Старт | Длительность | Начальный сектор | Конечный сектор
---------------------------------------------------------------------
1 | 0:00.00 | 2:14.62 | 0 | 10111
2 | 2:14.62 | 1:32.13 | 10112 | 17024
3 | 3:47.00 | 3:02.30 | 17025 | 30704
4 | 6:49.30 | 3:11.50 | 30705 | 45079
5 | 10:01.05 | 3:01.69 | 45080 | 58723
6 | 13:02.74 | 12:26.27 | 58724 | 114700
7 | 25:29.26 | 1:47.38 | 114701 | 122763
8 | 27:16.64 | 3:14.40 | 122764 | 137353
9 | 30:31.29 | 2:05.56 | 137354 | 146784
10 | 32:37.10 | 5:15.38 | 146785 | 170447
11 | 37:52.48 | 3:17.08 | 170448 | 185230
12 | 41:09.56 | 3:04.17 | 185231 | 199047
13 | 44:13.73 | 3:17.27 | 199048 | 213849
14 | 47:31.25 | 2:56.12 | 213850 | 227061
15 | 50:27.37 | 6:35.37 | 227062 | 256723

Характеристики диапазона извлечения и сообщения об ошибках

Выбранный диапазон

Имя файла K:\Lossless MUSIC Archive\Art Rock\England\Steve Hackett\16 - Steve Hackett - Metamorpheus - 2005 (Camino Records 2005, CAMCD35)\Steve Hackett - Metamorpheus.wav

Пиковый уровень 94.4 %
Качество диапазона 100.0 %
CRC теста 93EA3F89
CRC копии 93EA3F89
Копирование... OK

Ошибок не произошло

AccurateRip: сводка

Трек 1 точное извлечение (доверие 16) [245385D3]
Трек 2 точное извлечение (доверие 16) [EAB993FD]
Трек 3 точное извлечение (доверие 16) [09CCFDFE]
Трек 4 точное извлечение (доверие 16) [7D54B1CD]
Трек 5 точное извлечение (доверие 16) [DFBF0068]
Трек 6 точное извлечение (доверие 16) [8B40CD8B]
Трек 7 точное извлечение (доверие 16) [DC245D51]
Трек 8 точное извлечение (доверие 16) [08BDEFC7]
Трек 9 точное извлечение (доверие 16) [84343E8C]
Трек 10 точное извлечение (доверие 16) [04932C2A]
Трек 11 точное извлечение (доверие 16) [FD03C847]
Трек 12 точное извлечение (доверие 16) [57505456]
Трек 13 точное извлечение (доверие 16) [6A294AB8]
Трек 14 точное извлечение (доверие 16) [1352A6B4]
Трек 15 точное извлечение (доверие 15) [CC5A3598]

Все треки извлечены точно

Конец отчёта









[font="Georgia"]Год выпуска диска[/font]: 2006
[font="Georgia"]Производитель диска[/font]: USA
[font="Georgia"]Лейбл[/font]: Inside Out Music.
[font="Georgia"]Номер по каталогу[/font]: SPV 79172 CD
[font="Georgia"]Продолжительность[/font]: 58min










01 - A Dark Night In Toytown
02 - Waters Of The Wild
03 - Set Your Compass
04 - Down Street
05 - A Girl Called Linda
06 - To A Close
07 - Ego And Id
08 - Man In The Long Black Coat
09 - Wolfwork
10 - Why
11 - She Moves In Memories
12 - The Fundamentals Of Brainwashing
13 - Howl




Exact Audio Copy V0.99 prebeta 5 from 4. May 2009

Отчёт EAC об извлечении, выполненном 7. сентября 2011, 16:14

Steve Hackett / Wild Orchids

Дисковод: PIONEER DVD-RW DVR-115D Adapter: 1 ID: 0

Режим чтения : Достоверность
Использование точного потока : Да
Отключение кэша аудио : Да
Использование указателей C2 : Нет

Коррекция смещения при чтении : 48
Способность читать области Lead-in и Lead-out : Нет
Заполнение пропущенных сэмплов тишиной : Да
Удаление блоков с тишиной в начале и конце : Нет
При вычислениях CRC использовались нулевые сэмплы : Да
Интерфейс : Установленный внешний ASPI-интерфейс

Выходной формат : Внутренние WAV-операции
Формат сэмплов : 44.100 Гц; 16 бит; стерео

TOC извлечённого CD

Трек | Старт | Длительность | Начальный сектор | Конечный сектор
---------------------------------------------------------------------
1 | 0:00.00 | 3:38.63 | 0 | 16412
2 | 3:38.63 | 5:35.29 | 16413 | 41566
3 | 9:14.17 | 3:37.48 | 41567 | 57889
4 | 12:51.65 | 7:33.66 | 57890 | 91930
5 | 20:25.56 | 4:46.35 | 91931 | 113415
6 | 25:12.16 | 4:48.47 | 113416 | 135062
7 | 30:00.63 | 4:07.73 | 135063 | 153660
8 | 34:08.61 | 5:09.37 | 153661 | 176872
9 | 39:18.23 | 4:49.22 | 176873 | 198569
10 | 44:07.45 | 0:46.70 | 198570 | 202089
11 | 44:54.40 | 4:59.50 | 202090 | 224564
12 | 49:54.15 | 3:00.66 | 224565 | 238130
13 | 52:55.06 | 4:31.59 | 238131 | 258514

Характеристики диапазона извлечения и сообщения об ошибках

Выбранный диапазон

Имя файла M:\Lossless Temp\Steve Hackett\17 - Steve Hackett - Wild Orchids - 2006 (Inside Out Music 2006, SPV 79172 CD)\Steve Hackett - Wild Orchids.wav

Пиковый уровень 92.1 %
Качество диапазона 100.0 %
CRC теста F429B1DD
CRC копии F429B1DD
Копирование... OK

Ошибок не произошло

AccurateRip: сводка

Трек 1 точное извлечение (доверие 4) [3664FA50]
Трек 2 точное извлечение (доверие 4) [7ED70E64]
Трек 3 точное извлечение (доверие 4) [E6FAAEFD]
Трек 4 точное извлечение (доверие 4) [8A9D63F9]
Трек 5 точное извлечение (доверие 4) [F6C16AEA]
Трек 6 точное извлечение (доверие 4) [6120152C]
Трек 7 точное извлечение (доверие 4) [188099B7]
Трек 8 точное извлечение (доверие 4) [2B7EFC5D]
Трек 9 точное извлечение (доверие 4) [FF6ED75D]
Трек 10 точное извлечение (доверие 4) [D4A00F5E]
Трек 11 точное извлечение (доверие 4) [C898C158]
Трек 12 точное извлечение (доверие 4) [711DFEE3]
Трек 13 точное извлечение (доверие 4) [22154ACA]

Все треки извлечены точно

Конец отчёта









[font="Georgia"]Год выпуска диска[/font]: 2007
[font="Georgia"]Производитель диска[/font]: Germany
[font="Georgia"]Лейбл[/font]: Camino Records/Edel.
[font="Georgia"]Номер по каталогу[/font]: 0187382ERE
[font="Georgia"]Продолжительность[/font]: 51min










01 - Two Gavottes, BWV 1012
02 - Courante, BWV 1009
03 - Jesu Joy, BWV 147
04 - The Fountain Suite
05 - The Earle of Salisbury
06 - La Catedral
07 - El Noy de La Mare
08 - Cascada
09 - Sapphires
10 - Prelude in D, BWV 998
11 - Prelude in C Minor, BWV 999
12 - Chaconne, BWV 1004
13 - La Maja de Goya




Exact Audio Copy V0.99 prebeta 5 from 4. May 2009

Отчёт EAC об извлечении, выполненном 7. мая 2011, 1:56

Hackett, Steve / Tribute

Дисковод: PIONEER DVD-RW DVR-115D Adapter: 1 ID: 0

Режим чтения : Достоверность
Использование точного потока : Да
Отключение кэша аудио : Да
Использование указателей C2 : Нет

Коррекция смещения при чтении : 48
Способность читать области Lead-in и Lead-out : Нет
Заполнение пропущенных сэмплов тишиной : Да
Удаление блоков с тишиной в начале и конце : Нет
При вычислениях CRC использовались нулевые сэмплы : Да
Интерфейс : Установленный внешний ASPI-интерфейс

Выходной формат : Внутренние WAV-операции
Формат сэмплов : 44.100 Гц; 16 бит; стерео

TOC извлечённого CD

Трек | Старт | Длительность | Начальный сектор | Конечный сектор
---------------------------------------------------------------------
1 | 0:00.00 | 3:59.00 | 0 | 17924
2 | 3:59.00 | 3:05.00 | 17925 | 31799
3 | 7:04.00 | 3:25.61 | 31800 | 47235
4 | 10:29.61 | 8:19.18 | 47236 | 84678
5 | 18:49.04 | 1:29.71 | 84679 | 91424
6 | 20:19.00 | 2:53.00 | 91425 | 104399
7 | 23:12.00 | 2:13.08 | 104400 | 114382
8 | 25:25.08 | 3:03.67 | 114383 | 128174
9 | 28:29.00 | 1:41.44 | 128175 | 135793
10 | 30:10.44 | 1:49.52 | 135794 | 144020
11 | 32:00.21 | 1:13.72 | 144021 | 149567
12 | 33:14.18 | 12:34.40 | 149568 | 206157
13 | 45:48.58 | 4:59.17 | 206158 | 228599

Характеристики диапазона извлечения и сообщения об ошибках

Выбранный диапазон

Имя файла K:\Lossless MUSIC Archive\Art Rock\England\Steve Hackett\18 - Steve Hackett - Tribute - 2007 (Camino Records 2007, Edel Records 0187382ERE, Germany)\Hackett, Steve - Tribute.wav

Пиковый уровень 71.5 %
Качество диапазона 99.9 %
CRC теста 6FDF34CE
CRC копии 6FDF34CE
Копирование... OK

Ошибок не произошло

AccurateRip: сводка

Трек 1 точность не определена (достоверность 10) [99EBBD54], AccurateRip вернул [4FA4EC81]
Трек 2 точность не определена (достоверность 10) [B4615480], AccurateRip вернул [1C5DB505]
Трек 3 точное извлечение (доверие 2) [E85F3DB8]
Трек 4 точность не определена (достоверность 10) [D13851C9], AccurateRip вернул [C951B121]
Трек 5 точность не определена (достоверность 10) [E5FE449A], AccurateRip вернул [942C4EA0]
Трек 6 точность не определена (достоверность 10) [D9F0899F], AccurateRip вернул [35E88A39]
Трек 7 точность не определена (достоверность 10) [A68243E7], AccurateRip вернул [9C230445]
Трек 8 точность не определена (достоверность 10) [8CDD298F], AccurateRip вернул [0F49A598]
Трек 9 точность не определена (достоверность 10) [F19F1211], AccurateRip вернул [C5FC8E32]
Трек 10 точность не определена (достоверность 10) [B33E2900], AccurateRip вернул [E84D02B2]
Трек 11 точность не определена (достоверность 10) [E79DD580], AccurateRip вернул [264799A3]
Трек 12 точность не определена (достоверность 10) [40F83F7F], AccurateRip вернул [C9BD6CF4]
Трек 13 точность не определена (достоверность 10) [DB623756], AccurateRip вернул [04F62A61]

1 трек(и) скопированы точно
12 трек(и) не удалось проверить на точность

Некоторые треки не прошли проверку на точность

Конец отчёта









[font="Georgia"]Год выпуска диска[/font]: 2010
[font="Georgia"]Производитель диска[/font]: Germany
[font="Georgia"]Лейбл[/font]: Inside Out Music.
[font="Georgia"]Номер по каталогу[/font]: 0505382
[font="Georgia"]Продолжительность[/font]: 46min










01 - Fire on the Moon
02 - Nomads
03 - Emerald and Ash
04 - Tubehead
05 - Sleepers
06 - Ghost in the Glass
07 - Still Waters
08 - Last Train to Istanbul




Exact Audio Copy V0.99 prebeta 5 from 4. May 2009

Отчёт EAC об извлечении, выполненном 7. мая 2011, 2:16

Steve Hackett / Out of the Tunnel's Mouth

Дисковод: PIONEER DVD-RW DVR-115D Adapter: 1 ID: 0

Режим чтения : Достоверность
Использование точного потока : Да
Отключение кэша аудио : Да
Использование указателей C2 : Нет

Коррекция смещения при чтении : 48
Способность читать области Lead-in и Lead-out : Нет
Заполнение пропущенных сэмплов тишиной : Да
Удаление блоков с тишиной в начале и конце : Нет
При вычислениях CRC использовались нулевые сэмплы : Да
Интерфейс : Установленный внешний ASPI-интерфейс

Выходной формат : Внутренние WAV-операции
Формат сэмплов : 44.100 Гц; 16 бит; стерео

TOC извлечённого CD

Трек | Старт | Длительность | Начальный сектор | Конечный сектор
---------------------------------------------------------------------
1 | 0:00.00 | 6:11.51 | 0 | 27875
2 | 6:11.51 | 4:31.48 | 27876 | 48248
3 | 10:43.24 | 8:59.27 | 48249 | 88700
4 | 19:42.51 | 3:36.61 | 88701 | 104961
5 | 23:19.37 | 8:50.53 | 104962 | 144764
6 | 32:10.15 | 2:59.63 | 144765 | 158252
7 | 35:10.03 | 4:35.38 | 158253 | 178915
8 | 39:45.41 | 5:56.54 | 178916 | 205669

Характеристики диапазона извлечения и сообщения об ошибках

Выбранный диапазон

Имя файла K:\Lossless MUSIC Archive\Art Rock\England\Steve Hackett\19 - Steve Hackett - Out of the Tunnel's Mouth - 2009 (Inside Out Music 2010, 0505382)\Steve Hackett - Out of the Tunnel's Mouth.wav

Пиковый уровень 96.0 %
Качество диапазона 100.0 %
CRC теста 0499117C
CRC копии 0499117C
Копирование... OK

Ошибок не произошло

AccurateRip: сводка

Трек 1 точное извлечение (доверие 34) [7D9C2333]
Трек 2 точное извлечение (доверие 34) [7ADC9259]
Трек 3 точное извлечение (доверие 34) [A311C3AD]
Трек 4 точное извлечение (доверие 34) [5D62755D]
Трек 5 точное извлечение (доверие 34) [010DD4EB]
Трек 6 точное извлечение (доверие 33) [7BFFC07D]
Трек 7 точное извлечение (доверие 34) [947AE821]
Трек 8 точное извлечение (доверие 34) [25582F12]

Все треки извлечены точно

Конец отчёта









[font="Georgia"]Год выпуска диска[/font]: 2011
[font="Georgia"]Производитель диска[/font]: USA
[font="Georgia"]Лейбл[/font]: Inside Out Music.
[font="Georgia"]Номер по каталогу[/font]: 0563-2
[font="Georgia"]Продолжительность[/font]: 87min
















01 - Loch Lomond
02 - The Phoenix Flown
03 - Wanderlust
04 - Til These Eyes
05 - Prairie Angel
06 - A Place Called Freedom
07 - Between the Sunset and the Coconut Palms
08 - Waking to Life
09 - Two Faces of Cairo
10 - Looking For Fantasy
11 - Summer's Breath
12 - Catwalk
13 - Turn This Island Earth




[font="Georgia"]
01 - Steve Hackett / Four Winds: North
02 - Steve Hackett / Four Winds: South
03 - Steve Hackett / Four Winds: East
04 - Steve Hackett / Four Winds: West
05 - Steve Hackett / Pieds En L'Air
06 - Steve Hackett / She Said Maybe
07 - Steve Hackett / Enter The Night
08 - Steve Hackett / Eruption: Tommy
09 - Steve Hackett / Reconditioned Nightmare
[/font]







Exact Audio Copy V1.0 beta 3 from 29. August 2011

EAC extraction logfile from 22. December 2012, 20:22

Steve Hackett / Beyond the Shrouded Horizon [Special Edition] (Disc 1)

Used drive : PLEXTOR DVDR PX-891SA Adapter: 0 ID: 2

Read mode : Secure
Utilize accurate stream : Yes
Defeat audio cache : Yes
Make use of C2 pointers : No

Read offset correction : 6
Overread into Lead-In and Lead-Out : No
Fill up missing offset samples with silence : Yes
Delete leading and trailing silent blocks : No
Null samples used in CRC calculations : Yes
Used interface : Installed external ASPI interface

Used output format : User Defined Encoder
Selected bitrate : 320 kBit/s
Quality : High
Add ID3 tag : No
Command line compressor : C:\Program Files\Exact Audio Copy 1.0\Flac\flac.exe
Additional command line options : -V -8 -T "Genre=%genre%" -T "Artist=%artist%" -T "Title=%title%" -T "Album=%albumtitle%" -T "Date=%year%" -T "Tracknumber=%tracknr%" -T "Comment=%comment%" %source%

TOC of the extracted CD

Track | Start | Length | Start sector | End sector
---------------------------------------------------------
1 | 0:00.00 | 6:49.35 | 0 | 30709
2 | 6:49.35 | 2:07.74 | 30710 | 40308
3 | 8:57.34 | 0:44.08 | 40309 | 43616
4 | 9:41.42 | 2:40.70 | 43617 | 55686
5 | 12:22.37 | 2:58.52 | 55687 | 69088
6 | 15:21.14 | 5:56.45 | 69089 | 95833
7 | 21:17.59 | 3:17.67 | 95834 | 110675
8 | 24:35.51 | 4:49.49 | 110676 | 132399
9 | 29:25.25 | 5:13.15 | 132400 | 155889
10 | 34:38.40 | 4:32.60 | 155890 | 176349
11 | 39:11.25 | 1:12.20 | 176350 | 181769
12 | 40:23.45 | 5:44.08 | 181770 | 207577
13 | 46:07.53 | 11:50.52 | 207578 | 260879

Range status and errors

Selected range

Filename K:\Lossless Temp\Steve Hackett\20 - Steve Hackett - Beyond The Shrouded Horizon - 2011 (Inside Out Music 2011, 0563-2)\Disc 1\Steve Hackett - Beyond the Shrouded Horizon [Special Edition] (Disc 1).wav

Peak level 94.9 %
Extraction speed 6.0 X
Range quality 99.9 %
Test CRC A669BB1E
Copy CRC A669BB1E
Copy OK

No errors occurred

AccurateRip summary

Track 1 accurately ripped (confidence 2) [DFFBBBC0] (AR v2)
Track 2 accurately ripped (confidence 2) [638906E9] (AR v2)
Track 3 accurately ripped (confidence 2) [2193F0C5] (AR v2)
Track 4 accurately ripped (confidence 2) [F2B81897] (AR v2)
Track 5 accurately ripped (confidence 2) [B9C8EB34] (AR v2)
Track 6 accurately ripped (confidence 2) [8981A0E5] (AR v2)
Track 7 accurately ripped (confidence 2) [C33CCBF5] (AR v2)
Track 8 accurately ripped (confidence 2) [C560D2E5] (AR v2)
Track 9 accurately ripped (confidence 2) [671CD2E6] (AR v2)
Track 10 accurately ripped (confidence 2) [60AC6B27] (AR v2)
Track 11 accurately ripped (confidence 2) [DAB33159] (AR v2)
Track 12 accurately ripped (confidence 2) [C845DC26] (AR v2)
Track 13 accurately ripped (confidence 2) [F687453F] (AR v2)

All tracks accurately ripped

End of status report

==== Log checksum 5CED2EEB710C75C78F8C5D7E1F9332A2FCA2E7FE7D85299498A1B9EBF8EFF9F7 ====



Exact Audio Copy V1.0 beta 3 from 29. August 2011

EAC extraction logfile from 22. December 2012, 20:48

Steve Hackett / Beyond the Shrouded Horizon - Disc 2

Used drive : PLEXTOR DVDR PX-891SA Adapter: 0 ID: 2

Read mode : Secure
Utilize accurate stream : Yes
Defeat audio cache : Yes
Make use of C2 pointers : No

Read offset correction : 6
Overread into Lead-In and Lead-Out : No
Fill up missing offset samples with silence : Yes
Delete leading and trailing silent blocks : No
Null samples used in CRC calculations : Yes
Used interface : Installed external ASPI interface

Used output format : User Defined Encoder
Selected bitrate : 320 kBit/s
Quality : High
Add ID3 tag : No
Command line compressor : C:\Program Files\Exact Audio Copy 1.0\Flac\flac.exe
Additional command line options : -V -8 -T "Genre=%genre%" -T "Artist=%artist%" -T "Title=%title%" -T "Album=%albumtitle%" -T "Date=%year%" -T "Tracknumber=%tracknr%" -T "Comment=%comment%" %source%

TOC of the extracted CD

Track | Start | Length | Start sector | End sector
---------------------------------------------------------
1 | 0:00.00 | 1:34.43 | 0 | 7092
2 | 1:34.43 | 2:05.73 | 7093 | 16540
3 | 3:40.41 | 3:34.27 | 16541 | 32617
4 | 7:14.68 | 3:04.17 | 32618 | 46434
5 | 10:19.10 | 2:25.52 | 46435 | 57361
6 | 12:44.62 | 4:21.08 | 57362 | 76944
7 | 17:05.70 | 3:59.57 | 76945 | 94926
8 | 21:05.52 | 3:37.20 | 94927 | 111221
9 | 24:42.72 | 4:06.10 | 111222 | 129681

Range status and errors

Selected range

Filename K:\Lossless Temp\Steve Hackett\20 - Steve Hackett - Beyond The Shrouded Horizon - 2011 (Inside Out Music 2011, 0563-2)\Disc 2\Steve Hackett - Beyond the Shrouded Horizon - Disc 2.wav

Peak level 94.9 %
Extraction speed 5.6 X
Range quality 100.0 %
Test CRC 6BF553C4
Copy CRC 6BF553C4
Copy OK

No errors occurred

AccurateRip summary

Track 1 cannot be verified as accurate (confidence 6) [C15D1084], AccurateRip returned [CB627E52] (AR v2)
Track 2 cannot be verified as accurate (confidence 6) [710FC126], AccurateRip returned [ADC0DF7C] (AR v2)
Track 3 cannot be verified as accurate (confidence 6) [123A5BCA], AccurateRip returned [C42B62C3] (AR v2)
Track 4 cannot be verified as accurate (confidence 6) [BDE432FD], AccurateRip returned [829827D9] (AR v2)
Track 5 cannot be verified as accurate (confidence 6) [3978A3C6], AccurateRip returned [BA571A92] (AR v2)
Track 6 cannot be verified as accurate (confidence 6) [02936292], AccurateRip returned [232D52F5] (AR v2)
Track 7 cannot be verified as accurate (confidence 6) [846E8B41], AccurateRip returned [3E17959B] (AR v2)
Track 8 cannot be verified as accurate (confidence 6) [74E1A2A5], AccurateRip returned [45D8A2C8] (AR v2)
Track 9 cannot be verified as accurate (confidence 6) [36B554B2], AccurateRip returned [68A99AD6] (AR v2)

No tracks could be verified as accurate
You may have a different pressing from the one(s) in the database

End of status report

==== Log checksum 07A1A1694FD52A38E61D65E056FFBF784656C30D95E10869920B45A55B064A39 ====




Правила, инструкции, FAQ!!!
Торрент  Добавлен [18 янв 2013, 20:39] Скачать торрент Магнет ссылка
Скачать торрент
84.25 КБ

Статус
Проверен 
 
Размер  8.47 ГБ
Приватный: Нет (DHT включён)
.torrent скачан  0
Как залить торрент? | Как скачать Torrent? | Как смотреть и слушать онлайн?  
Гость
 



Вернуться в Дискографии (Зарубежные)

Кто сейчас на конференции

Сейчас этот форум просматривают: нет зарегистрированных пользователей и гости: 0