Stereophonics - 9 альбомов (1997 - 2009) [FLAC|APE|Lossless]<Alternative Rock>


Статистика раздачи
Размер: 4.21 ГБ | Добавлен: 30 май 2014, 00:13 | Скачали: 0
Сидеров: 2  [0 байт/сек]    Личеров: 94  [0 байт/сек]

Сообщение Гость » 30 май 2014, 00:13


Stereophonics - 9 альбомов (1997 - 2009)

Год:
1997 - 2009 | Жанр: Alternative Rock, Indie | Продолжительность: 09:59:54 | Кодек: FLAC, APE | Битрейт: Lossless

Трек лист:
Треклист:

01. A Thousand Trees (3:03)
02. Looks Like Chaplin (2:32)
03. More Life In A Tramps Vest (2:20)
04. Local Boy In The Photograph (3:22)
05. Traffic (4:54)
06. Not Up To You (4:37)
07. Check My Eyelids For Holes (2:43)
08. Same Size Feet (4:00)
09. Last Of The Big Time Drinkers (2:45)
10. Goldfish Bowl (3:03)
11. Too Many Sandwiches (5:03)
12. Billy Daveys Daughter (3:45)
Код:
Код: Выделить всё
Exact Audio Copy V0.99 prebeta 5 from 4. May 2009

EAC extraction logfile from 23. March 2011, 10:26

Stereophonics / Word Gets Around

Used drive  : TSSTcorpCDDVDW SH-S203B   Adapter: 2  ID: 0

Read mode               : Secure
Utilize accurate stream : Yes
Defeat audio cache      : Yes
Make use of C2 pointers : No

Read offset correction                      : 6
Overread into Lead-In and Lead-Out          : No
Fill up missing offset samples with silence : Yes
Delete leading and trailing silent blocks   : No
Null samples used in CRC calculations       : Yes
Used interface                              : Native Win32 interface for Win NT & 2000

Used output format : Internal WAV Routines
Sample format      : 44.100 Hz; 16 Bit; Stereo

TOC of the extracted CD

     Track |   Start  |  Length  | Start sector | End sector
    ---------------------------------------------------------
        1  |  0:00.00 |  3:03.07 |         0    |    13731
        2  |  3:03.07 |  2:32.33 |     13732    |    25164
        3  |  5:35.40 |  2:19.70 |     25165    |    35659
        4  |  7:55.35 |  3:21.72 |     35660    |    50806
        5  | 11:17.32 |  4:54.20 |     50807    |    72876
        6  | 16:11.52 |  4:37.25 |     72877    |    93676
        7  | 20:49.02 |  2:43.05 |     93677    |   105906
        8  | 23:32.07 |  3:59.73 |    105907    |   123904
        9  | 27:32.05 |  2:45.37 |    123905    |   136316
       10  | 30:17.42 |  3:02.43 |    136317    |   150009
       11  | 33:20.10 |  5:03.02 |    150010    |   172736
       12  | 38:23.12 |  3:44.65 |    172737    |   189601

Range status and errors

Selected range

     Filename C:\Incoming\Stereophonics (USA Press)\1997-Word Gets Around [V2 63881-27006-2, USA]\Stereophonics - Word Gets Around [V2 63881-27006-2, USA].wav

     Peak level 100.0 %
     Range quality 99.9 %
     Test CRC 4ECD138E
     Copy CRC 4ECD138E
     Copy OK

No errors occurred

AccurateRip summary

Track  1  accurately ripped (confidence 11)  [7474C9AB]
Track  2  accurately ripped (confidence 11)  [D043E209]
Track  3  accurately ripped (confidence 11)  [93C24B52]
Track  4  accurately ripped (confidence 11)  [ABA371C5]
Track  5  accurately ripped (confidence 10)  [56DC38BD]
Track  6  accurately ripped (confidence 11)  [DFD113FF]
Track  7  accurately ripped (confidence 11)  [78DF60FB]
Track  8  accurately ripped (confidence 10)  [1B207270]
Track  9  accurately ripped (confidence 10)  [7706ADBC]
Track 10  accurately ripped (confidence 10)  [251377C0]
Track 11  accurately ripped (confidence 11)  [7E8985E1]
Track 12  accurately ripped (confidence 10)  [71E0C09F]

All tracks accurately ripped

End of status report
Код:
Код: Выделить всё
-----------------------

DON'T MODIFY THIS FILE

-----------------------

PERFORMER: auCDtect Task Manager, ver. 1.5.1RC4 build 1.5.1.5
Copyright (c) 2008-2010 y-soft. All rights reserved
http:/y-soft.org

ANALYZER: auCDtect: CD records authenticity detector, version 0.8.2
Copyright (c) 2004 Oleg Berngardt. All rights reserved.
Copyright (c) 2004 Alexander Djourik. All rights reserved.

FILE: Stereophonics - Word Gets Around [V2 63881-27006-2, USA].ape
  Size: 295572656 Hash: 61125A2B4942122D94CF6F22FB63BE5B Accuracy: -m0
  Conclusion: CDDA 100%
  Signature: 0ABA7B0048F18955DCCC4AF6A17D18B534562A79
Продолжительность: 00:42:08
APE (image + .cue)
#777Треклист:

01. Roll Up and Shine (3:58)
02. The Bartender And The Thief (2:54)
03. Hurry Up And Wait (4:40)
04. Pick A Part That's New (3:34)
05. Just Looking (4:14)
06. Half The Lies You Tell Ain't True (2:55)
07. I Wouldn't Believe Your Radio (3:50)
08. T-Shirt Sun Tan (4:05)
09. Is Yesterday, Tomorrow, Today? (4:02)
10. A Minute Longer (3:46)
11. She Takes Her Clothes Off (3:56)
12. Plastic California (4:30)
13. I Stopped To Fill My Car Up (4:31)
Код:
Код: Выделить всё
Exact Audio Copy V0.99 prebeta 5 from 4. May 2009

EAC extraction logfile from 23. March 2011, 10:48

Stereophonics / Performance and Cocktails

Used drive  : TSSTcorpCDDVDW SH-S203B   Adapter: 2  ID: 0

Read mode               : Secure
Utilize accurate stream : Yes
Defeat audio cache      : Yes
Make use of C2 pointers : No

Read offset correction                      : 6
Overread into Lead-In and Lead-Out          : No
Fill up missing offset samples with silence : Yes
Delete leading and trailing silent blocks   : No
Null samples used in CRC calculations       : Yes
Used interface                              : Native Win32 interface for Win NT & 2000

Used output format : Internal WAV Routines
Sample format      : 44.100 Hz; 16 Bit; Stereo

TOC of the extracted CD

     Track |   Start  |  Length  | Start sector | End sector
    ---------------------------------------------------------
        1  |  0:00.00 |  3:57.39 |         0    |    17813
        2  |  3:57.39 |  2:54.37 |     17814    |    30900
        3  |  6:52.01 |  4:40.15 |     30901    |    51915
        4  | 11:32.16 |  3:33.47 |     51916    |    67937
        5  | 15:05.63 |  4:13.54 |     67938    |    86966
        6  | 19:19.42 |  2:54.74 |     86967    |   100090
        7  | 22:14.41 |  3:50.29 |    100091    |   117369
        8  | 26:04.70 |  4:04.69 |    117370    |   135738
        9  | 30:09.64 |  4:02.32 |    135739    |   153920
       10  | 34:12.21 |  3:46.21 |    153921    |   170891
       11  | 37:58.42 |  3:55.66 |    170892    |   188582
       12  | 41:54.33 |  4:30.29 |    188583    |   208861
       13  | 46:24.62 |  4:31.29 |    208862    |   229215

Range status and errors

Selected range

     Filename C:\Incoming\Stereophonics (USA Press)\1999-Performance and Cocktails [V2 63881-27052-2, USA]\Stereophonics - Performance and Cocktails [V2 63881-27052-2, USA].wav

     Peak level 99.9 %
     Range quality 100.0 %
     Test CRC C14B60E2
     Copy CRC C14B60E2
     Copy OK

No errors occurred

AccurateRip summary

Track  1  accurately ripped (confidence 23)  [5CA13CD2]
Track  2  accurately ripped (confidence 23)  [C036A609]
Track  3  accurately ripped (confidence 23)  [12441E50]
Track  4  accurately ripped (confidence 23)  [959C23EB]
Track  5  accurately ripped (confidence 23)  [873AA2A8]
Track  6  accurately ripped (confidence 23)  [A383FDCF]
Track  7  accurately ripped (confidence 23)  [ABB105C8]
Track  8  accurately ripped (confidence 19)  [D5E728DE]
Track  9  accurately ripped (confidence 19)  [7AEC5CFE]
Track 10  accurately ripped (confidence 18)  [95057714]
Track 11  accurately ripped (confidence 19)  [3ECA8571]
Track 12  accurately ripped (confidence 18)  [10605439]
Track 13  accurately ripped (confidence 19)  [4C2B69E2]

All tracks accurately ripped

End of status report
Код:
Код: Выделить всё
-----------------------

DON'T MODIFY THIS FILE

-----------------------

PERFORMER: auCDtect Task Manager, ver. 1.5.1RC4 build 1.5.1.5
Copyright (c) 2008-2010 y-soft. All rights reserved
http:/y-soft.org

ANALYZER: auCDtect: CD records authenticity detector, version 0.8.2
Copyright (c) 2004 Oleg Berngardt. All rights reserved.
Copyright (c) 2004 Alexander Djourik. All rights reserved.

FILE: Stereophonics - Performance and Cocktails [V2 63881-27052-2, USA].ape
  Size: 367325760 Hash: 671206EB8434CD43513DBF58B4F3D0A9 Accuracy: -m0
  Conclusion: CDDA 100%
  Signature: B2C760EE78C016EDD983B36A0BCEF1BA1C33BEFB
Продолжительность: 00:50:56 APE (image + .cue)
#777Треклист:

01. Vegas Two Times (4:29)
02. Lying In The Sun (4:31)
03. Mr. Writer (5:19)
04. Step On My Old Size Nines (4:01)
05. Have A Nice Day (3:25)
06. Nice To Be Out (3:09)
07. Watch Them Fly Sundays (3:30)
08. Everyday I Think Of Money (3:25)
09. Maybe (4:35)
10. Caravan Holiday (3:13)
11. Rooftop (6:15)
Код:
Код: Выделить всё
Exact Audio Copy V0.99 prebeta 5 from 4. May 2009

EAC extraction logfile from 23. March 2011, 11:05

Stereophonics / Just Enough Education To Perform

Used drive  : TSSTcorpCDDVDW SH-S203B   Adapter: 2  ID: 0

Read mode               : Secure
Utilize accurate stream : Yes
Defeat audio cache      : Yes
Make use of C2 pointers : No

Read offset correction                      : 6
Overread into Lead-In and Lead-Out          : No
Fill up missing offset samples with silence : Yes
Delete leading and trailing silent blocks   : No
Null samples used in CRC calculations       : Yes
Used interface                              : Native Win32 interface for Win NT & 2000

Used output format : Internal WAV Routines
Sample format      : 44.100 Hz; 16 Bit; Stereo

TOC of the extracted CD

     Track |   Start  |  Length  | Start sector | End sector
    ---------------------------------------------------------
        1  |  0:00.00 |  4:28.47 |         0    |    20146
        2  |  4:28.47 |  4:31.23 |     20147    |    40494
        3  |  8:59.70 |  5:19.22 |     40495    |    64441
        4  | 14:19.17 |  4:00.63 |     64442    |    82504
        5  | 18:20.05 |  3:25.05 |     82505    |    97884
        6  | 21:45.10 |  3:08.67 |     97885    |   112051
        7  | 24:54.02 |  3:29.50 |    112052    |   127776
        8  | 28:23.52 |  3:24.43 |    127777    |   143119
        9  | 31:48.20 |  4:34.42 |    143120    |   163711
       10  | 36:22.62 |  3:12.53 |    163712    |   178164
       11  | 39:35.40 |  6:15.22 |    178165    |   206311

Range status and errors

Selected range

     Filename C:\Incoming\Stereophonics (USA Press)\2001-Just Enough Education to Perform [V2 63881-27092-2, USA]\Stereophonics - Just Enough Education to Perform [V2 63881-27092-2, USA].wav

     Peak level 99.6 %
     Range quality 99.9 %
     Test CRC 2A91BB6A
     Copy CRC 2A91BB6A
     Copy OK

No errors occurred

AccurateRip summary

Track  1  accurately ripped (confidence 15)  [8BE111BA]
Track  2  accurately ripped (confidence 15)  [93AF9EAA]
Track  3  accurately ripped (confidence 14)  [42E848B6]
Track  4  accurately ripped (confidence 15)  [753A2D49]
Track  5  accurately ripped (confidence 14)  [E199E95D]
Track  6  accurately ripped (confidence 14)  [2DC0FF80]
Track  7  accurately ripped (confidence 15)  [5BB959A8]
Track  8  accurately ripped (confidence 15)  [05CF9B53]
Track  9  accurately ripped (confidence 14)  [00F90CEE]
Track 10  accurately ripped (confidence 14)  [DDD8E989]
Track 11  accurately ripped (confidence 15)  [21925EDE]

All tracks accurately ripped

End of status report
Код:
Код: Выделить всё
-----------------------

DON'T MODIFY THIS FILE

-----------------------

PERFORMER: auCDtect Task Manager, ver. 1.5.1RC4 build 1.5.1.5
Copyright (c) 2008-2010 y-soft. All rights reserved
http:/y-soft.org

ANALYZER: auCDtect: CD records authenticity detector, version 0.8.2
Copyright (c) 2004 Oleg Berngardt. All rights reserved.
Copyright (c) 2004 Alexander Djourik. All rights reserved.

FILE: Stereophonics - Just Enough Education to Perform [V2 63881-27092-2, USA].ape
  Size: 322211532 Hash: 1F5FFB93F7CDCF4077541445CA8ACEBD Accuracy: -m0
  Conclusion: CDDA 100%
  Signature: FA45E1CDA72AE570724A3D87F74CE9D8762E72E3
Продолжительность: 00:45:51
APE (image + .cue)
#777Треклист:

01. Help Me (She's Out of Her Mind) (6:55)
02. Maybe Tomorrow (4:33)
03. Madame Helga (3:55)
04. You Stole My Money Honey (4:18)
05. Getaway (4:09)
06. Climbing the Wall (4:55)
07. Jealousy (4:26)
08. I'm Alright (You Gotta Go There to Come Back) (4:37)
09. Nothing Precious at All (4:20)
10. Rainbows and Pots of Gold (4:11)
11. I Miss You Now (4:51)
12. High as the Ceiling (3:20)
13. Since I Told You It's Over (4:41)
Код:
Код: Выделить всё
Exact Audio Copy V0.99 prebeta 3 from 28. July 2007

EAC extraction logfile from 20. February 2008, 23:53

Stereophonics / You Gotta Go There to Come Back

Used drive  : TEAC    DV-W516GD   Adapter: 1  ID: 0

Read mode               : Secure
Utilize accurate stream : Yes
Defeat audio cache      : Yes
Make use of C2 pointers : Yes

Read offset correction                      : 6
Overread into Lead-In and Lead-Out          : No
Fill up missing offset samples with silence : Yes
Delete leading and trailing silent blocks   : No
Null samples used in CRC calculations       : Yes
Used interface                              : Installed external ASPI interface

Used output format : Internal WAV Routines
Sample format      : 44.100 Hz; 16 Bit; Stereo

TOC of the extracted CD

     Track |   Start  |  Length  | Start sector | End sector
    ---------------------------------------------------------
        1  |  0:00.00 |  6:54.65 |         0    |    31114
        2  |  6:54.65 |  4:33.15 |     31115    |    51604
        3  | 11:28.05 |  3:55.20 |     51605    |    69249
        4  | 15:23.25 |  4:18.00 |     69250    |    88599
        5  | 19:41.25 |  4:08.72 |     88600    |   107271
        6  | 23:50.22 |  4:55.25 |    107272    |   129421
        7  | 28:45.47 |  4:26.10 |    129422    |   149381
        8  | 33:11.57 |  4:36.73 |    149382    |   170154
        9  | 37:48.55 |  4:19.60 |    170155    |   189639
       10  | 42:08.40 |  4:11.07 |    189640    |   208471
       11  | 46:19.47 |  4:50.70 |    208472    |   230291
       12  | 51:10.42 |  3:19.53 |    230292    |   245269
       13  | 54:30.20 |  4:41.15 |    245270    |   266359

Range status and errors

Selected range

     Filename D:\MUSIC\Stereophonics - You Gotta Go There to Come Back\Stereophonics - You Gotta Go There to Come Back.wav

     Peak level 98.7 %
     Range quality 100.0 %
     Copy CRC DB51DFFC
     Copy OK

No errors occurred

End of status report
Код:
Код: Выделить всё
-----------------------

DON'T MODIFY THIS FILE

-----------------------

PERFORMER: auCDtect Task Manager, ver. 1.5.1RC6 build 1.5.1.7
Copyright (c) 2008-2010 y-soft. All rights reserved
http:/y-soft.org

ANALYZER: auCDtect: CD records authenticity detector, version 0.8.2
Copyright (c) 2004 Oleg Berngardt. All rights reserved.
Copyright (c) 2004 Alexander Djourik. All rights reserved.

FILE: Stereophonics - You Gotta Go There to Come Back.flac
  Size: 425819729 Hash: 5BA3225F070C380FD0B01238DA1E5AF4 Accuracy: -m0
  Conclusion: CDDA 100%
  Signature: 357588E0F1623F353E54E640CBCBBEC6631026B7
Продолжительность: 00:59:11
FLAC (image + .cue)
#777Треклист:

01. Superman (5:08)
02. Doorman (3:49)
03. Brother (4:05)
04. Devil (4:41)
05. Dakota (4:57)
06. Rewind (4:46)
07. Pedalpusher (3:18)
08. Girl (2:00)
09. Lolita (3:26)
10. Deadhead (3:34)
11. Feel (3:45)
Код:
Код: Выделить всё
Exact Audio Copy V0.99 prebeta 5 from 4. May 2009

EAC extraction logfile from 9. May 2010, 17:50

Stereophonics / Language. Sex. Violence. Other?

Used drive  : TEAC    DV-W516GD   Adapter: 1  ID: 0

Read mode               : Secure
Utilize accurate stream : Yes
Defeat audio cache      : Yes
Make use of C2 pointers : No

Read offset correction                      : 6
Overread into Lead-In and Lead-Out          : No
Fill up missing offset samples with silence : Yes
Delete leading and trailing silent blocks   : No
Null samples used in CRC calculations       : Yes
Used interface                              : Installed external ASPI interface

Used output format : Internal WAV Routines
Sample format      : 44.100 Hz; 16 Bit; Stereo

TOC of the extracted CD

     Track |   Start  |  Length  | Start sector | End sector
    ---------------------------------------------------------
        1  |  0:00.00 |  5:07.70 |         0    |    23094
        2  |  5:07.70 |  3:49.02 |     23095    |    40271
        3  |  8:56.72 |  4:04.68 |     40272    |    58639
        4  | 13:01.65 |  4:40.65 |     58640    |    79704
        5  | 17:42.55 |  4:57.32 |     79705    |   102011
        6  | 22:40.12 |  4:46.20 |    102012    |   123481
        7  | 27:26.32 |  3:18.18 |    123482    |   138349
        8  | 30:44.50 |  1:59.67 |    138350    |   147341
        9  | 32:44.42 |  3:26.10 |    147342    |   162801
       10  | 36:10.52 |  3:34.10 |    162802    |   178861
       11  | 39:44.62 |  3:44.70 |    178862    |   195731

Range status and errors

Selected range

     Filename D:\Share\Stereophonics - Language. Sex. Violence. Other\Stereophonics - Language. Sex. Violence. Other.wav

     Peak level 100.0 %
     Range quality 100.0 %
     Copy CRC 1BD08FF8
     Copy OK

No errors occurred

AccurateRip summary

Track  1  accurately ripped (confidence 114)  [2BE1CC0D]
Track  2  accurately ripped (confidence 114)  [D965B90B]
Track  3  accurately ripped (confidence 114)  [925C0066]
Track  4  accurately ripped (confidence 114)  [1AC594AB]
Track  5  accurately ripped (confidence 115)  [9741B133]
Track  6  accurately ripped (confidence 115)  [4C721B8D]
Track  7  accurately ripped (confidence 114)  [1F8C7F05]
Track  8  accurately ripped (confidence 113)  [200B68C5]
Track  9  accurately ripped (confidence 113)  [2F272926]
Track 10  accurately ripped (confidence 113)  [6DB6D4FE]
Track 11  accurately ripped (confidence 113)  [655153A1]

All tracks accurately ripped

End of status report
Код:
Код: Выделить всё
-----------------------

DON'T MODIFY THIS FILE

-----------------------

PERFORMER: auCDtect Task Manager, ver. 1.5.1RC6 build 1.5.1.7
Copyright (c) 2008-2010 y-soft. All rights reserved
http:/y-soft.org

ANALYZER: auCDtect: CD records authenticity detector, version 0.8.2
Copyright (c) 2004 Oleg Berngardt. All rights reserved.
Copyright (c) 2004 Alexander Djourik. All rights reserved.

FILE: Stereophonics - Language. Sex. Violence. Other.flac
  Size: 323488787 Hash: 0092559340F62F88A72BC1E9DDDCAC38 Accuracy: -m0
  Conclusion: CDDA 100%
  Signature: F976B2187C4E3D732DA54424B1629F87DF18912C
Продолжительность: 00:43:30
FLAC (image + .cue)
#777Треклист:

01. Superman (5:02)
02. Doorman (4:01)
03. A Thousand Trees (3:26)
04. Devil (4:47)
05. Mr. Writer (5:32)
06. Pedalpusher (3:21)
07. Deadhead (3:17)
08. Maybe Tomorrow (4:25)
09. The Bartender And The Thief (3:49)
10. Local Boy In The Photograph (4:04)
Код:
Код: Выделить всё
Exact Audio Copy V0.99 prebeta 4 from 23. January 2008

EAC extraction logfile from 30. April 2009, 17:07

Stereophonics / Live From Dakota (Disc 1)

Used drive  : TSSTcorpDVD+-RW TS-H653B   Adapter: 0  ID: 0

Read mode               : Secure
Utilize accurate stream : Yes
Defeat audio cache      : Yes
Make use of C2 pointers : No

Read offset correction                      : 6
Overread into Lead-In and Lead-Out          : No
Fill up missing offset samples with silence : Yes
Delete leading and trailing silent blocks   : No
Null samples used in CRC calculations       : Yes
Used interface                              : Native Win32 interface for Win NT & 2000
Gap handling                                : Appended to previous track

Used output format              : User Defined Encoder
Selected bitrate                : 192 kBit/s
Quality                         : High
Add ID3 tag                     : No
Command line compressor         : C:\Program Files\Exact Audio Copy\Flac\flac.exe
Additional command line options : -8 -A tukey(0.25) -A gauss(0.1875) -b 4096 -V -T "artist=%a" -T "title=%t" -T "album=%g" -T "date=%y" -T "tracknumber=%n" -T "genre=%m" %s

TOC of the extracted CD

     Track |   Start  |  Length  | Start sector | End sector
    ---------------------------------------------------------
        1  |  0:00.00 |  5:02.32 |         0    |    22681
        2  |  5:02.32 |  4:01.25 |     22682    |    40781
        3  |  9:03.57 |  3:25.38 |     40782    |    56194
        4  | 12:29.20 |  4:46.40 |     56195    |    77684
        5  | 17:15.60 |  5:31.57 |     77685    |   102566
        6  | 22:47.42 |  3:20.65 |    102567    |   117631
        7  | 26:08.32 |  3:16.45 |    117632    |   132376
        8  | 29:25.02 |  4:24.50 |    132377    |   152226
        9  | 33:49.52 |  3:49.00 |    152227    |   169401
       10  | 37:38.52 |  4:03.63 |    169402    |   187689

Track  1

     Filename C:\Documents and Settings\Administrator\Desktop\!Music\Stereophonics - Live From Dakota FLAC\Disc 1\01 - Superman.wav

     Pre-gap length  0:00:02.00

     Peak level 97.7 %
     Track quality 100.0 %
     Test CRC 5A45BA6B
     Copy CRC 5A45BA6B
     Accurately ripped (confidence 2)  [B476907E]
     Copy OK

Track  2

     Filename C:\Documents and Settings\Administrator\Desktop\!Music\Stereophonics - Live From Dakota FLAC\Disc 1\02 - Doorman.wav

     Peak level 100.0 %
     Track quality 100.0 %
     Test CRC FCEAB93F
     Copy CRC FCEAB93F
     Accurately ripped (confidence 2)  [1EFF71FF]
     Copy OK

Track  3

     Filename C:\Documents and Settings\Administrator\Desktop\!Music\Stereophonics - Live From Dakota FLAC\Disc 1\03 - A Thousand Trees.wav

     Peak level 98.5 %
     Track quality 100.0 %
     Test CRC 353A27E4
     Copy CRC 353A27E4
     Accurately ripped (confidence 2)  [F82F3139]
     Copy OK

Track  4

     Filename C:\Documents and Settings\Administrator\Desktop\!Music\Stereophonics - Live From Dakota FLAC\Disc 1\04 - Devil.wav

     Peak level 98.7 %
     Track quality 99.9 %
     Test CRC 6DECE715
     Copy CRC 6DECE715
     Accurately ripped (confidence 2)  [90307C96]
     Copy OK

Track  5

     Filename C:\Documents and Settings\Administrator\Desktop\!Music\Stereophonics - Live From Dakota FLAC\Disc 1\05 - Mr. Writer.wav

     Peak level 98.7 %
     Track quality 100.0 %
     Test CRC 03AA8EAD
     Copy CRC 03AA8EAD
     Accurately ripped (confidence 2)  [065F384B]
     Copy OK

Track  6

     Filename C:\Documents and Settings\Administrator\Desktop\!Music\Stereophonics - Live From Dakota FLAC\Disc 1\06 - Pedalpusher.wav

     Peak level 98.3 %
     Track quality 100.0 %
     Test CRC 56BE4D97
     Copy CRC 56BE4D97
     Accurately ripped (confidence 2)  [74B15C27]
     Copy OK

Track  7

     Filename C:\Documents and Settings\Administrator\Desktop\!Music\Stereophonics - Live From Dakota FLAC\Disc 1\07 - Deadhead.wav

     Peak level 98.9 %
     Track quality 100.0 %
     Test CRC 5723B3E4
     Copy CRC 5723B3E4
     Accurately ripped (confidence 2)  [02F784A0]
     Copy OK

Track  8

     Filename C:\Documents and Settings\Administrator\Desktop\!Music\Stereophonics - Live From Dakota FLAC\Disc 1\08 - Maybe Tomorrow.wav

     Peak level 96.4 %
     Track quality 99.9 %
     Test CRC 4FF5BF2E
     Copy CRC 4FF5BF2E
     Accurately ripped (confidence 2)  [47377D94]
     Copy OK

Track  9

     Filename C:\Documents and Settings\Administrator\Desktop\!Music\Stereophonics - Live From Dakota FLAC\Disc 1\09 - The Bartender And The Thief.wav

     Peak level 99.0 %
     Track quality 100.0 %
     Test CRC C2399108
     Copy CRC C2399108
     Accurately ripped (confidence 2)  [CE2616B8]
     Copy OK

Track 10

     Filename C:\Documents and Settings\Administrator\Desktop\!Music\Stereophonics - Live From Dakota FLAC\Disc 1\10 - Local Boy In The Photograph.wav

     Peak level 99.8 %
     Track quality 100.0 %
     Test CRC D20D5322
     Copy CRC D20D5322
     Accurately ripped (confidence 2)  [47494574]
     Copy OK

All tracks accurately ripped

No errors occurred

End of status report
Код:
Код: Выделить всё
-----------------------

DON'T MODIFY THIS FILE

-----------------------

PERFORMER: auCDtect Task Manager, ver. 1.5.1RC6 build 1.5.1.7
Copyright (c) 2008-2010 y-soft. All rights reserved
http:/y-soft.org

ANALYZER: auCDtect: CD records authenticity detector, version 0.8.2
Copyright (c) 2004 Oleg Berngardt. All rights reserved.
Copyright (c) 2004 Alexander Djourik. All rights reserved.

FILE: 10 - Local Boy In The Photograph.flac
  Size: 31730600 Hash: E53FB39D74F58FACB0871786ACCA220F Accuracy: -m0
  Conclusion: CDDA 100%
  Signature: 7902DC4C5A3E88917C8C579DD8B7CCBBC9E0108C
FILE: 09 - The Bartender And The Thief.flac
  Size: 30043658 Hash: 72B929005D693EF0EAAC58943D3F110A Accuracy: -m0
  Conclusion: CDDA 100%
  Signature: 15BD1CBAC25FF999476587AC3BAE87853B1AC4B1
FILE: 08 - Maybe Tomorrow.flac
  Size: 28144596 Hash: E9608D4E793DE26D6461DC2EB65C687C Accuracy: -m0
  Conclusion: CDDA 100%
  Signature: 02C77088C1BADD256DA53D2648078183DCF14ABB
FILE: 07 - Deadhead.flac
  Size: 26693658 Hash: F4987E3C805E181BA4CBE0584F7B6581 Accuracy: -m0
  Conclusion: CDDA 100%
  Signature: 8056FAEBDAFEF2F4845C42CBD55BC20470FF3EC9
FILE: 06 - Pedalpusher.flac
  Size: 25225398 Hash: 5E13F5AE50EB431EBF19C7C10D95408C Accuracy: -m0
  Conclusion: CDDA 100%
  Signature: 8C637F79A643736818FA346AA79EC75F2B260452
FILE: 05 - Mr. Writer.flac
  Size: 42387398 Hash: B921F2CC6C2120A74CFF5432203DDF2A Accuracy: -m0
  Conclusion: CDDA 100%
  Signature: 1B42D42356E78A04BF698AD1B8733385DA9F8981
FILE: 04 - Devil.flac
  Size: 37311451 Hash: 17814EB42182915C914AED57B10DFBCA Accuracy: -m0
  Conclusion: CDDA 100%
  Signature: BFDE77EA2D8A0BF71B2287FC33DBA6F90D69DCC6
FILE: 03 - A Thousand Trees.flac
  Size: 27052349 Hash: 35F9FCF342D92B505597492B7FC42518 Accuracy: -m0
  Conclusion: CDDA 100%
  Signature: 4DF6ECD65B487D0583DDC785D0920EF15E725AE3
FILE: 02 - Doorman.flac
  Size: 30699979 Hash: E6C362443D8D0659DA296874E01DA954 Accuracy: -m0
  Conclusion: CDDA 100%
  Signature: 17A8A3A74C5A06BF2F952FB6554E3AF1E72708A2
FILE: 01 - Superman.flac
  Size: 38506077 Hash: EDEA6F1ABC25102004B01BE6A657BAFB Accuracy: -m0
  Conclusion: CDDA 100%
  Signature: 684EA26034EBFC1365FB52B0AAEB0A2E30456258
Продолжительность: 00:41:43
FLAC (tracks + .cue)
#777Треклист:

01. Hurry Up And Wait (5:13)
02. Madame Helga (3:51)
03. Vegas Two Times (3:54)
04. Carrot Cake And Wine (4:49)
05. I'm Alright (You Gotta Go There To Come Back) (5:11)
06. Jayne (4:09)
07. Too Many Sandwiches (6:31)
08. Traffic (5:08)
09. Just Looking (5:19)
10. Dakota (6:27)
Код:
Код: Выделить всё
Exact Audio Copy V0.99 prebeta 4 from 23. January 2008

EAC extraction logfile from 30. April 2009, 17:27

Stereophonics / Live from Dakota (Disc 2)

Used drive  : TSSTcorpDVD+-RW TS-H653B   Adapter: 0  ID: 0

Read mode               : Secure
Utilize accurate stream : Yes
Defeat audio cache      : Yes
Make use of C2 pointers : No

Read offset correction                      : 6
Overread into Lead-In and Lead-Out          : No
Fill up missing offset samples with silence : Yes
Delete leading and trailing silent blocks   : No
Null samples used in CRC calculations       : Yes
Used interface                              : Native Win32 interface for Win NT & 2000
Gap handling                                : Appended to previous track

Used output format              : User Defined Encoder
Selected bitrate                : 192 kBit/s
Quality                         : High
Add ID3 tag                     : No
Command line compressor         : C:\Program Files\Exact Audio Copy\Flac\flac.exe
Additional command line options : -8 -A tukey(0.25) -A gauss(0.1875) -b 4096 -V -T "artist=%a" -T "title=%t" -T "album=%g" -T "date=%y" -T "tracknumber=%n" -T "genre=%m" %s

TOC of the extracted CD

     Track |   Start  |  Length  | Start sector | End sector
    ---------------------------------------------------------
        1  |  0:00.00 |  5:12.57 |         0    |    23456
        2  |  5:12.57 |  3:50.45 |     23457    |    40751
        3  |  9:03.27 |  3:54.30 |     40752    |    58331
        4  | 12:57.57 |  4:48.70 |     58332    |    80001
        5  | 17:46.52 |  5:11.00 |     80002    |   103326
        6  | 22:57.52 |  4:08.50 |    103327    |   121976
        7  | 27:06.27 |  6:31.05 |    121977    |   151306
        8  | 33:37.32 |  5:07.43 |    151307    |   174374
        9  | 38:45.00 |  5:18.45 |    174375    |   198269
       10  | 44:03.45 |  6:26.40 |    198270    |   227259

Track  1

     Filename C:\Documents and Settings\Administrator\Desktop\!Music\Stereophonics - Live From Dakota FLAC\Disc 2\01 - Hurry Up And Wait.wav

     Pre-gap length  0:00:02.00

     Peak level 98.6 %
     Track quality 100.0 %
     Test CRC 9DC95839
     Copy CRC 9DC95839
     Accurately ripped (confidence 3)  [89E1B38A]
     Copy OK

Track  2

     Filename C:\Documents and Settings\Administrator\Desktop\!Music\Stereophonics - Live From Dakota FLAC\Disc 2\02 - Madame Helga.wav

     Peak level 99.7 %
     Track quality 100.0 %
     Test CRC 352959A2
     Copy CRC 352959A2
     Accurately ripped (confidence 3)  [FEC1B035]
     Copy OK

Track  3

     Filename C:\Documents and Settings\Administrator\Desktop\!Music\Stereophonics - Live From Dakota FLAC\Disc 2\03 - Vegas Two Times.wav

     Peak level 99.3 %
     Track quality 100.0 %
     Test CRC 7ADEC560
     Copy CRC 7ADEC560
     Accurately ripped (confidence 3)  [EC30AF57]
     Copy OK

Track  4

     Filename C:\Documents and Settings\Administrator\Desktop\!Music\Stereophonics - Live From Dakota FLAC\Disc 2\04 - Carrot Cake And Wine.wav

     Peak level 99.1 %
     Track quality 100.0 %
     Test CRC 76F64C16
     Copy CRC 76F64C16
     Accurately ripped (confidence 3)  [8EC822B8]
     Copy OK

Track  5

     Filename C:\Documents and Settings\Administrator\Desktop\!Music\Stereophonics - Live From Dakota FLAC\Disc 2\05 - I'm Alright (You Gotta Go There To Come Back).wav

     Peak level 98.7 %
     Track quality 100.0 %
     Test CRC 8FA978CB
     Copy CRC 8FA978CB
     Accurately ripped (confidence 3)  [F6B8F876]
     Copy OK

Track  6

     Filename C:\Documents and Settings\Administrator\Desktop\!Music\Stereophonics - Live From Dakota FLAC\Disc 2\06 - Jayne.wav

     Peak level 100.0 %
     Track quality 100.0 %
     Test CRC 06DDF5C4
     Copy CRC 06DDF5C4
     Accurately ripped (confidence 3)  [669155F2]
     Copy OK

Track  7

     Filename C:\Documents and Settings\Administrator\Desktop\!Music\Stereophonics - Live From Dakota FLAC\Disc 2\07 - Too Many Sandwiches.wav

     Peak level 99.8 %
     Track quality 100.0 %
     Test CRC 77926E41
     Copy CRC 77926E41
     Accurately ripped (confidence 3)  [9FC26E60]
     Copy OK

Track  8

     Filename C:\Documents and Settings\Administrator\Desktop\!Music\Stereophonics - Live From Dakota FLAC\Disc 2\08 - Traffic.wav

     Peak level 98.6 %
     Track quality 100.0 %
     Test CRC 2DD02AAB
     Copy CRC 2DD02AAB
     Accurately ripped (confidence 3)  [70307979]
     Copy OK

Track  9

     Filename C:\Documents and Settings\Administrator\Desktop\!Music\Stereophonics - Live From Dakota FLAC\Disc 2\09 - Just Looking.wav

     Peak level 98.1 %
     Track quality 100.0 %
     Test CRC 737C853A
     Copy CRC 737C853A
     Accurately ripped (confidence 3)  [F2009D9D]
     Copy OK

Track 10

     Filename C:\Documents and Settings\Administrator\Desktop\!Music\Stereophonics - Live From Dakota FLAC\Disc 2\10 - Dakota.wav

     Peak level 99.0 %
     Track quality 99.9 %
     Test CRC 0397EA20
     Copy CRC 0397EA20
     Accurately ripped (confidence 3)  [554C9FD8]
     Copy OK

All tracks accurately ripped

No errors occurred

End of status report
Код:
Код: Выделить всё
-----------------------

DON'T MODIFY THIS FILE

-----------------------

PERFORMER: auCDtect Task Manager, ver. 1.5.1RC6 build 1.5.1.7
Copyright (c) 2008-2010 y-soft. All rights reserved
http:/y-soft.org

ANALYZER: auCDtect: CD records authenticity detector, version 0.8.2
Copyright (c) 2004 Oleg Berngardt. All rights reserved.
Copyright (c) 2004 Alexander Djourik. All rights reserved.

FILE: 10 - Dakota.flac
  Size: 47455437 Hash: F4B02629A42448CA1D9849673C9F730A Accuracy: -m0
  Conclusion: CDDA 100%
  Signature: A951278F6175EFAABEAB324EA8F608DF4FF887BB
FILE: 09 - Just Looking.flac
  Size: 37066253 Hash: 602A58A86F8EFD970C3C9B35F4B85A99 Accuracy: -m0
  Conclusion: CDDA 100%
  Signature: 8645B190C3BACDBEB3183F1077B423CEB69C363C
FILE: 08 - Traffic.flac
  Size: 36458045 Hash: 669C767E2469610207257CBF24E83C27 Accuracy: -m0
  Conclusion: CDDA 100%
  Signature: DD5E9972A19E08BB23EAE89C527562FA359647B0
FILE: 07 - Too Many Sandwiches.flac
  Size: 51001484 Hash: 1E5AA2F2D629CFE09D2BB02B4DC588CC Accuracy: -m0
  Conclusion: CDDA 100%
  Signature: 619CC7AA7942AF893E26E55171A5039814109FCA
FILE: 06 - Jayne.flac
  Size: 31011212 Hash: 7021DC57F47456EEEC7F5AEBDAF523AC Accuracy: -m0
  Conclusion: CDDA 100%
  Signature: 77F8D8A7E9628DEA419FA22008608895EE98643D
FILE: 05 - I'm Alright (You Gotta Go There To Come Back).flac
  Size: 38935147 Hash: 98A674A069766E8939A1FD34C5A87676 Accuracy: -m0
  Conclusion: CDDA 100%
  Signature: 211DDD144E5DA6D25D670AF85223726951863C68
FILE: 04 - Carrot Cake And Wine.flac
  Size: 37305753 Hash: FE95C5C4ACF1E04D417CB2753EB0FD14 Accuracy: -m0
  Conclusion: CDDA 100%
  Signature: 5E0ED2C3AF53B7E69C955828BFEF873C30A6C69B
FILE: 03 - Vegas Two Times.flac
  Size: 31338667 Hash: 21B539CA134D47DFB7FBF5FF581686D7 Accuracy: -m0
  Conclusion: CDDA 100%
  Signature: 96034C13BE080808D3888D180446A451A907B703
FILE: 02 - Madame Helga.flac
  Size: 29508019 Hash: A8226545D9947C3F2988DAE49C98D5D8 Accuracy: -m0
  Conclusion: CDDA 100%
  Signature: B1C5611411788993598D3E05C686E09ABAAE7F3D
FILE: 01 - Hurry Up And Wait.flac
  Size: 38125725 Hash: 1FBE07AC434C9659B38EF79D5E75D39F Accuracy: -m0
  Conclusion: CDDA 100%
  Signature: 808F9C089F166E4ABFF35F892915A4BFBCFA9086
Продолжительность: 00:50:30
FLAC (tracks + .cue)
#777Треклист:

01. Soldiers Make Good Targets (4:37)
02. Pass The Buck (3:24)
03. It Means Nothing (3:49)
04. Bank Holiday Monday (3:14)
05. Daisy Lane (3:38)
06. Stone (4:17)
07. My Friends (3:35)
08. I Could Lose Ya (3:18)
09. Bright Red Star (3:40)
10. Ladyluck (3:46)
11. Crush (3:56)
12. Drowning (5:09)
Код:
Код: Выделить всё
Exact Audio Copy V0.99 prebeta 5 from 4. May 2009

EAC extraction logfile from 24. December 2010, 23:45

Stereophonics / Pull The Pin

Used drive  : TEAC    DV-W516GD   Adapter: 1  ID: 0

Read mode               : Secure
Utilize accurate stream : Yes
Defeat audio cache      : Yes
Make use of C2 pointers : No

Read offset correction                      : 6
Overread into Lead-In and Lead-Out          : No
Fill up missing offset samples with silence : Yes
Delete leading and trailing silent blocks   : No
Null samples used in CRC calculations       : Yes
Used interface                              : Installed external ASPI interface

Used output format : Internal WAV Routines
Sample format      : 44.100 Hz; 16 Bit; Stereo

TOC of the extracted CD

     Track |   Start  |  Length  | Start sector | End sector
    ---------------------------------------------------------
        1  |  0:00.00 |  4:37.31 |         0    |    20805
        2  |  4:37.31 |  3:24.34 |     20806    |    36139
        3  |  8:01.65 |  3:48.66 |     36140    |    53305
        4  | 11:50.56 |  3:14.29 |     53306    |    67884
        5  | 15:05.10 |  3:38.01 |     67885    |    84235
        6  | 18:43.11 |  4:17.15 |     84236    |   103525
        7  | 23:00.26 |  3:35.26 |    103526    |   119676
        8  | 26:35.52 |  3:17.49 |    119677    |   134500
        9  | 29:53.26 |  3:39.48 |    134501    |   150973
       10  | 33:32.74 |  3:45.65 |    150974    |   167913
       11  | 37:18.64 |  3:56.29 |    167914    |   185642
       12  | 41:15.18 |  5:08.49 |    185643    |   208791

Range status and errors

Selected range

     Filename H:\Stereophonics - Pull The Pin\Stereophonics - Pull The Pin.wav

     Peak level 100.0 %
     Range quality 100.0 %
     Copy CRC 13A5B362
     Copy OK

No errors occurred

AccurateRip summary

Track  1  accurately ripped (confidence 87)  [F356A892]
Track  2  accurately ripped (confidence 89)  [934E82F0]
Track  3  accurately ripped (confidence 88)  [48785F89]
Track  4  accurately ripped (confidence 88)  [F4A7E3EF]
Track  5  accurately ripped (confidence 88)  [31BBA5C0]
Track  6  accurately ripped (confidence 89)  [8BEC397B]
Track  7  accurately ripped (confidence 88)  [4F196085]
Track  8  accurately ripped (confidence 89)  [8B075764]
Track  9  accurately ripped (confidence 88)  [0C78B4A2]
Track 10  accurately ripped (confidence 89)  [90904376]
Track 11  accurately ripped (confidence 88)  [963012CD]
Track 12  accurately ripped (confidence 86)  [DB6DAC8F]

All tracks accurately ripped

End of status report
Код:
Код: Выделить всё
-----------------------

DON'T MODIFY THIS FILE

-----------------------

PERFORMER: auCDtect Task Manager, ver. 1.5.1RC6 build 1.5.1.7
Copyright (c) 2008-2010 y-soft. All rights reserved
http:/y-soft.org

ANALYZER: auCDtect: CD records authenticity detector, version 0.8.2
Copyright (c) 2004 Oleg Berngardt. All rights reserved.
Copyright (c) 2004 Alexander Djourik. All rights reserved.

FILE: Stereophonics - Pull The Pin.flac
  Size: 342272554 Hash: 47D7AC689460E6713DF69027278B2B3A Accuracy: -m0
  Conclusion: CDDA 100%
  Signature: 71D58EF21DC9CAE0680AAC27DA1C843BDAEC761C
Продолжительность: 00:46:24
FLAC (image + .cue)
#777Треклист:

01. Dakota (4:58)
02. The Bartender And The Thief (2:55)
03. Just Looking (4:15)
04. Have A Nice Day (3:24)
05. Local Boy In The Photograph (3:19)
06. Maybe Tomorrow (4:34)
07. Superman (3:53)
08. Pick A Part That's New (3:33)
09. My Own Worst Enemy (3:36)
10. I Wouldn't Believe Your Radio (3:44)
11. You're My Star (4:30)
12. Mr Writer (4:28)
13. Step On My Old Size Nines (3:57)
14. Devil (4:41)
15. It Means Nothing (3:47)
16. A Thousand Trees (3:01)
17. Vegas Two Times (3:40)
18. Traffic (4:53)
19. More Life In A Tramps Vest (2:22)
20. Handbags And Gladrags (4:39)
Код:
Код: Выделить всё
Exact Audio Copy V0.99 prebeta 5 from 4. May 2009

EAC extraction logfile from 25. May 2009, 18:39

Stereophonics / Best Of Stereophonics - Decade In The Sun

Used drive  : Optiarc DVD RW AD-7203S   Adapter: 5  ID: 0

Read mode               : Secure
Utilize accurate stream : Yes
Defeat audio cache      : Yes
Make use of C2 pointers : No

Read offset correction                      : 48
Overread into Lead-In and Lead-Out          : No
Fill up missing offset samples with silence : Yes
Delete leading and trailing silent blocks   : No
Null samples used in CRC calculations       : Yes
Used interface                              : Installed external ASPI interface

Used output format : Internal WAV Routines
Sample format      : 44.100 Hz; 16 Bit; Stereo

TOC of the extracted CD

     Track |   Start  |  Length  | Start sector | End sector
    ---------------------------------------------------------
        1  |  0:00.00 |  4:58.20 |         0    |    22369
        2  |  4:58.20 |  2:54.59 |     22370    |    35478
        3  |  7:53.04 |  4:14.49 |     35479    |    54577
        4  | 12:07.53 |  3:24.23 |     54578    |    69900
        5  | 15:32.01 |  3:19.30 |     69901    |    84855
        6  | 18:51.31 |  4:33.74 |     84856    |   105404
        7  | 23:25.30 |  3:52.55 |    105405    |   122859
        8  | 27:18.10 |  3:32.59 |    122860    |   138818
        9  | 30:50.69 |  3:35.42 |    138819    |   154985
       10  | 34:26.36 |  3:44.29 |    154986    |   171814
       11  | 38:10.65 |  4:29.66 |    171815    |   192055
       12  | 42:40.56 |  4:27.49 |    192056    |   212129
       13  | 47:08.30 |  3:56.49 |    212130    |   229878
       14  | 51:05.04 |  4:41.13 |    229879    |   250966
       15  | 55:46.17 |  3:46.64 |    250967    |   267980
       16  | 59:33.06 |  3:00.63 |    267981    |   281543
       17  | 62:33.69 |  3:39.45 |    281544    |   298013
       18  | 66:13.39 |  4:53.36 |    298014    |   320024
       19  | 71:07.00 |  2:22.02 |    320025    |   330676
       20  | 73:29.02 |  4:39.28 |    330677    |   351629

Range status and errors

Selected range

     Filename D:\Music\Stereophonics\2008 - Best of Stereophonics - Decade in the Sun\Stereophonics - Best Of Stereophonics - Decade In The Sun.wav

     Peak level 99.9 %
     Range quality 99.9 %
     Test CRC 461603C7
     Copy CRC 461603C7
     Copy OK

No errors occurred

AccurateRip summary

Track  1  accurately ripped (confidence 26)  [BCC424F3]
Track  2  accurately ripped (confidence 26)  [31AE05F3]
Track  3  accurately ripped (confidence 25)  [7317FBD7]
Track  4  accurately ripped (confidence 26)  [F738B51A]
Track  5  accurately ripped (confidence 26)  [535A6C25]
Track  6  accurately ripped (confidence 26)  [DD948057]
Track  7  accurately ripped (confidence 26)  [9649B151]
Track  8  accurately ripped (confidence 26)  [77BC7AD7]
Track  9  accurately ripped (confidence 26)  [C6B0EF97]
Track 10  accurately ripped (confidence 26)  [14989336]
Track 11  accurately ripped (confidence 26)  [30096DFA]
Track 12  accurately ripped (confidence 26)  [2C7562A2]
Track 13  accurately ripped (confidence 26)  [38507363]
Track 14  accurately ripped (confidence 24)  [756E7914]
Track 15  accurately ripped (confidence 25)  [B5EF428A]
Track 16  accurately ripped (confidence 25)  [5968CA4D]
Track 17  accurately ripped (confidence 25)  [86DD18D4]
Track 18  accurately ripped (confidence 26)  [09150189]
Track 19  accurately ripped (confidence 25)  [6F4607C0]
Track 20  accurately ripped (confidence 25)  [C8A0A622]

All tracks accurately ripped

End of status report
Код:
Код: Выделить всё
-----------------------

DON'T MODIFY THIS FILE

-----------------------

PERFORMER: auCDtect Task Manager, ver. 1.5.1RC6 build 1.5.1.7
Copyright (c) 2008-2010 y-soft. All rights reserved
http:/y-soft.org

ANALYZER: auCDtect: CD records authenticity detector, version 0.8.2
Copyright (c) 2004 Oleg Berngardt. All rights reserved.
Copyright (c) 2004 Alexander Djourik. All rights reserved.

FILE: Stereophonics - Best Of Stereophonics - Decade In The Sun.flac
  Size: 588186239 Hash: EA92AC03E07C55B8F4A46D7330091E87 Accuracy: -m0
  Conclusion: CDDA 99%
  Signature: ADCB4E4C6CF87951356C5F857BBFAD65C9288368
FILE: Stereophonics - Best Of Stereophonics - Decade In The Sun (Deluxe CD 2).flac
  Size: 565332342 Hash: F6115C997AF34A4B9456108771E654B1 Accuracy: -m0
  Conclusion: CDDA 100%
  Signature: AF67390E2E9AB0B5331423FA6BA7C0EDADF8F120
Продолжительность: 01:18:08
FLAC (image + .cue)
#777Треклист:

01. Madame Helga (3:54)
02. Bank Holiday Monday (3:12)
03. Rewind (4:27)
04. My Friends (3:36)
05. Climbing The Wall (4:56)
06. Mama Told Me Not To Come (3:02)
07. Since I Told You It's Over (4:16)
08. Moviestar (4:04)
09. Not Up To You (4:30)
10. Getaway (3:54)
11. I Stopped To Fill My Car Up (4:26)
12. Carrot Cake And Wine (4:24)
13. Billy Davey's Daughter (3:41)
14. Raymond's Shop (2:52)
15. Stone (3:44)
16. I'm Alright (You Gotta Go There To Come Back) (4:33)
17. First Time Ever I Saw Your Face with Jools Holland Orchestra (4:04)
18. Same Size Feet (3:58)
19. She Takes Her Clothes Off World Gets Around Sessions (3:15)
20. Hurry Up And Wait (4:32)
Код:
Код: Выделить всё
Exact Audio Copy V0.99 prebeta 5 from 4. May 2009

EAC extraction logfile from 1. February 2010, 23:17

Stereophonics / Best Of Stereophonics - Decade In The Sun (Deluxe CD 2/2)

Used drive  : Optiarc DVD RW AD-7203S   Adapter: 5  ID: 0

Read mode               : Secure
Utilize accurate stream : Yes
Defeat audio cache      : Yes
Make use of C2 pointers : No

Read offset correction                      : 48
Overread into Lead-In and Lead-Out          : No
Fill up missing offset samples with silence : Yes
Delete leading and trailing silent blocks   : No
Null samples used in CRC calculations       : Yes
Used interface                              : Installed external ASPI interface

Used output format : Internal WAV Routines
Sample format      : 44.100 Hz; 16 Bit; Stereo

TOC of the extracted CD

     Track |   Start  |  Length  | Start sector | End sector
    ---------------------------------------------------------
        1  |  0:00.00 |  3:53.68 |         0    |    17542
        2  |  3:53.68 |  3:12.10 |     17543    |    31952
        3  |  7:06.03 |  4:27.28 |     31953    |    52005
        4  | 11:33.31 |  3:35.59 |     52006    |    68189
        5  | 15:09.15 |  4:56.15 |     68190    |    90404
        6  | 20:05.30 |  3:01.59 |     90405    |   104038
        7  | 23:07.14 |  4:16.27 |    104039    |   123265
        8  | 27:23.41 |  4:03.51 |    123266    |   141541
        9  | 31:27.17 |  4:30.04 |    141542    |   161795
       10  | 35:57.21 |  3:54.31 |    161796    |   179376
       11  | 39:51.52 |  4:26.09 |    179377    |   199335
       12  | 44:17.61 |  4:23.70 |    199336    |   219130
       13  | 48:41.56 |  3:41.34 |    219131    |   235739
       14  | 52:23.15 |  2:51.74 |    235740    |   248638
       15  | 55:15.14 |  3:43.51 |    248639    |   265414
       16  | 58:58.65 |  4:32.48 |    265415    |   285862
       17  | 63:31.38 |  4:03.47 |    285863    |   304134
       18  | 67:35.10 |  3:58.37 |    304135    |   322021
       19  | 71:33.47 |  3:14.74 |    322022    |   336645
       20  | 74:48.46 |  4:32.15 |    336646    |   357060

Range status and errors

Selected range

     Filename D:\Music\Stereophonics\2008 - Best of Stereophonics - Decade in the Sun (Deluxe Edition)\Stereophonics - Best Of Stereophonics - Decade In The Sun (Deluxe CD 2).wav

     Peak level 99.8 %
     Range quality 99.9 %
     Test CRC 08E0A348
     Copy CRC 08E0A348
     Copy OK

No errors occurred

End of status report
Код:
Код: Выделить всё
-----------------------

DON'T MODIFY THIS FILE

-----------------------

PERFORMER: auCDtect Task Manager, ver. 1.5.1RC6 build 1.5.1.7
Copyright (c) 2008-2010 y-soft. All rights reserved
http:/y-soft.org

ANALYZER: auCDtect: CD records authenticity detector, version 0.8.2
Copyright (c) 2004 Oleg Berngardt. All rights reserved.
Copyright (c) 2004 Alexander Djourik. All rights reserved.

FILE: Stereophonics - Best Of Stereophonics - Decade In The Sun.flac
  Size: 588186239 Hash: EA92AC03E07C55B8F4A46D7330091E87 Accuracy: -m0
  Conclusion: CDDA 99%
  Signature: ADCB4E4C6CF87951356C5F857BBFAD65C9288368
FILE: Stereophonics - Best Of Stereophonics - Decade In The Sun (Deluxe CD 2).flac
  Size: 565332342 Hash: F6115C997AF34A4B9456108771E654B1 Accuracy: -m0
  Conclusion: CDDA 100%
  Signature: AF67390E2E9AB0B5331423FA6BA7C0EDADF8F120
Продолжительность: 01:19:21
FLAC (image + .cue)
#777Треклист:

01. She's Alright (She's With Me) (3:26)
02. Innocent (3:41)
03. Beerbottle (3:54)
04. Trouble (3:04)
05. Could You Be the One (3:52)
06. I Got Your Number (3:22)
07. Uppercut (4:16)
08. Live 'N' Love (3:45)
09. 100MPH (4:15)
10. Wonder (3:44)
11. Stuck in a Rut (3:07)
12. Show Me How (4:45)
13. Innocent [Live] (4:05)
14. I Stopped to Fill My Car Up [Live] (6:51)
15. You're My Star [Live] (6:06)
Код:
Код: Выделить всё
Exact Audio Copy V0.99 prebeta 5 from 4. May 2009

Отчёт EAC об извлечении, выполненном 12. июля 2010, 2:45

Stereophonics / Keep Calm and Carry On / UICR-1084

Дисковод: HL-DT-STDVDRAM GSA-T20N   Adapter: 0  ID: 0

Режим чтения                 : Достоверность
Использование точного потока : Да
Отключение кэша аудио        : Да
Использование указателей C2  : Нет

Коррекция смещения при чтении                     : 667
Способность читать области Lead-in и Lead-out     : Нет
Заполнение пропущенных сэмплов тишиной            : Да
Удаление блоков с тишиной в начале и конце        : Нет
При вычислениях CRC использовались нулевые сэмплы : Да
Интерфейс                                         : Встроенный Win32-интерфейс для Win NT/2000

Выходной формат : Внутренние WAV-операции
Формат сэмплов  : 44.100 Гц; 16 бит; стерео

TOC извлечённого CD

     Трек |   Старт  | Длительность | Начальный сектор | Конечный сектор
    ---------------------------------------------------------------------
       1  |  0:00.00 |    3:26.33   |           0      |      15482
       2  |  3:26.33 |    3:40.65   |       15483      |      32047
       3  |  7:07.23 |    3:53.38   |       32048      |      49560
       4  | 11:00.61 |    3:03.40   |       49561      |      63325
       5  | 14:04.26 |    3:52.13   |       63326      |      80738
       6  | 17:56.39 |    3:21.55   |       80739      |      95868
       7  | 21:18.19 |    4:15.53   |       95869      |     115046
       8  | 25:33.72 |    3:45.00   |      115047      |     131921
       9  | 29:18.72 |    4:15.05   |      131922      |     151051
      10  | 33:34.02 |    3:44.06   |      151052      |     167857
      11  | 37:18.08 |    3:06.62   |      167858      |     181869
      12  | 40:24.70 |    4:45.09   |      181870      |     203253
      13  | 45:10.04 |    4:05.07   |      203254      |     221635
      14  | 49:15.11 |    6:51.27   |      221636      |     252487
      15  | 56:06.38 |    6:05.66   |      252488      |     279928

Характеристики диапазона извлечения и сообщения об ошибках

Выбранный диапазон

     Имя файла F:\Torrent\Новая папка\Stereophonics - Keep Calm and Carry On (2009) Japan\Stereophonics - Keep Calm and Carry On   UICR-1084.wav

     Пиковый уровень 99.9 %
     Качество диапазона 99.9 %
     CRC теста A083E254
     CRC копии A083E254
     Копирование... OK

Ошибок не произошло

AccurateRip: сводка

Трек  1  точное извлечение (доверие 1)  [FAF95450]
Трек  2  точное извлечение (доверие 1)  [79881170]
Трек  3  точное извлечение (доверие 1)  [238428C1]
Трек  4  точное извлечение (доверие 1)  [113A5AF9]
Трек  5  точное извлечение (доверие 1)  [9F08CA1B]
Трек  6  точное извлечение (доверие 1)  [8F05D431]
Трек  7  точное извлечение (доверие 1)  [B215FFC1]
Трек  8  точное извлечение (доверие 1)  [14C845ED]
Трек  9  точное извлечение (доверие 1)  [DCC3D9E5]
Трек 10  точное извлечение (доверие 1)  [F9D545EA]
Трек 11  точное извлечение (доверие 1)  [8CD7D7B1]
Трек 12  точное извлечение (доверие 1)  [3DC11FA0]
Трек 13  точное извлечение (доверие 1)  [3FEC25CB]
Трек 14  точное извлечение (доверие 1)  [30213B9F]
Трек 15  точное извлечение (доверие 1)  [87D68268]

Все треки извлечены точно

Конец отчёта
Код:
Код: Выделить всё
-----------------------

DON'T MODIFY THIS FILE

-----------------------

PERFORMER: auCDtect Task Manager, ver. 1.5.1RC6 build 1.5.1.7
Copyright (c) 2008-2010 y-soft. All rights reserved
http:/y-soft.org

ANALYZER: auCDtect: CD records authenticity detector, version 0.8.2
Copyright (c) 2004 Oleg Berngardt. All rights reserved.
Copyright (c) 2004 Alexander Djourik. All rights reserved.

FILE: Stereophonics - Keep Calm and Carry On   UICR-1084.ape
  Size: 429497492 Hash: 0CB01291776FF1A8CAB3A176D486439C Accuracy: -m0
  Conclusion: CDDA 100%
  Signature: 54740075762490DBE1E4DDB1CF87B0AEFEE4FFD6
Продолжительность: 01:02:12
APE (image + .cue)
За рипы благодарность: unclesandy, vladaz, maarkus21, atag, boogiedown

Stereophonics - британская рок-группа. Основана в 1992 году в городе Кумаман (Cwmaman), Уэльс. За 20лет существования выпустила 7 студийных альбомов, суммарный тираж которых превышает 10 млн. В музыке Stereophonics наиболее четко прослеживается влияние группы Oasis.
История группы берёт начало в ранних 90-х, когда Келли Джонс (гитара, вокал), Ричард Джонс (бас) и Стюарт Кейбл (ударные), три друга детства, решили создать рок-группу, которую они сначала окрестили Blind Faith, но вскоре выяснилось, что такое название носила группа Эрика Клэптона. Через некоторое время появилась переименованная группа Tragic Love Company, названная в честь любимых групп музыкантов: The Tragically Hip, Mother Love Bone и Bad Company. Позже Стюарт Кейбл предложил название Stereophonics, которое он прочёл на фотографии своей бабушки. Название было одобрено остальными членами группы, и группа стала называться «The Stereophonics». Это называние продержалось вплоть до 1996-го, когда группа взяла окончательное название Stereophonics.
Будучи уроженцами Уэльса, музыканты поначалу оттачивали своё мастерство регулярными выступлениями в местных пабах. Они находились под сильным влиянием таких групп, как AC/DC и Creedence Clearwater Revival. Их профессиональная карьера начинается в 1997 году, когда Ричард Брэнсон, создатель Virgin Records, предложил им контракт со своим новым лейблом V2.
Выступления 1997 года и дебютный альбом группы, озаглавленный Word Gets Around, стали настоящим открытием, особенно в Великобритании. Звучание группы описывали как «звонкие гитары, завораживающие изящные гармонии, смесь рока с поэзией, искренние романтические тексты, вышедшие из-под пера Келли Джонса, чей резкий голос никого не оставит равнодушным». Такая уникальная смесь не осталась незамеченной широкой публикой, и группа в 1998 г. получает премию Brit Awards в номинации «Лучшая новая группа», а их альбом становится «платиновым» в Великобритании (500 000 экземпляров). Это единственный альбом группы, не занявший первое место в национальном хит-параде (он занял «всего» 6-е место).
Два года спустя, уже будучи успешной группой, Stereophonics выпускают свою вторую работу, Performance and Cocktails. Новый альбом был не менее мощным, чем предыдущий, с песнями, такими как «The Bartender and the Thief», «Just Looking» и «I Stopped to Fill My Car Up», свидетельствующими о подлинном таланте. После этого альбома группа приобрела непреходящую популярность не только в Соединённом Королевстве, но и во всей Европе. Три сингла с альбома попали в британский Top-10, а сам альбом стал дважды платиновым.
В апреле 2001 г. был записан новый альбом, который оказался немного более акустическим, чем предыдущий. Альбом получил название Just Enough Education To Perform (J.E.E.P). Главные хиты альбома — «Have A Nice Day», «Mr.Writer». На сегодняшний день это самый известный альбом группы, несмотря на обрушившуюся на него критику со стороны прессы, вызванную песней «Mr. Writer», содержащей жалобы на поведение журналистов.
2003 год стал поворотным для группы, которая выпустила свой четвёртый альбом под названием You Gotta Go There to Come Back. В нём группа открывает новую грань своего таланта, представив альбом куда более зрелый, чем предыдущие, в отношении как уровня текстов, так и музыки. Песни более глубокие и сильно отличаются от рок-песен дебютного альбома. Главным хитом альбома стала песня Maybe Tomorrow.
Тем временем в группе назревают проблемы, и ударник Стюарт Кэйбл в сентябре того же года покидает группу. Во время тура его заменял бывший ударник группы Black Crowes Стив Горман.
Через некоторое время после окончания тура (декабрь 2004) Келли и Ричард решили нанять нового ударника. Их выбор пал на аргентинца Хавьера Уэйлера, которого они уже однажды встречали: «Мы были в рок-клубе, прекрасно проводили время, и хозяин пригласил нас к себе домой на вечеринку, где собираются музыканты. В Лондоне Хавьер уже был известен, он работал в студии в Фулхэме и помогал делать демо-записи для нашего альбома You Gotta Go There to Come Back» (Келли Джонс).
Обновлённое трио возвращается к своим корням, выпустив в 2005 г. альбом Language. Sex. Violence. Other? Альбом оказался на вершине британских чартов, главным хитом стала песня Dakota. Во время мирового тура, последовавшего за выпуском альбома, был записан концертный альбом «Live from Dakota».
Тем временем, в марте 2007 г., Келли Джонс заканчивает работу над сольным альбомом, озаглавленным Only The Names Have Been Changed с простыми гитарным, фортепианными и струнными аранжировками. Названия всех песен на альбоме состоят из женских имён. В честь 10-летия группы в 2006 году музыканты решили выпустить концертный альбом (Live From Dakota) и DVD (Rewind, вышел в апреле 2007). Последний прослеживает всю карьеру группы, включает в себя интервью с Роном Вудом (Rolling Stones), Ноэлем Галлахером (Oasis), Боно (U2), Томом Джонсом, The Black Crowes, более двух часов отрывков их выступлений во время разных туров, начиная с 1997 года, и некоторые видеозаписи акустического тура Келли Джонса (2000), включая неизданные записи.
Выпущенный в октябре 2007 г., Pull The Pin стал шестым студийным альбомом Stereophonics. Название альбома — выражение, которое в юности часто употреблял Келли, означающее примерно «делай что хочешь». Первым синглом с альбома стала «Bank Holiday Monday», вторым — «It Means Nothing». Келли пояснил, что он «написал эту песню в гостиничном номере в Германии. Это было 7 июля 2005 г., в момент, когда я чувствовал обиду. Но песня не об этом, это скорее наша манера продолжать заниматься любимым делом даже в такие моменты, как этот».
Ударник Хавьер Уэйлер выпустил в 2007 г. альбом своего сольного проекта Capitan Melao. Альбом называется «Lagrima» — по названию композиции известного арт-рокового гитариста Фила Манзанеры (Phil Manzanera). Melao — жаргонное слово, используемое в Латинской Америке для обозначения музыкального стиля соул.
Седьмой, на сей день последний студийный альбом коллектива, вышедший в 2009-м году, получил название Keep Calm & Carry On. О его выходе было объявлено еще в середине 2009-го года, официальный релиз состоялся 16 ноября. Чуть раньше, в августе, группа выпустила сингл Could You Be The One, воглавивший в первую же неделю своего существования британские чарты. Главными же хитами альбома стали песни Innocent и 100MPH. Альбом был в целом встречен положительно как фанатами группы, так и музыкальными критиками, хоть и не попал в топ-10 британских альбомов по итогам года.

Band members
Current members
Kelly Jones performs a set, during the January 2005 Tsunami Relief Cardiff concert
Kelly Jones – lead vocals, rhythm guitar, keyboards (since 1992)
Richard Jones – bass guitar, vocals, harmonica, piano (since 1992)
Javier Weyler – drums, percussion (since 2004)
Adam Zindani – lead guitar, vocals (since 2007)

Previous members
Stuart Cable – drums, percussion, backing vocals (1992–2003)
Touring musicians
Tony Kirkham – keyboards (since 1999)
Scott James – guitar (2001–2004)
Aileen McLaughlin – backing vocals (2002–2003)
Anna Ross – backing vocals (2002–2003)
Steve Gorman – drums, percussion (2003–2004) (full-time member of The Black Crowes)

Дискография
Word Gets Around (1997)
Performance and Cocktails (1999)
Just Enough Education to Perform (2001)
You Gotta Go There to Come Back (2003)
Language. Sex. Violence. Other? (2005)
Live from Dakota (2006)
Pull the pin (2007)
Keep Calm and Carry On (2009)
Восьмой студийный альбом (2012)

Правила, инструкции, FAQ!!!
Торрент  Добавлен [30 май 2014, 00:13] Скачать торрент Магнет ссылка
Скачать торрент
26.63 КБ

Статус
Проверен 
 
Размер  4.21 ГБ
Приватный: Нет (DHT включён)
.torrent скачан  0
Как залить торрент? | Как скачать Torrent? | Как смотреть и слушать онлайн?  
Гость
 



Вернуться в Дискографии (Зарубежные)

Кто сейчас на конференции

Сейчас этот форум просматривают: Bing [Bot] и гости: 0