(Space Rock) [WEB] Nik Turner (Hawkwind) - The Final Frontier - 2019, FLAC (tracks), lossless


Статистика раздачи
Размер: 261.16 МБ | Добавлен: 09 мар 2019, 11:26 | Скачали: 0
Сидеров: 0  [0 байт/сек]    Личеров: 0  [0 байт/сек]

Сообщение Гость » 09 мар 2019, 11:26

Nik Turner - The Final Frontier
Жанр: Space Rock
Носитель: WEB
Год издания: 2019
Издатель-лейбл: Purple Pyramid
Страна исполнителя: UK
Аудиокодек: FLAC (*.flac)
Тип рипа: tracks
Битрейт аудио: lossless
Продолжительность: 00:45:10
Источник: Сеть
Наличие сканов: нет
Треклист:
01. Out of Control (3:57)
02. Interstellar Aliens (5:13)
03. Thunder Rider (6:36)
04. The Final Frontier, Pt. 1 (5:15)
05. Back to the Ship (4:37)
06. Calling the Egyptians (5:09)
07. Strange Loop (8:34)
08. The Final Frontier, Pt. 2 (2:20)
09. Pad4 (3:29)
Код: Выделить всё
CUE Corrector v. 8.3.5 / b. 906 (Mar. 02, 2019)
————————————————————————————————————————————————————————————————————————
Nik Turner / The Final Frontier
Folder: Nik Turner - 2019 - The Final Frontier [FLAC]
Audio files:
    01 Out of Control.flac [03:56.773; FLAC • 908 kbps • 16 bit \ 44100 Hz • stereo; 25.63 MB (26 875 871 B)]
    02 Interstellar Aliens.flac [05:12.787; FLAC • 875 kbps • 16 bit \ 44100 Hz • stereo; 32.64 MB (34 224 094 B)]
    03 Thunder Rider.flac [06:36.040; FLAC • 878 kbps • 16 bit \ 44100 Hz • stereo; 41.45 MB (43 466 336 B)]
    04 The Final Frontier, Pt. 1.flac [05:15.147; FLAC • 784 kbps • 16 bit \ 44100 Hz • stereo; 29.49 MB (30 917 878 B)]
    05 Back to the Ship.flac [04:37.467; FLAC • 813 kbps • 16 bit \ 44100 Hz • stereo; 26.91 MB (28 221 333 B)]
    06 Calling the Egyptians.flac [05:09.067; FLAC • 834 kbps • 16 bit \ 44100 Hz • stereo; 30.73 MB (32 223 791 B)]
    07 Strange Loop.flac [08:34.453; FLAC • 735 kbps • 16 bit \ 44100 Hz • stereo; 45.08 MB (47 265 940 B)]
    08 The Final Frontier, Pt. 2.flac [02:20.307; FLAC • 718 kbps • 16 bit \ 44100 Hz • stereo; 12.01 MB (12 597 671 B)]
    09 Pad4.flac [03:29.013; FLAC • 690 kbps • 16 bit \ 44100 Hz • stereo; 17.21 MB (18 048 445 B)]
Accuracy: -m0
File 01 Out of Control            - 100% CDDA [03:56:58]
File 02 Interstellar Aliens       - 100% CDDA [05:12:59]
File 03 Thunder Rider             - 100% CDDA [06:36:03]
File 04 The Final Frontier, Pt. 1 -  [color=red]95% MPEG[/color] [05:15:11]
File 05 Back to the Ship          - 100% CDDA [04:37:35]
File 06 Calling the Egyptians     -  [color=red]95% MPEG[/color] [05:09:05]
File 07 Strange Loop              - 100% CDDA [08:34:34]
File 08 The Final Frontier, Pt. 2 -  [color=red]93% MPEG[/color] [02:20:23]
File 09 Pad4                      - 100% CDDA [03:29:01]
————— Summary: —————
These tracks looks like CDDA with probability 100%.
————————————————————————————————————————————————————————————————————————
[url=https://fastpic.ru/view/110/2019/0307/2b082c4239f08cb32027b26e045bac3a.jpg.html][img]https://i110.fastpic.ru/thumb/2019/0307/3a/2b082c4239f08cb32027b26e045bac3a.jpeg[/img][/url]
ANALYZER:
    auCDtect: CD records authenticity detector, version 0.8.2
    Copyright (c) 2004 Oleg Berngardt. All rights reserved.
    Copyright (c) 2004 Alexander Djourik. All rights reserved.
Time elapsed: 1 m 59 s
Log created at March 07, 2019 22:25:04
=== 0C83F30EA12E3283FDFE9AB998D3D119337C5ACCD574A058197FEC73DF779E5C ===
Код: Выделить всё
[CUETools log; Date: 07.03.2019 22:22:35; Version: 2.1.6]
Padded some input files to a frame boundary.
[CTDB TOCID: yaLLJUweNnMfEWBqqhcFRDnw6kI-] disk not present in database.
[AccurateRip ID: 000ff7cb-0075bff5-720a9709] disk not present in database.
Track Peak [ CRC32  ] [W/O NULL]
 --   99,9 [6F776ECE] [6EB655BF]
 01   96,6 [4F916D11] [73998787]
 02   98,8 [ECA5EC59] [C36CE7EC]
 03   96,6 [8ABD72DC] [8C92D0AD]
 04   98,8 [491DC36B] [8E0382D4]
 05   96,6 [6690D9D6] [10122CBA]
 06   99,9 [DCC5D4CC] [404A4BCD]
 07   96,6 [B92EC1A8] [2BD9202F]
 08   85,6 [373401DB] [7922956D]
 09   81,6 [9F40EC6B] [66D7D617]
Код: Выделить всё
foobar2000 1.4.2 / Замер динамического диапазона (DR) 1.1.1
Дата отчёта:  2019-03-07 22:21:56
--------------------------------------------------------------------------------
Анализ:   Nik Turner / The Final Frontier
--------------------------------------------------------------------------------
DR         Пики         RMS           Продолжительность трека
--------------------------------------------------------------------------------
DR9       -0.30 дБ   -10.45 дБ      3:57 01-Out of Control
DR9       -0.10 дБ   -11.07 дБ      5:13 02-Interstellar Aliens
DR9       -0.30 дБ   -12.66 дБ      6:36 03-Thunder Rider
DR11      -0.10 дБ   -13.39 дБ      5:15 04-The Final Frontier, Pt. 1
DR9       -0.30 дБ   -11.80 дБ      4:37 05-Back to the Ship
DR10       0.00 дБ   -11.76 дБ      5:09 06-Calling the Egyptians
DR11      -0.30 дБ   -13.69 дБ      8:34 07-Strange Loop
DR12      -1.34 дБ   -17.38 дБ      2:20 08-The Final Frontier, Pt. 2
DR12      -1.76 дБ   -19.19 дБ      3:29 09-Pad4
--------------------------------------------------------------------------------
Количество треков: 9
Реальные значения DR: DR10
Частота:   44100 Гц
Каналов:   2
Разрядность:   16
Битрейт:   683 кбит/с
Кодек:   FLAC
================================================================================
Правила, инструкции, FAQ!!!
Торрент  Добавлен [09 мар 2019, 11:26] Скачать торрент Магнет ссылка
Скачать торрент
11.15 КБ

Статус
Проверен 
 
Размер  261.16 МБ
Приватный: Нет (DHT включён)
.torrent скачан  0
Как залить торрент? | Как скачать Torrent? | Как смотреть и слушать онлайн?  
Гость
 



Вернуться в Progressive & Art-Rock

Кто сейчас на конференции

Сейчас этот форум просматривают: нет зарегистрированных пользователей и гости: 0