Sir Lord Baltimore - 3 альбома (1970 - 2006) дискография [FLAC|Lossless]<Rock, Hard Rock>


Статистика раздачи
Размер: 704.53 МБ | Добавлен: 04 июн 2014, 23:58 | Скачали: 0
Сидеров: 1  [0 байт/сек]    Личеров: 579  [0 байт/сек]

Сообщение Гость » 04 июн 2014, 23:58

Sir Lord Baltimore - Дискография (1970 - 2006)



Страна: USA
Год: 1970 - 2006
Жанр: Rock, Hard Rock
Кодек: FLAC
Тип рипа: tracks+.cue
Битрейт: Lossless
Наличие сканов: Все
Продолжительность: 01:37:52

Sir Lord Baltimore – музыканты из Бруклина, основанные в 1968 году вокалистом-барабанщиком Джоном Гарднером, гитаристом Луисом Дамбра и басистом Гари Джастином. Их первый альбом Kingdom Come, был записан на Vantone Studios, West Orange, New Jersey, в сопродюсерстве с Джимом Кретекосом. На нем было множество наложенных партий, которые микшировались в нью-йоркской студии Джимми Хендрикса Electric Ladyland легендарным звукоинженером Эдди Крамером. Рассказывают, что сами Pink Floyd слушали SIR LORD BALTIMORE во время этих сессий и были весьма впечатлены.


1994 USA PolyGram Records 314 522 241-2

Продолжительность: 01:09:44

Треклист:

1970 - Kingdom come
01. Kingdom Come (6:35)
02. I Got A Woman (3:00)
03. Hell Hound (3:19)
04. Helium Head (I Got A Love) (4:01)
05. Ain't Got Hung On You (2:22)
06. Master Heartache (4:35)
07. Hard Rain Fallin' (2:55)
08. Lady Of Fire (2:52)
09. Lake Isle Of Innersfree (4:02)
10. Pumped Up (4:06)

1971 - Sir Lord Baltimore
11. Chicago Lives (3:48)
12. Loe And Behold (3:44)
13. Woman Tamer (5:11)
14. Caesar LXXI (5:23)
15. Man From Manhattan (10:32)
16. Where Are We Going (3:20)
Код:
Код: Выделить всё
EAC extraction logfile from 22. January 2005, 21:54 for CD
Sir Lord Baltimore / Kingdom Come / Sir Lord Baltimore

Used drive  : PLEXTOR DVDR   PX-712A   Adapter: 0  ID: 0
Read mode   : Secure with NO C2, accurate stream, disable cache
Read offset correction : 30
Overread into Lead-In and Lead-Out : No

Used output format : C:\Programme\FLAC\flac.exe   (User Defined Encoder)
                     320 kBit/s
                     Additional command line options : -T "artist=%a" -T "title=%t" -T "album=%g" -T "date=%y" -T "tracknumber=%n" -T "genre=%m" %s
                     Use compression offset : 2257

Other options      :
    Fill up missing offset samples with silence : Yes
    Delete leading and trailing silent blocks : No
    Installed external ASPI interface

Track  1
     Filename E:\01 - Kingdom Come.wav

     Pre-gap length  0:00:02.00

     Peak level 84.1 %
     Track quality 100.0 %
     Test CRC 28062B38
     Copy CRC 28062B38
     Copy OK

Track  2
     Filename E:\02 - I Got A Woman.wav

     Peak level 68.9 %
     Track quality 99.9 %
     Test CRC 68B3FBC7
     Copy CRC 68B3FBC7
     Copy OK

Track  3
     Filename E:\03 - Hell Hound.wav

     Peak level 84.1 %
     Track quality 100.0 %
     Test CRC 514A4729
     Copy CRC 514A4729
     Copy OK

Track  4
     Filename E:\04 - Helium Head (I Got A Love).wav

     Peak level 83.7 %
     Track quality 99.9 %
     Test CRC 0F5B3852
     Copy CRC 0F5B3852
     Copy OK

Track  5
     Filename E:\05 - Ain't Got Hung On You.wav

     Peak level 77.2 %
     Track quality 100.0 %
     Test CRC 5F6EA7BA
     Copy CRC 5F6EA7BA
     Copy OK

Track  6
     Filename E:\06 - Master Heartache.wav

     Peak level 84.1 %
     Track quality 100.0 %
     Test CRC 08BF7943
     Copy CRC 08BF7943
     Copy OK

Track  7
     Filename E:\07 - Hard Rain Fallin'.wav

     Peak level 84.1 %
     Track quality 99.9 %
     Test CRC B043F8E3
     Copy CRC B043F8E3
     Copy OK

Track  8
     Filename E:\08 - Lady Of Fire.wav

     Peak level 79.4 %
     Track quality 99.9 %
     Test CRC 5DF0E161
     Copy CRC 5DF0E161
     Copy OK

Track  9
     Filename E:\09 - Lake Isle Of Innersfree.wav

     Peak level 84.1 %
     Track quality 100.0 %
     Test CRC 594E122D
     Copy CRC 594E122D
     Copy OK

Track 10
     Filename E:\10 - Pumped Up.wav

     Peak level 81.0 %
     Track quality 100.0 %
     Test CRC 7A9742B8
     Copy CRC 7A9742B8
     Copy OK

Track 11
     Filename E:\11 - Chicago Lives.wav

     Peak level 84.1 %
     Track quality 100.0 %
     Test CRC D8134256
     Copy CRC D8134256
     Copy OK

Track 12
     Filename E:\12 - Loe And Behold.wav

     Peak level 84.1 %
     Track quality 100.0 %
     Test CRC E9CF066C
     Copy CRC E9CF066C
     Copy OK

Track 13
     Filename E:\13 - Woman Tamer.wav

     Peak level 94.4 %
     Track quality 99.9 %
     Test CRC 58C1DDC3
     Copy CRC 58C1DDC3
     Copy OK

Track 14
     Filename E:\14 - Caesar LXXI.wav

     Peak level 72.0 %
     Track quality 100.0 %
     Test CRC B47C9F99
     Copy CRC B47C9F99
     Copy OK

Track 15
     Filename E:\15 - Man From Manhattan.wav

     Peak level 84.1 %
     Track quality 100.0 %
     Test CRC 9A04641A
     Copy CRC 9A04641A
     Copy OK

Track 16
     Filename E:\16 - Where Are We Going.wav

     Peak level 84.1 %
     Track quality 100.0 %
     Test CRC 8A595D75
     Copy CRC 8A595D75
     Copy OK

No errors occured

End of status report
Код:
Код: Выделить всё
PERFORMER "Sir Lord Baltimore"
TITLE "Kingdom Come / Sir Lord Baltimore"
FILE "01 - Kingdom Come.wav" WAVE
  TRACK 01 AUDIO
    TITLE "Kingdom Come"
    PERFORMER "Sir Lord Baltimore"
    INDEX 01 00:00:00
FILE "02 - I Got A Woman.wav" WAVE
  TRACK 02 AUDIO
    TITLE "I Got A Woman"
    PERFORMER "Sir Lord Baltimore"
    INDEX 01 00:00:00
FILE "03 - Hell Hound.wav" WAVE
  TRACK 03 AUDIO
    TITLE "Hell Hound"
    PERFORMER "Sir Lord Baltimore"
    INDEX 01 00:00:00
FILE "04 - Helium Head (I Got A Love).wav" WAVE
  TRACK 04 AUDIO
    TITLE "Helium Head (I Got A Love)"
    PERFORMER "Sir Lord Baltimore"
    INDEX 01 00:00:00
FILE "05 - Ain't Got Hung On You.wav" WAVE
  TRACK 05 AUDIO
    TITLE "Ain't Got Hung On You"
    PERFORMER "Sir Lord Baltimore"
    INDEX 01 00:00:00
FILE "06 - Master Heartache.wav" WAVE
  TRACK 06 AUDIO
    TITLE "Master Heartache"
    PERFORMER "Sir Lord Baltimore"
    INDEX 01 00:00:00
FILE "07 - Hard Rain Fallin'.wav" WAVE
  TRACK 07 AUDIO
    TITLE "Hard Rain Fallin'"
    PERFORMER "Sir Lord Baltimore"
    INDEX 01 00:00:00
FILE "08 - Lady Of Fire.wav" WAVE
  TRACK 08 AUDIO
    TITLE "Lady Of Fire"
    PERFORMER "Sir Lord Baltimore"
    INDEX 01 00:00:00
FILE "09 - Lake Isle Of Innersfree.wav" WAVE
  TRACK 09 AUDIO
    TITLE "Lake Isle Of Innersfree"
    PERFORMER "Sir Lord Baltimore"
    INDEX 01 00:00:00
FILE "10 - Pumped Up.wav" WAVE
  TRACK 10 AUDIO
    TITLE "Pumped Up"
    PERFORMER "Sir Lord Baltimore"
    INDEX 01 00:00:00
FILE "11 - Chicago Lives.wav" WAVE
  TRACK 11 AUDIO
    TITLE "Chicago Lives"
    PERFORMER "Sir Lord Baltimore"
    INDEX 01 00:00:00
FILE "12 - Loe And Behold.wav" WAVE
  TRACK 12 AUDIO
    TITLE "Loe And Behold"
    PERFORMER "Sir Lord Baltimore"
    INDEX 01 00:00:00
FILE "13 - Woman Tamer.wav" WAVE
  TRACK 13 AUDIO
    TITLE "Woman Tamer"
    PERFORMER "Sir Lord Baltimore"
    INDEX 01 00:00:00
FILE "14 - Caesar LXXI.wav" WAVE
  TRACK 14 AUDIO
    TITLE "Caesar LXXI"
    PERFORMER "Sir Lord Baltimore"
    INDEX 01 00:00:00
FILE "15 - Man From Manhattan.wav" WAVE
  TRACK 15 AUDIO
    TITLE "Man From Manhattan"
    PERFORMER "Sir Lord Baltimore"
    INDEX 01 00:00:00
FILE "16 - Where Are We Going.wav" WAVE
  TRACK 16 AUDIO
    TITLE "Where Are We Going"
    PERFORMER "Sir Lord Baltimore"
    INDEX 01 00:00:00
Код:
Код: Выделить всё
-----------------------

DON'T MODIFY THIS FILE

-----------------------

PERFORMER: auCDtect Task Manager, ver. 1.5.1RC4 build 1.5.1.5
Copyright (c) 2008-2010 y-soft. All rights reserved
http:/y-soft.org

ANALYZER: auCDtect: CD records authenticity detector, version 0.8.2
Copyright (c) 2004 Oleg Berngardt. All rights reserved.
Copyright (c) 2004 Alexander Djourik. All rights reserved.

FILE: 16 - Where Are We Going.flac
  Size: 24253269 Hash: FA2A99EE13EC7BA9F2BDFEED74DB048F Accuracy: -m0
  Conclusion: CDDA 100%
  Signature: 7203981710B4F5C88F0AB7E025C529471CA85973
FILE: 15 - Man From Manhattan.flac
  Size: 63402464 Hash: A04655D1FE865442768B5C3E1C22A300 Accuracy: -m0
  Conclusion: CDDA 99%
  Signature: 199A2437553EB9C0469EC21FD630B5464417BBE5
FILE: 14 - Caesar LXXI.flac
  Size: 34649217 Hash: F70D43F06CA0A77140DA189E9E1AF00A Accuracy: -m0
  Conclusion: CDDA 100%
  Signature: C2687B7137565389E093FD3564E9F9F8EAB02400
FILE: 13 - Woman Tamer.flac
  Size: 36537206 Hash: 966A5E490CBE0D7FB9B2870D85E2554C Accuracy: -m0
  Conclusion: CDDA 100%
  Signature: 2B35CE0C973232FDBE9D10C00881942482F9BB23
FILE: 12 - Loe And Behold.flac
  Size: 25466660 Hash: A5A5534550D4F499F5A82884466B6322 Accuracy: -m0
  Conclusion: CDDA 100%
  Signature: 94689DE1E6D8036B6019A6AE4E3D7A3D3B25B124
FILE: 11 - Chicago Lives.flac
  Size: 27066925 Hash: 05BA2F0D41E997A4FCAC8060CFC4E650 Accuracy: -m0
  Conclusion: CDDA 100%
  Signature: A97FB10077B80828BFD2A222143FA17004AE62AE
FILE: 10 - Pumped Up.flac
  Size: 28753598 Hash: 6B0D664CBB9FC08554375B5A60950EF3 Accuracy: -m0
  Conclusion: CDDA 100%
  Signature: 5657BA4A531CB30B10FDF068CDB6996EF6A9F8A9
FILE: 09 - Lake Isle Of Innersfree.flac
  Size: 29273231 Hash: 36459514C82D7F277860C4788A8FD282 Accuracy: -m0
  Conclusion: CDDA 100%
  Signature: 75C2E80AFB42CE4DDD2DCC8A7D1D35C648BE73F8
FILE: 08 - Lady Of Fire.flac
  Size: 19553595 Hash: 44D84F17A2AF3AB5C19BB0A86311262C Accuracy: -m0
  Conclusion: CDDA 100%
  Signature: 4906D1B60D445F8A3F0DCC6FD81CC8A519298F1E
FILE: 07 - Hard Rain Fallin'.flac
  Size: 20737324 Hash: A59D048D95C8C2556ABBFB1ADBE2AF15 Accuracy: -m0
  Conclusion: CDDA 100%
  Signature: 4FC3A7B1FBB024013EDDE2579C7ECCEB8BA55E11
FILE: 06 - Master Heartache.flac
  Size: 33026170 Hash: 28CBD8BA7216E7A5AE33627F9F7A04C7 Accuracy: -m0
  Conclusion: CDDA 100%
  Signature: B64AD6EABA2C1978FB6B8116A12EA647B3647B52
FILE: 05 - Ain't Got Hung On You.flac
  Size: 16304892 Hash: 2A4ACF1CF3B155697A838073EA4C834E Accuracy: -m0
  Conclusion: CDDA 100%
  Signature: 8C70A7BE63824B5E82D7169A0613FE114842A82B
FILE: 04 - Helium Head (I Got A Love).flac
  Size: 27407239 Hash: 92075CB8884D9EB5038E3A6575DCBEA0 Accuracy: -m0
  Conclusion: CDDA 100%
  Signature: 136B04A9A59DB99199EC2D39B1C0371945A2AB45
FILE: 03 - Hell Hound.flac
  Size: 23775497 Hash: 06AD9CEDAA4E1BC471863AA0E6554B82 Accuracy: -m0
  Conclusion: CDDA 100%
  Signature: 8C1EA34F29BD83F9E1F55DB25355CCFCF7BFA156
FILE: 02 - I Got A Woman.flac
  Size: 20607555 Hash: 3EA6637A2F8472D30CF3A295598052A3 Accuracy: -m0
  Conclusion: CDDA 100%
  Signature: D04D2BFB69EC7BBF4FBD459D7EAE49493816C645
FILE: 01 - Kingdom Come.flac
  Size: 46633656 Hash: 75A28FFEC3BB92C310F106409B58E827 Accuracy: -m0
  Conclusion: CDDA 100%
  Signature: 727D3DC15F5FDE1E39072D6A951757E29E981927


2006 USA JG RECORDS, INC.

Продолжительность: 00:28:08

Треклист:

01 - (Gonna) Fill The World With Fire (3:40)
02 - Love Slave (3:42)
03 - Wild White Horses (7:01)
04 - Rising Son (4:45)
05 - Cosmic Voice (3:58)
06 - Mission (4:58)
Код:
Код: Выделить всё
Exact Audio Copy V0.99 prebeta 1 from 25. May 2007

EAC extraction logfile from 12. November 2007, 0:24

Sir Lord Baltimore / Sir Lord Baltimore III Raw

Used drive  : SONY    DVD-ROM DDU1615   Adapter: 3  ID: 2

Read mode               : Secure
Utilize accurate stream : Yes
Defeat audio cache      : Yes
Make use of C2 pointers : No

Read offset correction                      : 6
Overread into Lead-In and Lead-Out          : No
Fill up missing offset samples with silence : Yes
Delete leading and trailing silent blocks   : No
Used interface                              : Installed external ASPI interface
Gap handling                                : Not detected, thus appended to previous track

Used output format : Internal WAV Routines
Sample format      : 44.100 Hz; 16 Bit; Stereo

TOC of the extracted CD

     Track |   Start  |  Length  | Start sector | End sector
    ---------------------------------------------------------
        1  |  0:00.00 |  3:40.09 |         0    |    16508
        2  |  3:40.09 |  3:41.65 |     16509    |    33148
        3  |  7:21.74 |  7:00.52 |     33149    |    64700
        4  | 14:22.51 |  4:44.46 |     64701    |    86046
        5  | 19:07.22 |  3:58.26 |     86047    |   103922
        6  | 23:05.48 |  4:57.43 |    103923    |   126240

Track  1

     Filename M:\work\Sir Lord Baltimore - Sir Lord Baltimore III Raw\01 - (Gonna) Fill The World With Fire.wav

     Peak level 100.0 %
     Track quality 100.0 %
     Copy CRC CF098A74
     Copy OK

Track  2

     Filename M:\work\Sir Lord Baltimore - Sir Lord Baltimore III Raw\02 - Love Slave.wav

     Peak level 100.0 %
     Track quality 100.0 %
     Copy CRC 52AA0004
     Copy OK

Track  3

     Filename M:\work\Sir Lord Baltimore - Sir Lord Baltimore III Raw\03 - Wild White Horses.wav

     Peak level 100.0 %
     Track quality 99.9 %
     Copy CRC 5BF5B18A
     Copy OK

Track  4

     Filename M:\work\Sir Lord Baltimore - Sir Lord Baltimore III Raw\04 - Rising Son.wav

     Peak level 96.0 %
     Track quality 100.0 %
     Copy CRC F5C500E7
     Copy OK

Track  5

     Filename M:\work\Sir Lord Baltimore - Sir Lord Baltimore III Raw\05 - Cosmic Voice.wav

     Peak level 100.0 %
     Track quality 100.0 %
     Copy CRC 062CA594
     Copy OK

Track  6

     Filename M:\work\Sir Lord Baltimore - Sir Lord Baltimore III Raw\06 - Mission.wav

     Peak level 100.0 %
     Track quality 100.0 %
     Copy CRC 55556904
     Copy OK

No errors occurred

End of status report
Код:
Код: Выделить всё
REM GENRE Rock
REM DATE 2006
REM DISCID 47069306
REM COMMENT "ExactAudioCopy v0.99pb1"
PERFORMER "Sir Lord Baltimore"
TITLE "Sir Lord Baltimore III Raw"
FILE "01 - (Gonna) Fill The World With Fire.wav" WAVE
  TRACK 01 AUDIO
    TITLE "(Gonna) Fill The World With Fire"
    PERFORMER "Sir Lord Baltimore"
    ISRC USX8C0600143
    FLAGS DCP
    INDEX 01 00:00:00
FILE "02 - Love Slave.wav" WAVE
  TRACK 02 AUDIO
    TITLE "Love Slave"
    PERFORMER "Sir Lord Baltimore"
    ISRC USX8C0600144
    FLAGS DCP
    INDEX 01 00:00:00
FILE "03 - Wild White Horses.wav" WAVE
  TRACK 03 AUDIO
    TITLE "Wild White Horses"
    PERFORMER "Sir Lord Baltimore"
    ISRC USX8C0600145
    FLAGS DCP
    INDEX 01 00:00:00
FILE "04 - Rising Son.wav" WAVE
  TRACK 04 AUDIO
    TITLE "Rising Son"
    PERFORMER "Sir Lord Baltimore"
    ISRC USX8C0600146
    FLAGS DCP
    INDEX 01 00:00:00
FILE "05 - Cosmic Voice.wav" WAVE
  TRACK 05 AUDIO
    TITLE "Cosmic Voice"
    PERFORMER "Sir Lord Baltimore"
    ISRC USX8C0600147
    FLAGS DCP
    INDEX 01 00:00:00
FILE "06 - Mission.wav" WAVE
  TRACK 06 AUDIO
    TITLE "Mission"
    PERFORMER "Sir Lord Baltimore"
    ISRC USX8C0600148
    FLAGS DCP
    INDEX 01 00:00:00
Код:
Код: Выделить всё
-----------------------

DON'T MODIFY THIS FILE

-----------------------

PERFORMER: auCDtect Task Manager, ver. 1.5.1RC4 build 1.5.1.5
Copyright (c) 2008-2010 y-soft. All rights reserved
http:/y-soft.org

ANALYZER: auCDtect: CD records authenticity detector, version 0.8.2
Copyright (c) 2004 Oleg Berngardt. All rights reserved.
Copyright (c) 2004 Alexander Djourik. All rights reserved.

FILE: 06 - Mission.flac
  Size: 39037928 Hash: F1F9F40D307652C75513118881C37770 Accuracy: -m0
  Conclusion: CDDA 100%
  Signature: 3767E2D0CF4D6264F0A3B042ED26D9834D1FAC63
FILE: 05 - Cosmic Voice.flac
  Size: 31931935 Hash: 584764E9769413229B75BC1D1450C7CC Accuracy: -m0
  Conclusion: CDDA 100%
  Signature: 1FA4B55B179E162E94630EABD5342B41CE7695A6
FILE: 04 - Rising Son.flac
  Size: 36698869 Hash: 4550E9066086BADF7C793EBC381A46A2 Accuracy: -m0
  Conclusion: CDDA 100%
  Signature: B35EE5EC1DF4EF63E3137ED93DCC7696B8AF1787
FILE: 03 - Wild White Horses.flac
  Size: 52543473 Hash: D649576B0B9C012A966E5A92F802C84F Accuracy: -m0
  Conclusion: CDDA 100%
  Signature: F5664BCF9F5091A53CC39D647AD05F1BB6863670
FILE: 02 - Love Slave.flac
  Size: 29282320 Hash: E95A1884F2BC17DCED02B886F51C0D88 Accuracy: -m0
  Conclusion: CDDA 100%
  Signature: 2CFBE58C9BE864D14DBBF97BB894F1AED479B671
FILE: 01 - (Gonna) Fill The World With Fire.flac
  Size: 27699937 Hash: 21E53F9278100B57A666CBDE2416F8F5 Accuracy: -m0
  Conclusion: CDDA 100%
  Signature: 867D91AA8989B92B040DB09AE6EB6173E5A5AE6B
Правила, инструкции, FAQ!!!
Торрент  Добавлен [04 июн 2014, 23:58] Скачать торрент Магнет ссылка
Скачать торрент
17.94 КБ

Статус
Проверен 
 
Размер  704.53 МБ
Приватный: Нет (DHT включён)
.torrent скачан  0
Как залить торрент? | Как скачать Torrent? | Как смотреть и слушать онлайн?  
Гость
 



Вернуться в Дискографии (Зарубежные)

Кто сейчас на конференции

Сейчас этот форум просматривают: нет зарегистрированных пользователей и гости: 0