(RPI) [CD] Celeste - Il Risveglio del Principe - 2019 (Japan, Bonus Track), FLAC (tracks+.cue), lossless


Статистика раздачи
Размер: 607.37 МБ | Добавлен: 09 мар 2019, 11:27 | Скачали: 2
Сидеров: 11  [0 байт/сек]    Личеров: 0  [0 байт/сек]

Сообщение Гость » 09 мар 2019, 11:27

Celeste - Il Risveglio del Principe
Жанр: RPI
Носитель: CD
Год выпуска диска: 2019
Страна: Italy
Производитель диска: Belle Antique / BELLE 193060
Аудио кодек: FLAC
Тип рипа: tracks+.cue
Битрейт аудио: lossless
Продолжительность: 55:44
Наличие сканов в содержимом раздачи:
Трэклист:
01. Qual Fior di Loto (6:04)
02. Bianca Vestale (6:49)
03. Statue di Sale (8:38)
04. Principessa Oscura (6:22)
05. Fonte Perenne (6:12)
06. Giardini di Pietra (4:32)
07. Falsi Piani Lontani (6:08)
08. Porpora e Giacinto (5:50)
+ + + + + + + + + +
09. Mare Di Giada (4:39)
Состав:
- Ciro Perrino / Mellotron, Eminent, Solina, ARP 2600 / Odyssey, Minimoog, piano, shamanic percussion, glockenspiel, lead & backing vocals, composer
- Mauro Vero / acoustic & electric guitars
- Massimo Dal Prá / piano, Rhodes, harpsichord
- Marco Moro / flute, recorders, tenor saxophone
- Andrea De Martini / alto & tenor saxophones
- Sergio Caputo / violin
- Mariano Dapor / cello, backing vocals
- Francesco Bertone / electric bass
- Enzo Cioffi / drums
- Marzio Marossa / percussion, backing vocals
With:
- Elisa Montaldo / vocals
- Alfio Costa / Hammond organ
- Claudia Enrico / rainstick (1,3)
- Ciro Perrino Junior / narration (1), gong (5)
Доп. информация: http://www.progarchives.com/artist.asp?id=55
Код: Выделить всё
Exact Audio Copy V1.0 beta 3 from 29. August 2011
EAC extraction logfile from 28. February 2019, 20:30
Celeste / Il Risveglio Del Principe
Used drive  : MATSHITADVD+-RW UJ8E2   Adapter: 0  ID: 0
Read mode               : Secure
Utilize accurate stream : Yes
Defeat audio cache      : Yes
Make use of C2 pointers : No
Read offset correction                      : 103
Overread into Lead-In and Lead-Out          : No
Fill up missing offset samples with silence : Yes
Delete leading and trailing silent blocks   : No
Null samples used in CRC calculations       : Yes
Used interface                              : Native Win32 interface for Win NT & 2000
Gap handling                                : Appended to previous track
Used output format              : User Defined Encoder
Selected bitrate                : 768 kBit/s
Quality                         : High
Add ID3 tag                     : No
Command line compressor         : C:\Program Files (x86)\Exact Audio Copy\FLAC\FLAC.EXE
Additional command line options : -8 -V -T "ARTIST=%artist%" -T "TITLE=%title%" -T "ALBUM=%albumtitle%" -T "DATE=%year%" -T "TRACKNUMBER=%tracknr%" -T "TOTALTRACKS=%numtracks%" -T "GENRE=%genre%" -T "ALBUMARTIST=%albumartist%" -T "ALBUM ARTIST=%albumartist%" -T "COMMENT=EAC Secure Mode, Test & Copy, AccurateRip, FLAC -8" %source%
TOC of the extracted CD
     Track |   Start  |  Length  | Start sector | End sector
    ---------------------------------------------------------
        1  |  0:00.00 |  6:07.51 |         0    |    27575
        2  |  6:07.51 |  6:52.30 |     27576    |    58505
        3  | 13:00.06 |  8:41.34 |     58506    |    97614
        4  | 21:41.40 |  6:25.49 |     97615    |   126538
        5  | 28:07.14 |  6:15.10 |    126539    |   154673
        6  | 34:22.24 |  4:35.46 |    154674    |   175344
        7  | 38:57.70 |  6:11.10 |    175345    |   203179
        8  | 45:09.05 |  5:55.17 |    203180    |   229821
        9  | 51:04.22 |  4:39.54 |    229822    |   250800
Track  1
     Filename C:\bzp01\Celeste - Il Risveglio Del Principe (2019) [FLAC] {BELLE-193060}\01 - Qual Fior di Loto.wav
     Pre-gap length  0:00:02.00
     Peak level 97.7 %
     Extraction speed 2.6 X
     Track quality 100.0 %
     Test CRC A2076364
     Copy CRC A2076364
     Track not present in AccurateRip database
     Copy OK
Track  2
     Filename C:\bzp01\Celeste - Il Risveglio Del Principe (2019) [FLAC] {BELLE-193060}\02 - Bianca Vestale.wav
     Pre-gap length  0:00:03.00
     Peak level 97.7 %
     Extraction speed 3.1 X
     Track quality 100.0 %
     Test CRC A75C17DE
     Copy CRC A75C17DE
     Track not present in AccurateRip database
     Copy OK
Track  3
     Filename C:\bzp01\Celeste - Il Risveglio Del Principe (2019) [FLAC] {BELLE-193060}\03 - Statue di Sale.wav
     Pre-gap length  0:00:03.00
     Peak level 97.7 %
     Extraction speed 3.6 X
     Track quality 100.0 %
     Test CRC A2C6C410
     Copy CRC A2C6C410
     Track not present in AccurateRip database
     Copy OK
Track  4
     Filename C:\bzp01\Celeste - Il Risveglio Del Principe (2019) [FLAC] {BELLE-193060}\04 - Principessa Oscura.wav
     Pre-gap length  0:00:03.00
     Peak level 98.2 %
     Extraction speed 3.9 X
     Track quality 100.0 %
     Test CRC 5CABFC51
     Copy CRC 5CABFC51
     Track not present in AccurateRip database
     Copy OK
Track  5
     Filename C:\bzp01\Celeste - Il Risveglio Del Principe (2019) [FLAC] {BELLE-193060}\05 - Fonte Perenne.wav
     Pre-gap length  0:00:03.00
     Peak level 96.6 %
     Extraction speed 3.4 X
     Track quality 99.9 %
     Test CRC 3F855CB8
     Copy CRC 3F855CB8
     Track not present in AccurateRip database
     Copy OK
Track  6
     Filename C:\bzp01\Celeste - Il Risveglio Del Principe (2019) [FLAC] {BELLE-193060}\06 - Giardini di Pietra.wav
     Pre-gap length  0:00:03.00
     Peak level 97.7 %
     Extraction speed 4.3 X
     Track quality 100.0 %
     Test CRC B0DBC1C0
     Copy CRC B0DBC1C0
     Track not present in AccurateRip database
     Copy OK
Track  7
     Filename C:\bzp01\Celeste - Il Risveglio Del Principe (2019) [FLAC] {BELLE-193060}\07 - Falsi Piani Lontani.wav
     Pre-gap length  0:00:03.00
     Peak level 97.7 %
     Extraction speed 4.6 X
     Track quality 100.0 %
     Test CRC 5885A081
     Copy CRC 5885A081
     Track not present in AccurateRip database
     Copy OK
Track  8
     Filename C:\bzp01\Celeste - Il Risveglio Del Principe (2019) [FLAC] {BELLE-193060}\08 - Porpora e Giacinto.wav
     Pre-gap length  0:00:03.00
     Peak level 97.7 %
     Extraction speed 3.9 X
     Track quality 99.9 %
     Test CRC 6760984F
     Copy CRC 6760984F
     Track not present in AccurateRip database
     Copy OK
Track  9
     Filename C:\bzp01\Celeste - Il Risveglio Del Principe (2019) [FLAC] {BELLE-193060}\09 - Mare Di Giada.wav
     Pre-gap length  0:00:05.00
     Peak level 97.7 %
     Extraction speed 4.9 X
     Track quality 100.0 %
     Test CRC 858FFB84
     Copy CRC 858FFB84
     Track not present in AccurateRip database
     Copy OK
None of the tracks are present in the AccurateRip database
No errors occurred
End of status report
==== Log checksum F768B6AF1B3983CDF17B9A626A738E7D3DEDCE7B492D66709A20A40B92F27BCA ====
Код: Выделить всё
REM GENRE "Progressive Rock"
REM DATE 2019
REM DISCID 7B0D1009
REM COMMENT "ExactAudioCopy v1.0b3"
PERFORMER "Celeste"
TITLE "Il Risveglio Del Principe"
FILE "01 - Qual Fior di Loto.wav" WAVE
  TRACK 01 AUDIO
    TITLE "Qual Fior di Loto"
    PERFORMER "Celeste"
    INDEX 01 00:00:00
  TRACK 02 AUDIO
    TITLE "Bianca Vestale"
    PERFORMER "Celeste"
    INDEX 00 06:04:51
FILE "02 - Bianca Vestale.wav" WAVE
    INDEX 01 00:00:00
  TRACK 03 AUDIO
    TITLE "Statue di Sale"
    PERFORMER "Celeste"
    INDEX 00 06:49:30
FILE "03 - Statue di Sale.wav" WAVE
    INDEX 01 00:00:00
  TRACK 04 AUDIO
    TITLE "Principessa Oscura"
    PERFORMER "Celeste"
    INDEX 00 08:38:34
FILE "04 - Principessa Oscura.wav" WAVE
    INDEX 01 00:00:00
  TRACK 05 AUDIO
    TITLE "Fonte Perenne"
    PERFORMER "Celeste"
    INDEX 00 06:22:49
FILE "05 - Fonte Perenne.wav" WAVE
    INDEX 01 00:00:00
  TRACK 06 AUDIO
    TITLE "Giardini di Pietra"
    PERFORMER "Celeste"
    INDEX 00 06:12:10
FILE "06 - Giardini di Pietra.wav" WAVE
    INDEX 01 00:00:00
  TRACK 07 AUDIO
    TITLE "Falsi Piani Lontani"
    PERFORMER "Celeste"
    INDEX 00 04:32:46
FILE "07 - Falsi Piani Lontani.wav" WAVE
    INDEX 01 00:00:00
  TRACK 08 AUDIO
    TITLE "Porpora e Giacinto"
    PERFORMER "Celeste"
    INDEX 00 06:08:10
FILE "08 - Porpora e Giacinto.wav" WAVE
    INDEX 01 00:00:00
  TRACK 09 AUDIO
    TITLE "Mare Di Giada"
    PERFORMER "Celeste"
    INDEX 00 05:50:17
FILE "09 - Mare Di Giada.wav" WAVE
    INDEX 01 00:00:00
источник: bzp01
Правила, инструкции, FAQ!!!
Торрент  Добавлен [09 мар 2019, 11:27] Скачать торрент Магнет ссылка
Скачать торрент
28.22 КБ

Статус
Проверен 
 
Размер  607.37 МБ
Приватный: Нет (DHT включён)
.torrent скачан  2
Как залить торрент? | Как скачать Torrent? | Как смотреть и слушать онлайн?  
Гость
 



Вернуться в Progressive & Art-Rock

Кто сейчас на конференции

Сейчас этот форум просматривают: нет зарегистрированных пользователей и гости: 0