(Rock / Alternative) [CD] Сети - Просто - 2018, FLAC (tracks+.cue), lossless


Статистика раздачи
Размер: 282.84 МБ | Добавлен: 12 май 2019, 16:53 | Скачали: 1
Сидеров: 8  [0 байт/сек]    Личеров: 2  [0 байт/сек]

Сообщение Гость » 12 май 2019, 16:53

Сети / Просто
Жанр: Rock / Alternative
Носитель: CD
Страна-производитель диска (релиза): Russia
Год издания: 2018
Страна исполнителя (группы): Russia
Аудиокодек: FLAC (*.flac)
Тип рипа: tracks+.cue
Продолжительность: 00:41:59
Источник: собственный рип
Наличие сканов в содержимом раздачи: нет
Треклист:
◈ 01 - Белка В Колесе (00:04:34)
◈ 02 - Челентано (00:03:01)
◈ 03 - День Рождения (00:03:26)
◈ 04 - Алиса В Стране Чудес (00:03:58)
◈ 05 - Просто (00:03:33)
◈ 06 - Не Здесь (00:04:25)
◈ 07 - Медленная Осень (00:04:07)
◈ 08 - Маяк (Feat. Jukebox Trio) (00:03:52)
◈ 09 - Время Не Ждёт (00:04:28)
◈ 10 - Недалеко (00:03:07)
◈ 11 - Счастье (00:03:23)
Код: Выделить всё
Exact Audio Copy V1.3 from 2. September 2016
EAC extraction logfile from 11. May 2019, 1:05
Сети / Просто
Used drive  : ASUS    DRW-24B3LT   Adapter: 1  ID: 0
Read mode               : Secure
Utilize accurate stream : Yes
Defeat audio cache      : Yes
Make use of C2 pointers : No
Read offset correction                      : 6
Overread into Lead-In and Lead-Out          : No
Fill up missing offset samples with silence : Yes
Delete leading and trailing silent blocks   : No
Null samples used in CRC calculations       : Yes
Used interface                              : Native Win32 interface for Win NT & 2000
Gap handling                                : Appended to previous track
Used output format              : User Defined Encoder
Selected bitrate                : 896 kBit/s
Quality                         : High
Add ID3 tag                     : No
Command line compressor         : C:\Program Files (x86)\Exact Audio Copy\Flac\flac.exe
Additional command line options : -8 -V -T "ARTIST=%artist%" -T "TITLE=%title%" -T "ALBUM=%albumtitle%" -T "DATE=%year%" -T "TRACKNUMBER=%tracknr%" -T "GENRE=%genre%" -T "PERFORMER=%albuminterpret%" -T "COMPOSER=%composer%" %haslyrics%--tag-from-file=LYRICS="%lyricsfile%"%haslyrics% -T "ALBUMARTIST=%albumartist%" -T "DISCNUMBER=%cdnumber%" -T "TOTALDISCS=%totalcds%" -T "TOTALTRACKS=%numtracks%" -T "COMMENT=%comment%" %hascover%--picture="%coverfile%"%hascover% %source% -o %dest%
TOC of the extracted CD
     Track |   Start  |  Length  | Start sector | End sector
    ---------------------------------------------------------
        1  |  0:00.00 |  4:34.45 |         0    |    20594
        2  |  4:34.45 |  3:01.25 |     20595    |    34194
        3  |  7:35.70 |  3:26.21 |     34195    |    49665
        4  | 11:02.16 |  3:58.58 |     49666    |    67573
        5  | 15:00.74 |  3:33.49 |     67574    |    83597
        6  | 18:34.48 |  4:24.73 |     83598    |   103470
        7  | 22:59.46 |  4:07.45 |    103471    |   122040
        8  | 27:07.16 |  3:52.16 |    122041    |   139456
        9  | 30:59.32 |  4:27.73 |    139457    |   159554
       10  | 35:27.30 |  3:07.31 |    159555    |   173610
       11  | 38:34.61 |  3:23.64 |    173611    |   188899
Track  1
     Filename D:\MUSIC\EAC RIPS\Сети - Просто [2018] (FLAC)\01. Белка В Колесе.wav
     Pre-gap length  0:00:02.00
     Peak level 97.2 %
     Extraction speed 2.1 X
     Track quality 100.0 %
     Test CRC ED226913
     Copy CRC ED226913
     Accurately ripped (confidence 1)  [B1F4B215]  (AR v2)
     Copy OK
Track  2
     Filename D:\MUSIC\EAC RIPS\Сети - Просто [2018] (FLAC)\02. Челентано.wav
     Peak level 97.2 %
     Extraction speed 2.2 X
     Track quality 100.0 %
     Test CRC 31893FE0
     Copy CRC 31893FE0
     Accurately ripped (confidence 1)  [FA94FD72]  (AR v2)
     Copy OK
Track  3
     Filename D:\MUSIC\EAC RIPS\Сети - Просто [2018] (FLAC)\03. День Рождения.wav
     Peak level 97.2 %
     Extraction speed 2.3 X
     Track quality 100.0 %
     Test CRC 4882DAB6
     Copy CRC 4882DAB6
     Accurately ripped (confidence 1)  [C20ED85D]  (AR v2)
     Copy OK
Track  4
     Filename D:\MUSIC\EAC RIPS\Сети - Просто [2018] (FLAC)\04. Алиса В Стране Чудес.wav
     Peak level 97.2 %
     Extraction speed 2.6 X
     Track quality 100.0 %
     Test CRC 14300A06
     Copy CRC 14300A06
     Accurately ripped (confidence 1)  [D11BAA63]  (AR v2)
     Copy OK
Track  5
     Filename D:\MUSIC\EAC RIPS\Сети - Просто [2018] (FLAC)\05. Просто.wav
     Peak level 97.2 %
     Extraction speed 2.6 X
     Track quality 100.0 %
     Test CRC D18CAA7B
     Copy CRC D18CAA7B
     Accurately ripped (confidence 1)  [6D0FA8A3]  (AR v2)
     Copy OK
Track  6
     Filename D:\MUSIC\EAC RIPS\Сети - Просто [2018] (FLAC)\06. Не Здесь.wav
     Peak level 97.2 %
     Extraction speed 2.9 X
     Track quality 100.0 %
     Test CRC 805A4FF2
     Copy CRC 805A4FF2
     Accurately ripped (confidence 1)  [A2BF3C09]  (AR v2)
     Copy OK
Track  7
     Filename D:\MUSIC\EAC RIPS\Сети - Просто [2018] (FLAC)\07. Медленная Осень.wav
     Peak level 97.2 %
     Extraction speed 3.0 X
     Track quality 100.0 %
     Test CRC 71C9D6FC
     Copy CRC 71C9D6FC
     Accurately ripped (confidence 1)  [F39CB1CE]  (AR v2)
     Copy OK
Track  8
     Filename D:\MUSIC\EAC RIPS\Сети - Просто [2018] (FLAC)\08. Маяк.wav
     Peak level 97.2 %
     Extraction speed 3.1 X
     Track quality 100.0 %
     Test CRC D5B7525B
     Copy CRC D5B7525B
     Accurately ripped (confidence 1)  [75D8BEA3]  (AR v2)
     Copy OK
Track  9
     Filename D:\MUSIC\EAC RIPS\Сети - Просто [2018] (FLAC)\09. Время Не Ждёт.wav
     Peak level 97.2 %
     Extraction speed 3.3 X
     Track quality 100.0 %
     Test CRC C6613CAF
     Copy CRC C6613CAF
     Accurately ripped (confidence 1)  [B9783D86]  (AR v2)
     Copy OK
Track 10
     Filename D:\MUSIC\EAC RIPS\Сети - Просто [2018] (FLAC)\10. Недалеко.wav
     Peak level 97.2 %
     Extraction speed 3.2 X
     Track quality 100.0 %
     Test CRC DD0BA05F
     Copy CRC DD0BA05F
     Accurately ripped (confidence 1)  [F7D5001F]  (AR v2)
     Copy OK
Track 11
     Filename D:\MUSIC\EAC RIPS\Сети - Просто [2018] (FLAC)\11. Счастье.wav
     Peak level 97.2 %
     Extraction speed 2.9 X
     Track quality 99.9 %
     Test CRC 2192692D
     Copy CRC 2192692D
     Accurately ripped (confidence 1)  [5D8F19D4]  (AR v2)
     Copy OK
All tracks accurately ripped
No errors occurred
End of status report
---- CUETools DB Plugin V2.1.6
[CTDB TOCID: 8PLDpPIMb8CP_xatp2nusLwi_AY-] found
Submit result: 8PLDpPIMb8CP_xatp2nusLwi_AY- has been confirmed
Track | CTDB Status
  1   | (1/1) Accurately ripped
  2   | (1/1) Accurately ripped
  3   | (1/1) Accurately ripped
  4   | (1/1) Accurately ripped
  5   | (1/1) Accurately ripped
  6   | (1/1) Accurately ripped
  7   | (1/1) Accurately ripped
  8   | (1/1) Accurately ripped
  9   | (1/1) Accurately ripped
 10   | (1/1) Accurately ripped
 11   | (1/1) Accurately ripped
==== Log checksum 0FE76C1CC7D0B8EDB9FE6D292F8291F89B9933A707C66D789C4DA5727D42448C ====
Код: Выделить всё
REM GENRE Rock
REM DATE 2018
REM DISCID 8E09D60B
REM COMMENT "ExactAudioCopy v1.3"
PERFORMER "Сети"
TITLE "Просто"
REM COMPOSER ""
FILE "01. Белка В Колесе.wav" WAVE
  TRACK 01 AUDIO
    TITLE "Белка В Колесе"
    PERFORMER "Сети"
    REM COMPOSER ""
    INDEX 01 00:00:00
FILE "02. Челентано.wav" WAVE
  TRACK 02 AUDIO
    TITLE "Челентано"
    PERFORMER "Сети"
    REM COMPOSER ""
    INDEX 01 00:00:00
FILE "03. День Рождения.wav" WAVE
  TRACK 03 AUDIO
    TITLE "День Рождения"
    PERFORMER "Сети"
    REM COMPOSER ""
    INDEX 01 00:00:00
FILE "04. Алиса В Стране Чудес.wav" WAVE
  TRACK 04 AUDIO
    TITLE "Алиса В Стране Чудес"
    PERFORMER "Сети"
    REM COMPOSER ""
    INDEX 01 00:00:00
FILE "05. Просто.wav" WAVE
  TRACK 05 AUDIO
    TITLE "Просто"
    PERFORMER "Сети"
    REM COMPOSER ""
    INDEX 01 00:00:00
FILE "06. Не Здесь.wav" WAVE
  TRACK 06 AUDIO
    TITLE "Не Здесь"
    PERFORMER "Сети"
    REM COMPOSER ""
    INDEX 01 00:00:00
FILE "07. Медленная Осень.wav" WAVE
  TRACK 07 AUDIO
    TITLE "Медленная Осень"
    PERFORMER "Сети"
    REM COMPOSER ""
    INDEX 01 00:00:00
FILE "08. Маяк.wav" WAVE
  TRACK 08 AUDIO
    TITLE "Маяк"
    PERFORMER "Сети"
    REM COMPOSER ""
    INDEX 01 00:00:00
FILE "09. Время Не Ждёт.wav" WAVE
  TRACK 09 AUDIO
    TITLE "Время Не Ждёт"
    PERFORMER "Сети"
    REM COMPOSER ""
    INDEX 01 00:00:00
FILE "10. Недалеко.wav" WAVE
  TRACK 10 AUDIO
    TITLE "Недалеко"
    PERFORMER "Сети"
    REM COMPOSER ""
    INDEX 01 00:00:00
FILE "11. Счастье.wav" WAVE
  TRACK 11 AUDIO
    TITLE "Счастье"
    PERFORMER "Сети"
    REM COMPOSER ""
    INDEX 01 00:00:00
Правила, инструкции, FAQ!!!
Торрент  Добавлен [12 май 2019, 16:53] Скачать торрент Магнет ссылка
Скачать торрент
12.29 КБ

Статус
Проверен 
 
Размер  282.84 МБ
Приватный: Нет (DHT включён)
.torrent скачан  1
Как залить торрент? | Как скачать Torrent? | Как смотреть и слушать онлайн?  
Гость
 



Вернуться в Русский рок

Кто сейчас на конференции

Сейчас этот форум просматривают: нет зарегистрированных пользователей и гости: 0