Риддик / Riddick (1999-2013) BDRip [720p] [Director's Cut] [Трилогия]


Статистика раздачи
Размер: 43.8 ГБ | Добавлен: 11 ноя 2014, 12:27 | Скачали: 4
Сидеров: 36  [0 байт/сек]    Личеров: 26  [0 байт/сек]

Сообщение Гость » 11 ноя 2014, 12:27


#777
Черная дыра
Pitch Black
««A new species of terror»»

Год выпуска: 1999
Производство: USA / Polygram Filmed Entertainment, Interscope Communications
Жанр: фантастика, боевик, триллер

Режиссер: Дэвид Туи
Актеры: Вин Дизель, Рада Митчелл, Коул Хаузер, Кит Дэвид, Льюис Фиц-Джералд, Клаудия Блэк, Риана Гриффит, Джон Мур, Саймон Бурк, Лес Чэнтери

Описание фильма: В недалеком будущем космический корабль терпит бедствие, в результате чего совершает вынужденную посадку на отдаленной планете. Но в результате такой посадки погибает командир корабля, часть команды и большинство пассажиров.

Оставшиеся в живых оказываются одни на жуткой и безжизненной планете. Первое, что бросается в глаза — это то, что планета имеет три солнца, из-за чего все живое погибает в этой пустыне. Но как только планета погружается в темноту, появляются какие-то странные существа…

Перевод: профессиональный (полное дублирование), профессиональный (многоголосый закадровый), профессиональный (двуголосый закадровый), авторский (одноголосый закадровый)
Вид субтитров: вшитые отключаемые
Язык субтитров: русские (Full, Forsed), английские



Рейтинг MPAA

Дата мировой премьеры: 18 февраля 2000
Дата выхода DVD релиза: 17 апреля 2007, «Юниверсал Пикчерс Рус»
Дата выхода Blu-Ray релиза: 8 февраля 2011, «Юниверсал Пикчерс Рус»

Продолжительность: 01:51:55
Качество: BDRip (720p)

Видео: MPEG-4 AVC/H.264, 1280 x 544, (2,35:1), 11 000 kbps, 23.976 fps, 0.659 b/px
Аудио # 1: AC3, 6 ch, 448 kbps, 48 000 Hz [дублированный со вставками многоголосого 'Киномания']
Аудио # 2: АС3, 6 ch, 640 kbps, 48 000 Hz [многоголосый закадровый (Киномания)]
Аудио # 3: AC3, 6 ch, 448 kbps, 48 000 Hz [двуголосый закадровый (Tycoon)]
Аудио # 4: DTS, 6 ch, 1509 kbps, 48 000 Hz [одноголосый закадровый (А.Гаврилов)]
Аудио # 5: DTS, 6 ch, 755 kbps, 48 000 Hz [одноголосый закадровый (Ю.Живов)]
Аудио # 6: DTS, 6 ch, 1510 kbps, 48 000 Hz [одноголосый закадровый (Д.Пучков)]
Аудио # 7: DTS, 6 ch, 1509 kbps, 48 000 Hz [оригинальный]
Код:
Код: Выделить всё
Общее
Уникальный идентификатор                 : 205793983423925807086535217181651114329 (0x9AD27AC0D86A929CB8EAEFD3C0F81959)
Полное имя                               : E:\Video\Риддик. Трилогия [Director's Cut] [BDRip] [720p]\[2000] Черная дыра [Director's Cut] [BDRip] [720p].mkv
Формат                                   : Matroska
Версия формата                           : Version 4 / Version 2
Размер файла                             : 13,9 Гбайт
Продолжительность                        : 1 ч. 51 м.
Общий поток                              : 17,8 Мбит/сек
Название фильма                          : Чёрная дыра / Pitch Black [Director's Cut] (2000) BDRip [720p]
Дата кодирования                         : UTC 2014-11-09 11:50:25
Программа кодирования                    : mkvmerge v7.2.0 ('On Every Street') 32bit built on Sep 13 2014 15:42:11
Библиотека кодирования                   : libebml v1.3.0 + libmatroska v1.4.1
DURATION                                 : 01:44:23.138000000
NUMBER_OF_FRAMES                         : 974
NUMBER_OF_BYTES                          : 28292
_STATISTICS_WRITING_APP                  : mkvmerge v7.2.0 ('On Every Street') 32bit built on Sep 13 2014 15:42:11
_STATISTICS_WRITING_DATE_UTC             : 2014-11-09 11:50:25
_STATISTICS_TAGS                         : BPS DURATION NUMBER_OF_FRAMES NUMBER_OF_BYTES

Видео
Идентификатор                            : 1
Формат                                   : AVC
Формат/Информация                        : Advanced Video Codec
Профиль формата                          :
Параметр CABAC формата                   : Да
Параметр ReFrames формата                : 12 кадров
Идентификатор кодека                     : V_MPEG4/ISO/AVC
Продолжительность                        : 1 ч. 51 м.
Битрейт                                  : 11,0 Мбит/сек
Ширина                                   : 1280 пикселей
Высота                                   : 544 пикселя
Соотношение сторон                       : 2,35:1
Режим частоты кадров                     : Постоянный
Частота кадров                           : 23,976 кадра/сек
Цветовое пространство                    : YUV
Субдискретизация насыщенности            : 4:2:0
Битовая глубина                          : 8 бит
Тип развёртки                            : Прогрессивная
Бит/(Пиксели*Кадры)                      : 0.659
Размер потока                            : 8,32 Гбайт (60%)
Заголовок                                : [2000] Чёрная дыра / Pitch Black [Director's Cut] [BDRip] [720p]
Библиотека кодирования                   : x264 core 132 r2309 3b1f1f7
Настройки программы                      : cabac=1 / ref=12 / deblock=1:-3:-3 / analyse=0x3:0x133 / me=tesa / subme=11 / psy=1 / psy_rd=1.05:0.00 / mixed_ref=1 / me_range=24 / chroma_me=1 / trellis=2 / 8x8dct=1 / cqm=0 / deadzone=21,11 / fast_pskip=0 / chroma_qp_offset=-2 / threads=12 / lookahead_threads=2 / sliced_threads=0 / nr=0 / decimate=0 / interlaced=0 / bluray_compat=0 / constrained_intra=0 / bframes=8 / b_pyramid=2 / b_adapt=2 / b_bias=0 / direct=3 / weightb=1 / open_gop=0 / weightp=2 / keyint=250 / keyint_min=23 / scenecut=40 / intra_refresh=0 / rc_lookahead=60 / rc=2pass / mbtree=0 / bitrate=11000 / ratetol=1.0 / qcomp=0.60 / qpmin=0 / qpmax=69 / qpstep=4 / cplxblur=20.0 / qblur=0.5 / vbv_maxrate=50000 / vbv_bufsize=62500 / nal_hrd=none / ip_ratio=1.40 / pb_ratio=1.30 / aq=1:0.80
Язык                                     : English
Default                                  : Да
Forced                                   : Нет

Аудио #1
Идентификатор                            : 2
Формат                                   : AC-3
Формат/Информация                        : Audio Coding 3
Расширение режима                        : CM (complete main)
Параметр Endianness формата              : Big
Идентификатор кодека                     : A_AC3
Продолжительность                        : 1 ч. 51 м.
Вид битрейта                             : Постоянный
Битрейт                                  : 448 Кбит/сек
Каналы                                   : 6 каналов
Расположение каналов                     : Front: L C R, Side: L R, LFE
Частота                                  : 48,0 КГц
Битовая глубина                          : 16 бит
Метод сжатия                             : С потерями
Размер потока                            : 359 Мбайт (3%)
Заголовок                                : Дублированный со вставками многоголосого 'Киномания'
Язык                                     : Russian
Default                                  : Да
Forced                                   : Нет

Аудио #2
Идентификатор                            : 3
Формат                                   : AC-3
Формат/Информация                        : Audio Coding 3
Расширение режима                        : CM (complete main)
Параметр Endianness формата              : Big
Идентификатор кодека                     : A_AC3
Продолжительность                        : 1 ч. 51 м.
Вид битрейта                             : Постоянный
Битрейт                                  : 640 Кбит/сек
Каналы                                   : 6 каналов
Расположение каналов                     : Front: L C R, Side: L R, LFE
Частота                                  : 48,0 КГц
Битовая глубина                          : 16 бит
Метод сжатия                             : С потерями
Размер потока                            : 512 Мбайт (4%)
Заголовок                                : Многоголосый закадровый (Киномания)
Язык                                     : Russian
Default                                  : Нет
Forced                                   : Нет

Аудио #3
Идентификатор                            : 4
Формат                                   : AC-3
Формат/Информация                        : Audio Coding 3
Расширение режима                        : CM (complete main)
Параметр Endianness формата              : Big
Идентификатор кодека                     : A_AC3
Продолжительность                        : 1 ч. 51 м.
Вид битрейта                             : Постоянный
Битрейт                                  : 448 Кбит/сек
Каналы                                   : 6 каналов
Расположение каналов                     : Front: L C R, Side: L R, LFE
Частота                                  : 48,0 КГц
Битовая глубина                          : 16 бит
Метод сжатия                             : С потерями
Размер потока                            : 359 Мбайт (3%)
Заголовок                                : Двуголосый закадровый (Tycoon)
Язык                                     : Russian
Default                                  : Нет
Forced                                   : Нет

Аудио #4
Идентификатор                            : 5
Формат                                   : DTS
Формат/Информация                        : Digital Theater Systems
Режим                                    : 16
Параметр Endianness формата              : Big
Идентификатор кодека                     : A_DTS
Продолжительность                        : 1 ч. 51 м.
Вид битрейта                             : Постоянный
Битрейт                                  : 1509 Кбит/сек
Каналы                                   : 6 каналов
Расположение каналов                     : Front: L C R, Side: L R, LFE
Частота                                  : 48,0 КГц
Битовая глубина                          : 24 бит
Метод сжатия                             : С потерями
Размер потока                            : 1,18 Гбайт (8%)
Заголовок                                : Одноголосый закадровый (А.Гаврилов)
Язык                                     : Russian
Default                                  : Нет
Forced                                   : Нет

Аудио #5
Идентификатор                            : 6
Формат                                   : DTS
Формат/Информация                        : Digital Theater Systems
Режим                                    : 16
Параметр Endianness формата              : Big
Идентификатор кодека                     : A_DTS
Продолжительность                        : 1 ч. 51 м.
Вид битрейта                             : Постоянный
Битрейт                                  : 755 Кбит/сек
Каналы                                   : 6 каналов
Расположение каналов                     : Front: L C R, Side: L R, LFE
Частота                                  : 48,0 КГц
Битовая глубина                          : 24 бит
Метод сжатия                             : С потерями
Размер потока                            : 604 Мбайт (4%)
Заголовок                                : Одноголосый закадровый (Ю.Живов)
Язык                                     : Russian
Default                                  : Нет
Forced                                   : Нет

Аудио #6
Идентификатор                            : 7
Формат                                   : DTS
Формат/Информация                        : Digital Theater Systems
Режим                                    : 16
Параметр Endianness формата              : Big
Идентификатор кодека                     : A_DTS
Продолжительность                        : 1 ч. 51 м.
Вид битрейта                             : Постоянный
Битрейт                                  : 1510 Кбит/сек
Каналы                                   : 6 каналов
Расположение каналов                     : Front: L C R, Side: L R, LFE
Частота                                  : 48,0 КГц
Битовая глубина                          : 24 бит
Метод сжатия                             : С потерями
Размер потока                            : 1,18 Гбайт (8%)
Заголовок                                : Одноголосый закадровый (Д.Пучков)
Язык                                     : Russian
Default                                  : Нет
Forced                                   : Нет

Аудио #7
Идентификатор                            : 8
Формат                                   : DTS
Формат/Информация                        : Digital Theater Systems
Режим                                    : 16
Параметр Endianness формата              : Big
Идентификатор кодека                     : A_DTS
Продолжительность                        : 1 ч. 51 м.
Вид битрейта                             : Постоянный
Битрейт                                  : 1509 Кбит/сек
Каналы                                   : 6 каналов
Расположение каналов                     : Front: L C R, Side: L R, LFE
Частота                                  : 48,0 КГц
Битовая глубина                          : 24 бит
Метод сжатия                             : С потерями
Размер потока                            : 1,18 Гбайт (8%)
Заголовок                                : Оригинальный
Язык                                     : English
Default                                  : Нет
Forced                                   : Нет

Текст #1
Идентификатор                            : 9
Формат                                   : UTF-8
Идентификатор кодека                     : S_TEXT/UTF8
Идентификатор кодека/Информация          : UTF-8 Plain Text
Заголовок                                : Русские
Язык                                     : Russian
Default                                  : Нет
Forced                                   : Нет

Текст #2
Идентификатор                            : 10
Формат                                   : UTF-8
Идентификатор кодека                     : S_TEXT/UTF8
Идентификатор кодека/Информация          : UTF-8 Plain Text
Заголовок                                : Русские (Forced)
Язык                                     : Russian
Default                                  : Да
Forced                                   : Нет

Текст #3
Идентификатор                            : 11
Формат                                   : UTF-8
Идентификатор кодека                     : S_TEXT/UTF8
Идентификатор кодека/Информация          : UTF-8 Plain Text
Заголовок                                : English
Язык                                     : English
Default                                  : Нет
Forced                                   : Нет

Меню
00:00:00.000                             : en:The Animal Side
00:02:56.885                             : en:Crash Landing
00:08:28.007                             : en:The Survivors
00:17:05.858                             : en:The Dead Planet
00:27:13.632                             : en:The Other Inhabitants
00:32:27.988                             : en:Into the Hole
00:36:49.916                             : en:Riddick's Deal
00:46:49.390                             : en:The Coming Eclipse
00:56:08.907                             : en:Darkness Falls
01:02:45.678                             : en:Just Don't Run
01:08:07.750                             : en:The Escape Plan
01:14:22.291                             : en:Paris's Demise
01:20:00.504                             : en:Duel in the Dark
01:25:38.800                             : en:Running the Gauntlet
01:30:14.909                             : en:Survival Instinct
01:38:59.976                             : en:Sacrifices
01:43:37.878                             : en:Say Good Night
01:46:13.867                             : en:End Titles
Сатурн, 2000 год

Номинации (1):

*** Лучший научно-фантастический фильм
*** Оружие, которое использует Джонс, — это дробовик Armscor M30R6, измененный, чтобы выглядеть футуристическим.

*** Когда Риддик потянул непромокаемый брезент с одного из зданий, раскрывая Джека, из-за привязанной веревки с другой стороны Вин Дизель потянул мышцу.

*** Сиквел под названием «Хроники Риддика» (2004), также был снят Дэвидом Туи. В этом же году в продажу попал короткометражный аниме-мультфильм «Хроники Риддика: Тёмная ярость» (2004). «Тёмная ярость» стал связующим звеном между «Чёрной дырой» и «Хрониками Риддика».

*** Cцены в пустыне, снимались в тех же местах, что и сцены из фильма «Безумный Макс» (1979).

***Космический корабль называется Hunter/Gratzner — так же, как и компания по созданию спецэффектов, которая сконструировала и построила эту модель.

*** Контактные линзы, которые носил Вин Дизель на сьёмках были ненастоящими. После первого дня сьёмок их не смогли вынуть. В результате пришлось посылать за оптиком в ближайший город, находящийся за три часа от места сьёмок.

*** Картина полностью снималась в Австралии.

*** Вышедшая спустя год редакторская версия фильма была на 3 минуты длинней оригинала.

*** В первоначальном сценарии Риддик был женщиной.

*** Уличные съемки проходили при температуре меньше 10 градусов, поэтому в перерывах между дублями актеры грелись возле осветительных ламп.

*** Съемки картины заняли 60 дней.

*** Основной образец, который исследует Кэролин Фрай: 76875/87/656.

*** В одном из эпизодов показаны грузовые отсеки, выбрасываемые за борт судна перед крушением, один из отсеков пронумерован «2E», это ссылка на имя режиссера Дэвида Туи (David Twohy) от команды по спецэффектам.

*** Изначально в финале картины должен был погибнуть Ричард Риддик, но затем было решено «умертвить» Кэролин Фрай для того, чтобы иметь возможность продолжения фильма. Создатели засомневались, что образ Кэролин будет столь же притягателен, как образ Риддика.

*** Когда Кэролин видит, что Джонс вводит наркотик себе в глаз, она именует его как «обман» (hype). Это жаргонное слово также употреблялось в отношении наркоманов в 40-ых годах (в основном в отношении сидящих на героине).

*** Сцена, в которой Джонс вводит наркотик себе в глаз, была идеей Коула Хаузера.
Скриншоты:



Хроники Риддика
The Chronicles of Riddick
«Все силы во вселенной не смогут изменить судьбу»

#777Год выпуска: 2004
Производство: USA / Universal Pictures, Radar Pictures, One Race Productions
Жанр: фантастика, боевик, триллер

Режиссер: Дэвид Туи
Актеры: Вин Дизель, Колм Фиор, Тэнди Ньютон, Джуди Денч, Карл Урбан, Алекса Давалос, Лайнас Роуч, Йорик ван Вагенинген, Ник Чинланд, Кит Дэвид

Описание фильма: Последние пять лет Риддик провел в бегах среди забытых миров на задворках галактики, прячась от наемников, назначивших цену за его голову. Теперь беглец оказался на планете Гелион, где живет прогрессивное многонациональное общество, завоеванное лордом Маршалом, фанатиком, решившим поработить человечество армадой своих воинов, некромонгеров.

Совершив побег из подземной тюрьмы, где температура колебалась от арктических ночей до вулканических дней, Риддик встречает Кайру, последнюю оставшуюся в живых женщину из раннего периода его жизни. Его попытки освободить себя и Кайру приводят их на борт главного корабля некромонгеров, где ему предстоит столкнуться с лордом Маршалом в апокалиптической битве не на жизнь, а на смерть...

Перевод: профессиональный (полное дублирование), профессиональный (многоголосый закадровый), профессиональный (двуголосый закадровый), авторский (одноголосый закадровый)
Вид субтитров: вшитые отключаемые
Язык субтитров: русские, английские



Рейтинг MPAA

Дата мировой премьеры: 3 июня 2004
Дата российской премьеры: 30 сентября 2004, «Парадиз»
Дата выхода DVD релиза: 26 мая 2009, «Парадиз Медиа»

Продолжительность: 02:14:06
Качество: BDRip (720p)

Видео: MPEG-4 AVC/H.264, 1280 x 534, (2,40:1), 6 652 kbps, 23.976 fps, 0.406 b/px
Аудио # 1: DTS, 6 ch, 1510 kbps, 48 000 Hz [дублированный со вставками многоголосого 'CP Digital']
Аудио # 2: DTS, 6 ch, 1509 kbps, 48 000 Hz [многоголосый закадровый (CP Digital)]
Аудио # 3: DTS, 6 ch, 1509 kbps, 48 000 Hz [двуголосый закадровый (Tycoon)]
Аудио # 4: DTS, 6 ch, 1509 kbps, 48 000 Hz [одноголосый закадровый (А.Гаврилов)]
Аудио # 5: DTS, 6 ch, 1509 kbps, 48 000 Hz [одноголосый закадровый (Ю.Живов)]
Аудио # 6: DTS, 6 ch, 1509 kbps, 48 000 Hz [одноголосый закадровый (Д.Пучков)]
Аудио # 7: DTS, 6 ch, 1509 kbps, 48 000 Hz [оригинальный]
Код:
Код: Выделить всё
Общее
Уникальный идентификатор                 : 234554340018788290655998626375520412346 (0xB07585CFDA106E599C5858522656E2BA)
Полное имя                               : E:\Video\Риддик. Трилогия [Director's Cut] [BDRip] [720p]\[2004] Хроники Риддика [Director's Cut] [BDRip] [720p].mkv
Формат                                   : Matroska
Версия формата                           : Version 4 / Version 2
Размер файла                             : 16,5 Гбайт
Продолжительность                        : 2 ч. 14 м.
Общий поток                              : 17,6 Мбит/сек
Название фильма                          : Хроники Риддика / The Chronicles of Riddick [Director's Cut] (2004) BDRip [720p]
Дата кодирования                         : UTC 2014-11-09 12:24:56
Программа кодирования                    : mkvmerge v7.2.0 ('On Every Street') 32bit built on Sep 13 2014 15:42:11
Библиотека кодирования                   : libebml v1.3.0 + libmatroska v1.4.1
DURATION                                 : 02:02:43.610000000
NUMBER_OF_FRAMES                         : 920
NUMBER_OF_BYTES                          : 56358
_STATISTICS_WRITING_APP                  : mkvmerge v7.2.0 ('On Every Street') 32bit built on Sep 13 2014 15:42:11
_STATISTICS_WRITING_DATE_UTC             : 2014-11-09 12:24:56
_STATISTICS_TAGS                         : BPS DURATION NUMBER_OF_FRAMES NUMBER_OF_BYTES

Видео
Идентификатор                            : 1
Формат                                   : AVC
Формат/Информация                        : Advanced Video Codec
Профиль формата                          :
Параметр CABAC формата                   : Да
Параметр ReFrames формата                : 12 кадров
Идентификатор кодека                     : V_MPEG4/ISO/AVC
Продолжительность                        : 2 ч. 14 м.
Битрейт                                  : 6652 Кбит/сек
Номинальный битрейт                      : 7000 Кбит/сек
Ширина                                   : 1280 пикселей
Высота                                   : 534 пикселя
Соотношение сторон                       : 2,40:1
Соотношение сторон в оригинале           : 2,40:1
Режим частоты кадров                     : Постоянный
Частота кадров                           : 23,976 кадра/сек
Цветовое пространство                    : YUV
Субдискретизация насыщенности            : 4:2:0
Битовая глубина                          : 8 бит
Тип развёртки                            : Прогрессивная
Бит/(Пиксели*Кадры)                      : 0.406
Размер потока                            : 6,23 Гбайт (38%)
Заголовок                                : [2004] Хроники Риддика / The Chronicles of Riddick [Director's Cut] [BDRip] [720p]
Библиотека кодирования                   : x264 core 142 r2431+42 c69a006 tMod [8-bit@4:2:0 X86_64]
Настройки программы                      : cabac=1 / ref=12 / deblock=1:-2:-2 / analyse=0x3:0x133 / me=umh / subme=11 / psy=1 / fade_compensate=0.00 / psy_rd=1.00:0.07 / mixed_ref=1 / me_range=48 / chroma_me=1 / trellis=2 / 8x8dct=1 / cqm=0 / deadzone=21,11 / fast_pskip=0 / chroma_qp_offset=-3 / threads=12 / lookahead_threads=2 / sliced_threads=0 / nr=0 / decimate=1 / interlaced=0 / bluray_compat=0 / constrained_intra=0 / fgo=0 / bframes=7 / b_pyramid=2 / b_adapt=2 / b_bias=0 / direct=3 / weightb=1 / open_gop=0 / weightp=2 / keyint=250 / keyint_min=23 / scenecut=40 / intra_refresh=0 / rc_lookahead=60 / rc=2pass / mbtree=0 / bitrate=7000 / ratetol=1.0 / qcomp=0.60 / qpmin=0:0:0 / qpmax=69:69:69 / qpstep=4 / cplxblur=20.0 / qblur=0.5 / vbv_maxrate=62500 / vbv_bufsize=78125 / nal_hrd=none / filler=0 / ip_ratio=1.40 / pb_ratio=1.30 / aq=1:0.80 / aq-sensitivity=10.00 / aq-factor=1.00:1.00:1.00 / aq2=0 / aq3=0 / zones=31971,32172,b=2/32682,32999,b=2/67902,68051,b=2
Язык                                     : English
Default                                  : Да
Forced                                   : Нет
Основные цвета                           : BT.709
Характеристики трансфера                 : BT.709
Коэффициенты матрицы                     : BT.709

Аудио #1
Идентификатор                            : 2
Формат                                   : DTS
Формат/Информация                        : Digital Theater Systems
Режим                                    : 16
Параметр Endianness формата              : Big
Идентификатор кодека                     : A_DTS
Продолжительность                        : 2 ч. 14 м.
Вид битрейта                             : Постоянный
Битрейт                                  : 1510 Кбит/сек
Каналы                                   : 6 каналов
Расположение каналов                     : Front: L C R, Side: L R, LFE
Частота                                  : 48,0 КГц
Битовая глубина                          : 24 бит
Метод сжатия                             : С потерями
Размер потока                            : 1,41 Гбайт (9%)
Заголовок                                : Дублированный со вставками многоголосого 'CP Digital'
Язык                                     : Russian
Default                                  : Да
Forced                                   : Нет

Аудио #2
Идентификатор                            : 3
Формат                                   : DTS
Формат/Информация                        : Digital Theater Systems
Режим                                    : 16
Параметр Endianness формата              : Big
Идентификатор кодека                     : A_DTS
Продолжительность                        : 2 ч. 14 м.
Вид битрейта                             : Постоянный
Битрейт                                  : 1509 Кбит/сек
Каналы                                   : 6 каналов
Расположение каналов                     : Front: L C R, Side: L R, LFE
Частота                                  : 48,0 КГц
Битовая глубина                          : 24 бит
Метод сжатия                             : С потерями
Размер потока                            : 1,41 Гбайт (9%)
Заголовок                                : Многоголосый закадровый (CP Digital)
Язык                                     : Russian
Default                                  : Нет
Forced                                   : Нет

Аудио #3
Идентификатор                            : 4
Формат                                   : DTS
Формат/Информация                        : Digital Theater Systems
Режим                                    : 16
Параметр Endianness формата              : Big
Идентификатор кодека                     : A_DTS
Продолжительность                        : 2 ч. 14 м.
Вид битрейта                             : Постоянный
Битрейт                                  : 1509 Кбит/сек
Каналы                                   : 6 каналов
Расположение каналов                     : Front: L C R, Side: L R, LFE
Частота                                  : 48,0 КГц
Битовая глубина                          : 24 бит
Метод сжатия                             : С потерями
Размер потока                            : 1,41 Гбайт (9%)
Заголовок                                : Двуголосый закадровый (Tycoon)
Язык                                     : Russian
Default                                  : Нет
Forced                                   : Нет

Аудио #4
Идентификатор                            : 5
Формат                                   : DTS
Формат/Информация                        : Digital Theater Systems
Режим                                    : 16
Параметр Endianness формата              : Big
Идентификатор кодека                     : A_DTS
Продолжительность                        : 2 ч. 14 м.
Вид битрейта                             : Постоянный
Битрейт                                  : 1509 Кбит/сек
Каналы                                   : 6 каналов
Расположение каналов                     : Front: L C R, Side: L R, LFE
Частота                                  : 48,0 КГц
Битовая глубина                          : 24 бит
Метод сжатия                             : С потерями
Размер потока                            : 1,41 Гбайт (9%)
Заголовок                                : Одноголосый закадровый (А.Гаврилов)
Язык                                     : Russian
Default                                  : Нет
Forced                                   : Нет

Аудио #5
Идентификатор                            : 6
Формат                                   : DTS
Формат/Информация                        : Digital Theater Systems
Режим                                    : 16
Параметр Endianness формата              : Big
Идентификатор кодека                     : A_DTS
Продолжительность                        : 2 ч. 14 м.
Вид битрейта                             : Постоянный
Битрейт                                  : 1509 Кбит/сек
Каналы                                   : 6 каналов
Расположение каналов                     : Front: L C R, Side: L R, LFE
Частота                                  : 48,0 КГц
Битовая глубина                          : 24 бит
Метод сжатия                             : С потерями
Размер потока                            : 1,41 Гбайт (9%)
Заголовок                                : Одноголосый закадровый (Ю.Живов)
Язык                                     : Russian
Default                                  : Нет
Forced                                   : Нет

Аудио #6
Идентификатор                            : 7
Формат                                   : DTS
Формат/Информация                        : Digital Theater Systems
Режим                                    : 16
Параметр Endianness формата              : Big
Идентификатор кодека                     : A_DTS
Продолжительность                        : 2 ч. 14 м.
Вид битрейта                             : Постоянный
Битрейт                                  : 1509 Кбит/сек
Каналы                                   : 6 каналов
Расположение каналов                     : Front: L C R, Side: L R, LFE
Частота                                  : 48,0 КГц
Битовая глубина                          : 24 бит
Метод сжатия                             : С потерями
Размер потока                            : 1,41 Гбайт (9%)
Заголовок                                : Одноголосый закадровый (Д.Пучков)
Язык                                     : Russian
Default                                  : Нет
Forced                                   : Нет

Аудио #7
Идентификатор                            : 8
Формат                                   : DTS
Формат/Информация                        : Digital Theater Systems
Режим                                    : 16
Параметр Endianness формата              : Big
Идентификатор кодека                     : A_DTS
Продолжительность                        : 2 ч. 14 м.
Вид битрейта                             : Постоянный
Битрейт                                  : 1509 Кбит/сек
Каналы                                   : 6 каналов
Расположение каналов                     : Front: L C R, Side: L R, LFE
Частота                                  : 48,0 КГц
Битовая глубина                          : 24 бит
Метод сжатия                             : С потерями
Размер потока                            : 1,41 Гбайт (9%)
Заголовок                                : Оригинальный
Язык                                     : English
Default                                  : Нет
Forced                                   : Нет

Текст #1
Идентификатор                            : 9
Формат                                   : UTF-8
Идентификатор кодека                     : S_TEXT/UTF8
Идентификатор кодека/Информация          : UTF-8 Plain Text
Заголовок                                : Русские
Язык                                     : Russian
Default                                  : Нет
Forced                                   : Нет

Текст #2
Идентификатор                            : 10
Формат                                   : ASS
Идентификатор кодека                     : S_TEXT/ASS
Идентификатор кодека/Информация          : Advanced Sub Station Alpha
Метод сжатия                             : Без потерь
Заголовок                                : English
Язык                                     : English
Default                                  : Нет
Forced                                   : Нет

Меню
00:00:00.000                             : en:The Necromongers
00:02:39.326                             : en:Hard Bounty
00:07:05.508                             : en:Back to Civilization
00:11:25.643                             : en:A Fighting Chance
00:15:31.806                             : en:A True Furyan
00:20:58.757                             : en:Attack of the Necromongers
00:27:11.713                             : en:Lensing & Cleansing
00:31:27.302                             : en:The Lord Marshal's Offer
00:38:52.330                             : en:Mind Regression
00:43:32.568                             : en:Caught
00:47:18.419                             : en:You Can Keep What You Kill
00:53:38.340                             : en:Welcome to Crematoria
01:01:36.818                             : en:Jack's Dead...
01:04:29.824                             : en:A Private War
01:08:45.580                             : en:Feeding Time
01:11:43.174                             : en:Two Killers
01:17:19.051                             : en:Good News & Bad News
01:22:50.007                             : en:Running the Surface
01:29:05.131                             : en:The Big Heat
01:32:42.474                             : en:The Better Killer
01:41:13.651                             : en:This Is Your Chance
01:44:28.220                             : en:What Are the Odds?
01:48:15.197                             : en:The Enemy Within
01:53:18.583                             : en:Convert or Fall
01:57:02.682                             : en:The Soul of a Furyan
02:00:00.693                             : en:Kill the Beast
02:03:05.753                             : en:At the Feet of an Outlaw
02:04:08.066                             : en:End Titles
Премия канала «MTV», 2005 год

Победитель (1):

*** Лучшая видеоигра по мотивам кинофильма

Золотая малина, 2005 год

Номинации (1):

*** Худшая мужская роль (Вин Дизель)

Сатурн, 2005 год

Номинации (2):

*** Лучшие спецэффекты
*** Лучшее специальное DVD-издание — «For the unrated director's cut»
*** Официальное подписание контракта с Вином Дизелем состоялось в сентябре 2001 года.

*** Картина снималась в городах Барнбари и Ванкувер (Канада, провинция Британская Колумбия).

*** Продюсер Вин Дизель, желая видеть в роли Эреон обязательно Джуди Денч, чтобы добиться ее согласия на роль, заполнял ее гримерную цветами и постоянно утверждал, что съемки фильма не начнутся, пока Джуди не даст свое согласие.

*** Первоначально сценарий к картине должен был писать лауреат премии «Оскар» за фильм «Игры разума» Акива Голдсман.

*** Стиль боевого искусства, используемого Риддиком, напоминает «стиль Кали», характеризующимся прямыми, мощными ударами с частым использованием палок.

*** Рабочими названиями картины были «Риддик» (Riddick), «Черная дыра 2: Хроники Риддика» (Pitch Black 2: The Chronicles of Riddick) и «Черная дыра 2» (Pitch Black 2).

*** Съемки картины начались 9 июня 2003 года в Ванкувере, а закончились в конце октября того же года.

*** В сцене со спуском Риддика в тюрьму на планете Крематория дисплей вагонетки, показывающий расстояние, выполнен полностью на русском языке.
Скриншоты:



Риддик
Riddick
«Лучший способ отомстить - остаться в живых»

#777Год выпуска: 2013
Производство: USA, U.K. / One Race Productions, Radar Pictures, Riddick Canada Productions
Жанр: фантастика, боевик, триллер

Режиссер: Дэвид Туи
Актеры: Вин Дизель, Хорди Молья, Мэтью Нэйбл, Кэти Сакхофф, Дэйв Батиста, Букем Вудбайн, Рауль Трухильо, Конрад Пла, Дэнни Бланко, Карл Урбан

Описание фильма: Преданный своими и брошенный умирать на пустынной планете, Риддик сражается с хищниками за жизнь и становится сильнее и опаснее себя прежнего. Открывшие на него охоту галактические наемники оказываются пешками в грандиозном плане отмщения. С врагами, возникающими на его пути тогда, когда это нужно самому Риддику, он начинает поход во имя мести, чтобы в конечном счете вернуться на родную Фурию и спасти ее от уничтожения...

Перевод: профессиональный (полное дублирование), профессиональный (двуголосый закадровый), авторский (одноголосый закадровый), любительский
Вид субтитров: вшитые отключаемые
Язык субтитров: русские (Full, Forsed), английские



Рейтинг MPAA

Дата мировой премьеры: 4 сентября 2013
Дата российской премьеры: 12 сентября 2013, «Централ Партнершип»
Дата выхода DVD релиза: 6 февраля 2014, «CP Дистрибуция»
Дата выхода Blu-Ray релиза: 6 февраля 2014, «CP Дистрибуция»

Продолжительность: 02:06:51
Качество: BDRip (720p)

Видео: MPEG-4 AVC/H.264, 1280 x 534, (2,40:1), 8 328 kbps, 23.976 fps, 0.508 b/px
Аудио # 1: AC3, 6 ch, 384 kbps, 48 000 Hz [дублированный со вставками 'DVD-Paradox']
Аудио # 2: DTS, 6 ch, 1509 kbps, 48 000 Hz [одноголосый закадровый (А.Гаврилов)]
Аудио # 3: DTS, 6 ch, 1509 kbps, 48 000 Hz [одноголосый закадровый (Л.Володарский)]
Аудио # 4: DTS, 6 ch, 1509 kbps, 48 000 Hz [одноголосый закадровый (Д.Есарев)]
Аудио # 5: DTS, 6 ch, 1509 kbps, 48 000 Hz [оригинальный]
Код:
Код: Выделить всё
Общее
Уникальный идентификатор                 : 195087888527324584896359090409987943453 (0x92C48F85760D2157BD6C57466094AC1D)
Полное имя                               : E:\Video\Риддик. Трилогия [Director's Cut] [BDRip] [720p]\[2013] Риддик [Director's Cut] [BDRip] [720p].mkv
Формат                                   : Matroska
Версия формата                           : Version 4 / Version 2
Размер файла                             : 13,4 Гбайт
Продолжительность                        : 2 ч. 7 м.
Общий поток                              : 15,0 Мбит/сек
Название фильма                          : Риддик / Riddick [Director's Cut] (2013) BDRip [720p]
Дата кодирования                         : UTC 2014-11-09 12:58:31
Программа кодирования                    : mkvmerge v7.2.0 ('On Every Street') 32bit built on Sep 13 2014 15:42:11
Библиотека кодирования                   : libebml v1.3.0 + libmatroska v1.4.1
DURATION                                 : 02:01:36.873000000
NUMBER_OF_FRAMES                         : 894
NUMBER_OF_BYTES                          : 28905
_STATISTICS_WRITING_APP                  : mkvmerge v7.2.0 ('On Every Street') 32bit built on Sep 13 2014 15:42:11
_STATISTICS_WRITING_DATE_UTC             : 2014-11-09 12:58:31
_STATISTICS_TAGS                         : BPS DURATION NUMBER_OF_FRAMES NUMBER_OF_BYTES

Видео
Идентификатор                            : 1
Формат                                   : AVC
Формат/Информация                        : Advanced Video Codec
Профиль формата                          :
Параметр CABAC формата                   : Да
Параметр ReFrames формата                : 12 кадров
Идентификатор кодека                     : V_MPEG4/ISO/AVC
Продолжительность                        : 2 ч. 7 м.
Битрейт                                  : 8328 Кбит/сек
Ширина                                   : 1280 пикселей
Высота                                   : 534 пикселя
Соотношение сторон                       : 2,40:1
Режим частоты кадров                     : Постоянный
Частота кадров                           : 23,976 кадра/сек
Цветовое пространство                    : YUV
Субдискретизация насыщенности            : 4:2:0
Битовая глубина                          : 8 бит
Тип развёртки                            : Прогрессивная
Бит/(Пиксели*Кадры)                      : 0.508
Размер потока                            : 7,43 Гбайт (55%)
Заголовок                                : [2013] Риддик / Riddick [Director's Cut] [BDRip] [720p]
Библиотека кодирования                   : x264 core 142 r2389kMod 956c8d8
Настройки программы                      : cabac=1 / ref=12 / deblock=1:-3:-3 / analyse=0x3:0x113 / me=esa / subme=10 / psy=1 / fade_compensate=0.00 / psy_rd=1.10:0.00 / mixed_ref=1 / me_range=16 / chroma_me=1 / trellis=2 / 8x8dct=1 / cqm=0 / deadzone=21,11 / fast_pskip=0 / chroma_qp_offset=-2 / threads=6 / lookahead_threads=1 / sliced_threads=0 / nr=0 / decimate=0 / interlaced=0 / bluray_compat=0 / constrained_intra=0 / fgo=0 / bframes=7 / b_pyramid=2 / b_adapt=2 / b_bias=0 / direct=3 / weightb=1 / open_gop=0 / weightp=2 / keyint=250 / keyint_min=23 / scenecut=40 / intra_refresh=0 / rc_lookahead=60 / rc=crf / mbtree=0 / crf=15.0000 / qcomp=0.70 / qpmin=0 / qpmax=69 / qpstep=4 / vbv_maxrate=30000 / vbv_bufsize=20000 / crf_max=0.0 / nal_hrd=none / filler=0 / ip_ratio=1.20 / pb_ratio=1.20 / aq=1:0.80 / zones=0,1170,crf=12/2465,2704,crf=12/7293,7429,crf=8/19303,19376,crf=12/20415,20604,crf=12/21541,21666,crf=12/24114,24683,crf=12/32768,33381,crf=12/36314,37271,crf=12/58835,59041,crf=12/60776,60918,crf=12/76947,77038,crf=12/77343,77610,crf=12/77767,77792,crf=12/77902,77978,crf=12/78034,78287,crf=12/79065,79127,crf=12/79425,80494,crf=12/89442,92598,crf=12/99145,99249,crf=12/109473,110822,crf=12/148465,148558,crf=12/173502,173623,crf=12/173781,173877,crf=12/174502,174642,crf=12/174715,174795,crf=12/175070,175399,crf=12/175469,175540,crf=12
Язык                                     : English
Default                                  : Да
Forced                                   : Нет
DURATION                                 : 02:06:50.770000000
NUMBER_OF_FRAMES                         : 182476
NUMBER_OF_BYTES                          : 8284359116
_STATISTICS_WRITING_APP                  : mkvmerge v7.2.0 ('On Every Street') 32bit built on Sep 13 2014 15:42:11
_STATISTICS_WRITING_DATE_UTC             : 2014-11-09 12:58:31
_STATISTICS_TAGS                         : BPS DURATION NUMBER_OF_FRAMES NUMBER_OF_BYTES

Аудио #1
Идентификатор                            : 2
Формат                                   : AC-3
Формат/Информация                        : Audio Coding 3
Расширение режима                        : CM (complete main)
Параметр Endianness формата              : Big
Идентификатор кодека                     : A_AC3
Продолжительность                        : 2 ч. 7 м.
Вид битрейта                             : Постоянный
Битрейт                                  : 384 Кбит/сек
Каналы                                   : 6 каналов
Расположение каналов                     : Front: L C R, Side: L R, LFE
Частота                                  : 48,0 КГц
Битовая глубина                          : 16 бит
Метод сжатия                             : С потерями
Размер потока                            : 351 Мбайт (3%)
Заголовок                                : Дублированный со вставками 'DVD-Paradox'
Язык                                     : Russian
Default                                  : Да
Forced                                   : Нет

Аудио #2
Идентификатор                            : 3
Формат                                   : DTS
Формат/Информация                        : Digital Theater Systems
Режим                                    : 16
Параметр Endianness формата              : Big
Идентификатор кодека                     : A_DTS
Продолжительность                        : 2 ч. 7 м.
Вид битрейта                             : Постоянный
Битрейт                                  : 1509 Кбит/сек
Каналы                                   : 6 каналов
Расположение каналов                     : Front: L C R, Side: L R, LFE
Частота                                  : 48,0 КГц
Битовая глубина                          : 24 бит
Метод сжатия                             : С потерями
Размер потока                            : 1,35 Гбайт (10%)
Заголовок                                : Одноголосый закадровый (А.Гаврилов)
Язык                                     : Russian
Default                                  : Нет
Forced                                   : Нет

Аудио #3
Идентификатор                            : 4
Формат                                   : DTS
Формат/Информация                        : Digital Theater Systems
Режим                                    : 16
Параметр Endianness формата              : Big
Идентификатор кодека                     : A_DTS
Продолжительность                        : 2 ч. 7 м.
Вид битрейта                             : Постоянный
Битрейт                                  : 1509 Кбит/сек
Каналы                                   : 6 каналов
Расположение каналов                     : Front: L C R, Side: L R, LFE
Частота                                  : 48,0 КГц
Битовая глубина                          : 24 бит
Метод сжатия                             : С потерями
Размер потока                            : 1,35 Гбайт (10%)
Заголовок                                : Одноголосый закадровый (Л.Володарский)
Язык                                     : Russian
Default                                  : Нет
Forced                                   : Нет

Аудио #4
Идентификатор                            : 5
Формат                                   : DTS
Формат/Информация                        : Digital Theater Systems
Режим                                    : 16
Параметр Endianness формата              : Big
Идентификатор кодека                     : A_DTS
Продолжительность                        : 2 ч. 7 м.
Вид битрейта                             : Постоянный
Битрейт                                  : 1509 Кбит/сек
Каналы                                   : 6 каналов
Расположение каналов                     : Front: L C R, Side: L R, LFE
Частота                                  : 48,0 КГц
Битовая глубина                          : 24 бит
Метод сжатия                             : С потерями
Размер потока                            : 1,35 Гбайт (10%)
Заголовок                                : Одноголосый закадровый (Д.Есарев)
Язык                                     : Russian
Default                                  : Нет
Forced                                   : Нет

Аудио #5
Идентификатор                            : 6
Формат                                   : DTS
Формат/Информация                        : Digital Theater Systems
Режим                                    : 16
Параметр Endianness формата              : Big
Идентификатор кодека                     : A_DTS
Продолжительность                        : 2 ч. 7 м.
Вид битрейта                             : Постоянный
Битрейт                                  : 1509 Кбит/сек
Каналы                                   : 6 каналов
Расположение каналов                     : Front: L C R, Side: L R, LFE
Частота                                  : 48,0 КГц
Битовая глубина                          : 24 бит
Метод сжатия                             : С потерями
Размер потока                            : 1,35 Гбайт (10%)
Заголовок                                : Оригинальный
Язык                                     : English
Default                                  : Нет
Forced                                   : Нет

Текст #1
Идентификатор                            : 7
Формат                                   : UTF-8
Идентификатор кодека                     : S_TEXT/UTF8
Идентификатор кодека/Информация          : UTF-8 Plain Text
Заголовок                                : Русские
Язык                                     : Russian
Default                                  : Нет
Forced                                   : Нет

Текст #2
Идентификатор                            : 8
Формат                                   : UTF-8
Идентификатор кодека                     : S_TEXT/UTF8
Идентификатор кодека/Информация          : UTF-8 Plain Text
Заголовок                                : Русские (Forced)
Язык                                     : Russian
Default                                  : Да
Forced                                   : Нет

Текст #3
Идентификатор                            : 9
Формат                                   : UTF-8
Идентификатор кодека                     : S_TEXT/UTF8
Идентификатор кодека/Информация          : UTF-8 Plain Text
Заголовок                                : English
Язык                                     : English
Default                                  : Нет
Forced                                   : Нет

Меню
00:00:00.000                             : en:Chapter 1
00:05:35.418                             : en:Chapter 2
00:12:10.521                             : en:Chapter 3
00:23:27.364                             : en:Chapter 4
00:27:56.425                             : en:Chapter 5
00:32:11.221                             : en:Chapter 6
00:38:03.698                             : en:Chapter 7
00:44:20.283                             : en:Chapter 8
00:48:40.876                             : en:Chapter 9
00:56:19.668                             : en:Chapter 10
01:01:16.673                             : en:Chapter 11
01:07:35.093                             : en:Chapter 12
01:15:23.436                             : en:Chapter 13
01:19:58.836                             : en:Chapter 14
01:26:51.832                             : en:Chapter 15
01:31:27.107                             : en:Chapter 16
01:39:32.717                             : en:Chapter 17
01:45:32.701                             : en:Chapter 18
01:53:45.652                             : en:Chapter 19
02:02:56.160                             : en:Chapter 20
Сатурн, 2014 год

Номинации (1):

*** Лучший научно-фантастический фильм
*** Вин Дизель согласился сыграть эпизодическую роль в фильме «Тройной форсаж: Токийский Дрифт» (2006) в обмен на права на франшизу «Риддика» от Universal Pictures. Это позволило ему заниматься производством «Риддика» самостоятельно.

*** Производство фильма оказалось под угрозой срыва, когда была задержка в финансировании. В итоге Вин Дизель взял на себя финансирование фильма до тех пор, пока не разрешилась проблема с банковской ссудой.

*** Кери Хилсон проходила прослушивание на роль Дали. Роль в итоге отошла Кэти Сакхофф, но Дэвид Туи был настолько впечатлен харизмой Хилсон, что написал небольшую роль специально для нее.

*** Первоначальное название сценария было — «Хроники Риддика: Преследование мертвеца» (The Chronicles of Riddick: Dead Man Stalking).

*** Персонаж Мэтью Нэйбла — Босс Джонс — это отец Уильяма Дж. Джонса, которого в фильме «Черная дыра» (1999) сыграл Коул Хаузер. В реальной жизни Нэйбл всего на три года старше Хаузера.
*** В конце фильма, когда Даль спускается с корабля, чтобы привязать Риддика к веревке, идет дождь. Однако Даль и Риддик полностью сухие. Даже волосы Дали свободно развеваются на ветру.
Скриншоты:


Правила, инструкции, FAQ!!!
Торрент  Добавлен [11 ноя 2014, 12:27] Скачать торрент Магнет ссылка
Скачать торрент
110.72 КБ

Статус
Проверен 
 
Размер  43.8 ГБ
Приватный: Нет (DHT включён)
.torrent скачан  4
Как залить торрент? | Как скачать Torrent? | Как смотреть и слушать онлайн?  
Гость
 



Вернуться в Трилогии

Кто сейчас на конференции

Сейчас этот форум просматривают: нет зарегистрированных пользователей и гости: 0