Ре-цикл / Re-cycle / Gwai wik (2006) BDRip 720p


Статистика раздачи
Размер: 7.9 ГБ | Добавлен: 09 июн 2019, 09:48 | Скачали: 1
Сидеров: 10  [0 байт/сек]    Личеров: 8  [0 байт/сек]

Сообщение K15 » 09 июн 2019, 09:48

Название: Ре-цикл
Оригинальное название: Gwai wik
Год выхода: 2006
Страна: Таиланд, Гонконг
Жанр: ужасы, фэнтези, триллер
Режиссер: Оксид Пан, Дэнни Пан
В ролях: Анджелика Ли, Поу-Сои Чинг, Экин Чэн, Лоуренс Чоу, Вирайвон Джаувсенг, Сиу-Минг Лау, Рэйн Ли, Кики Зенг, Джетрин Ваттанасин




О фильме: Первый роман молодой писательницы Чу Ксун сразу же стал бестселлером. Окрыленная успехом, Чу берется за новую работу. Ее новая книга — о Стране Призраков и сверхъестественных силах. Но закончив пару глав, Чу не хочет больше писать.
Она уничтожает все файлы, связанные с романом. Только выдуманные образы не уходят, и Чу начинает замечать, что реальность и события ненаписанной книги все больше переплетаются. Самые ужасные фантазии готовы стать реальностью…






Продолжительность: 01:48:51
Перевод: 1: Русский: профессиональный многоголосый закадровый
2: Русский: одноголосый закадровый (авторский) (Сербин)


Общее
Уникальный идентификатор : 191687351399874309975697749712077805690 (0x9035A418B72F7FAA859630E3D183587A)
Полное имя : F:TempRe-cycle.(Gwai.wik).2006.720p.DVD9.BDRip.x264.Voland_.mkv
Формат : Matroska
Версия формата : Version 2
Размер файла : 7,90 Гбайт
Продолжительность : 1 ч. 48 м.
Общий поток : 10,4 Мбит/сек
Дата кодирования : UTC 2011-01-18 18:36:16
Программа кодирования : mkvmerge v3.4.0 ('Rapunzel') сборка от May 15 2010 09:38:20
Библиотека кодирования : libebml v0.8.0 + libmatroska v0.9.0

Видео
Идентификатор : 1
Формат : AVC
Формат/Информация : Advanced Video Codec
Профиль формата : High@L4.1
Параметр CABAC формата : Да
Параметр ReFrames формата : 11 кадров
Идентификатор кодека : V_MPEG4/ISO/AVC
Продолжительность : 1 ч. 48 м.
Битрейт : 6171 Кбит/сек
Ширина : 1280 пикселей
Высота : 544 пикселя
Соотношение сторон : 2,35:1
Режим частоты кадров : Постоянный
Частота кадров : 24,000 кадра/сек
Цветовое пространство : YUV
Субдискретизация насыщенности : 4:2:0
Битовая глубина : 8 бит
Тип развёртки : Прогрессивная
Бит/(Пиксели*Кадры) : 0.369
Размер потока : 4,54 Гбайт (57%)
Библиотека кодирования : x264 core 110 r1820 fdcf2ae
Настройки программы : cabac=1 / ref=11 / deblock=1:-3:-3 / analyse=0x3:0x113 / me=umh / subme=10 / psy=1 / psy_rd=1.10:0.15 / mixed_ref=1 / me_range=64 / chroma_me=1 / trellis=2 / 8x8dct=1 / cqm=0 / deadzone=21,11 / fast_pskip=0 / chroma_qp_offset=-3 / threads=6 / sliced_threads=0 / nr=0 / decimate=1 / interlaced=0 / constrained_intra=0 / bframes=6 / b_pyramid=2 / b_adapt=2 / b_bias=0 / direct=3 / weightb=1 / open_gop=0 / weightp=2 / keyint=250 / keyint_min=24 / scenecut=40 / intra_refresh=0 / rc_lookahead=40 / rc=2pass / mbtree=0 / bitrate=6171 / ratetol=1.0 / qcomp=0.60 / qpmin=10 / qpmax=51 / qpstep=4 / cplxblur=20.0 / qblur=0.5 / vbv_maxrate=50000 / vbv_bufsize=62500 / ip_ratio=1.40 / pb_ratio=1.30 / aq=1:1.00 / nal_hrd=none
Default : Да
Forced : Нет

Аудио #1
Идентификатор : 2
Формат : DTS
Формат/Информация : Digital Theater Systems
Режим : 16
Параметр Endianness формата : Big
Идентификатор кодека : A_DTS
Продолжительность : 1 ч. 48 м.
Вид битрейта : Постоянный
Битрейт : 1510 Кбит/сек
Каналы : 6 каналов
Расположение каналов : Front: L C R, Side: L R, LFE
Частота : 48,0 КГц
Частота кадров : 93,750 кадра/сек (512 spf)
Битовая глубина : 16 бит
Метод сжатия : С потерями
Размер потока : 1,15 Гбайт (15%)
Заголовок : Сербин, DTS 1536kbps
Язык : Russian
Default : Да
Forced : Нет

Аудио #2
Идентификатор : 3
Формат : DTS
Формат/Информация : Digital Theater Systems
Режим : 16
Параметр Endianness формата : Big
Идентификатор кодека : A_DTS
Продолжительность : 1 ч. 48 м.
Вид битрейта : Постоянный
Битрейт : 755 Кбит/сек
Каналы : 6 каналов
Расположение каналов : Front: L C R, Side: L R, LFE
Частота : 48,0 КГц
Частота кадров : 93,750 кадра/сек (512 spf)
Битовая глубина : 24 бит
Метод сжатия : С потерями
Размер потока : 587 Мбайт (7%)
Заголовок : MVO R5, DTS 768kbps
Язык : Russian
Default : Нет
Forced : Нет

Аудио #3
Идентификатор : 4
Формат : AC-3
Формат/Информация : Audio Coding 3
Расширение режима : CM (complete main)
Параметр Endianness формата : Big
Идентификатор кодека : A_AC3
Продолжительность : 1 ч. 48 м.
Вид битрейта : Постоянный
Битрейт : 448 Кбит/сек
Каналы : 6 каналов
Расположение каналов : Front: L C R, Side: L R, LFE
Частота : 48,0 КГц
Частота кадров : 31,250 кадров/сек (1536 spf)
Метод сжатия : С потерями
Размер потока : 349 Мбайт (4%)
Заголовок : MVO, AC3 448kbps
Язык : Russian
Default : Нет
Forced : Нет

Аудио #4
Идентификатор : 5
Формат : DTS
Формат/Информация : Digital Theater Systems
Режим : 16
Параметр Endianness формата : Big
Идентификатор кодека : A_DTS
Продолжительность : 1 ч. 48 м.
Вид битрейта : Постоянный
Битрейт : 1509 Кбит/сек
Каналы : 6 каналов
Расположение каналов : Front: L C R, Side: L R, LFE
Частота : 48,0 КГц
Частота кадров : 93,750 кадра/сек (512 spf)
Битовая глубина : 24 бит
Метод сжатия : С потерями
Размер потока : 1,15 Гбайт (15%)
Язык : Chinese
Default : Нет
Forced : Нет

Текст #1
Идентификатор : 6
Формат : UTF-8
Идентификатор кодека : S_TEXT/UTF8
Идентификатор кодека/Информация : UTF-8 Plain Text
Язык : Russian
Default : Да
Forced : Нет

Текст #2
Идентификатор : 7
Формат : UTF-8
Идентификатор кодека : S_TEXT/UTF8
Идентификатор кодека/Информация : UTF-8 Plain Text
Язык : English
Default : Нет
Forced : Нет



Кодек: x.264
Качество: BDRip 720p
Видео: 1280x544 (2.35:1), 24.000 fps, AVC, ~6171 Kbps, 0.369 bits/pixel
Звук: #1: Russian, 48.0 KHz, DTS, 6 ch, 1510 Kbps - DTS 1536kbps (Сербин)
#2: Russian, 48.0 KHz, DTS, 6 ch, 755 Kbps - DTS 768kbps (MVO R5 С.Р.И.)
#3: Russian, 48.0 KHz, AC3, 6 ch, 448 Kbps - AC3 448kbps (MVO)
#4: Chinese, 48.0 KHz, DTS, 6 ch, 1510 Kbps
Субтитры: Русские, английские
Правила, инструкции, FAQ!!!
Торрент  Добавлен [09 июн 2019, 09:48] Скачать торрент Магнет ссылка
Скачать торрент
40.5 КБ

Статус
Проверен K15 (09 июн 2019, 09:49)
 
Размер  7.9 ГБ
Приватный: Нет (DHT включён)
.torrent скачан  1
Как залить торрент? | Как скачать Torrent? | Как смотреть и слушать онлайн?  
K15
Супермодератор
Аватара пользователя
 
Раздал: 3.29 ГБ
Скачал: 2.59 ГБ
Ратио: 1.270
Сообщения: 69
Стаж: 31 май 2019, 16:28



Вернуться в 720p | 1080p

Кто сейчас на конференции

Сейчас этот форум просматривают: Google [Bot] и гости: 3