Rammstein - Complete Discography (1995 - 2009) [FLAC|Lossless] <Industrial Metal>


Статистика раздачи
Размер: 10.32 ГБ | Добавлен: 08 авг 2015, 23:22 | Скачали: 14
Сидеров: 164  [0 байт/сек]    Личеров: 79  [0 байт/сек]

Сообщение Гость » 08 авг 2015, 23:22

Страна: Германия
Год выпуска: 1995 - 2009
Жанр: Industrial, Neue Deutsche Harte
Формат: FLAC (image + .cue)
Битрейт аудио: Lossless

«Rammstein» — немецкая рок - группа, образованная в январе 1994 года. Их музыкальный стиль соединяет в себе элементы индастриал - метала (Industrial Metal), и традиции немецкой тяжёлой сцены (Neue Deutsche Harte). Rammstein — одна из самых популярных рок - групп Германии, широко известная и в остальном мире. Почти все песни группы исполняются на немецком языке. Rammstein также прославились сценическими шоу и эпатажными текстами ..

Singles:

продолжительность:00:14:55
01. Rammstein - Du riechst so gut (Single Version) (4:50)
02. Wollt Ihr das Bett in Flammen sehen? (5:20)
03. Du riechst so gut (Scal Remix) (4:46)
EAC extrae el archivo del registro desde 28. Diciembre 2003, 13:36 para el CD
Rammstein / Du riechst so gut

Unidad Usada: HL-DT-STCD-RW GCE-8320B Adapter: 1 ID: 1
Modo de Lectura: Seguro sin C2, con Flujo Preciso, sin desactivar Cache
Correcciуn Combinada de Lectura/Escritura del Balance: 0
Leer por encima de la sesiуn inicial y final del CD : No

Usar Formato de Salida: C:\Archivos de programa\Exact Audio Copy\Codecs\MAC.exe (Compresor Monkey's Audio (menor pйrdida))
High Lossless Compression
Opciones adicionales de la Linea de comandos: %l--alt-preset 128%l%h--alt-preset standard%h %s %d

Otras Opciones:
Rellenar muestras pйrdidas del balance con silencios : Si
Eliminar bloques de silencios al principio y final : No
Interfaz ASPI externa instalada

Lнmite erroneo
Seleccionar Lнmite
Nombre de archivo C:\Documents and Settings\Alberto\Escritorio\CDImage.wav

Nivel de pico 100.0 %
Calidad de lнmite 100.0 %
CRC E1659208
Copia realizada

No existen errores

Fin de la informaciуn de estado
AUDIOCHECKER v2.0 beta (build 457) - by Dester -
~~~~~~~~~~~~~~~~~~~~~~~~~~~~~~~~~~
-=== НЕ РЕДАКТИРУЙТЕ ЭТОТ ФАЙЛ! ===-

Путь: ...\1995 - Du riechst so gut

01 -=- Rammstein - Du riechst so gut.flac -=- CDDA (100%)

185940244

продолжительность:00:16:25
01. Seeman (4:50)
02. Der Meister (5:10)
03. Rammstein in the house (Timewriter-Remix) (6:25)
EAC extrae el archivo del registro desde 28. Diciembre 2003, 0:52 para el CD
Rammstein / Seeman (CDS)

Unidad Usada: HL-DT-STCD-RW GCE-8320B Adapter: 1 ID: 1
Modo de Lectura: Seguro sin C2, con Flujo Preciso, sin desactivar Cache
Correcciуn Combinada de Lectura/Escritura del Balance: 0
Leer por encima de la sesiуn inicial y final del CD : No

Usar Formato de Salida: C:\Archivos de programa\Exact Audio Copy\Codecs\MAC.exe (Compresor Monkey's Audio (menor pйrdida))
High Lossless Compression
Opciones adicionales de la Linea de comandos: %l--alt-preset 128%l%h--alt-preset standard%h %s %d

Otras Opciones:
Rellenar muestras pйrdidas del balance con silencios : Si
Eliminar bloques de silencios al principio y final : No
Interfaz Win32 para Windows (NT/2000/XP)

Lнmite erroneo
Seleccionar Lнmite
Nombre de archivo C:\Documents and Settings\Alberto\Escritorio\RAMMS+EIN.-.Original Sigle Kollek+ion\SEEMANN.[MCD].[1996].[EAC.APE]\RAMMS+EIN.[1996].[MCD].SEEMANN.[EAC-APE].BY.4RTX3R.[MeTaLMaDNeSS.TeaM].wav

Nivel de pico 99.0 %
Calidad de lнmite 100.0 %
CRC DDB01008
Copia realizada

No existen errores

Fin de la informaciуn de estado
AUDIOCHECKER v2.0 beta (build 457) - by Dester -
~~~~~~~~~~~~~~~~~~~~~~~~~~~~~~~~~~
-=== НЕ РЕДАКТИРУЙТЕ ЭТОТ ФАЙЛ! ===-

Путь: ...\1996 - Seemann

01 -=- Rammstein - Seemann.flac -=- CDDA (100%)

40940196

продолжительность:00:20:06
01. Engel (4:25)
02. Sehnsucht (4:04)
03. Rammstein (Eskimos & Egypt Radio Edit) (3:41)
04. Rammstein (Eskimos & Egypt Instrumental Edit) (3:30)
05. Rammstein (Original) (4:26)
EAC extrae el archivo del registro desde 28. Diciembre 2003, 1:18 para el CD
Rammstein / Engel

Unidad Usada: HL-DT-STCD-RW GCE-8320B Adapter: 1 ID: 1
Modo de Lectura: Seguro sin C2, con Flujo Preciso, sin desactivar Cache
Correcciуn Combinada de Lectura/Escritura del Balance: 0
Leer por encima de la sesiуn inicial y final del CD : No

Usar Formato de Salida: C:\Archivos de programa\Exact Audio Copy\Codecs\MAC.exe (Compresor Monkey's Audio (menor pйrdida))
High Lossless Compression
Opciones adicionales de la Linea de comandos: %l--alt-preset 128%l%h--alt-preset standard%h %s %d

Otras Opciones:
Rellenar muestras pйrdidas del balance con silencios : Si
Eliminar bloques de silencios al principio y final : No
Interfaz Win32 para Windows (NT/2000/XP)

Lнmite erroneo
Seleccionar Lнmite
Nombre de archivo C:\Documents and Settings\Alberto\Escritorio\RAMMS+EIN.-.Original Sigle Kollek+ion\ENGEL.[MCD].[1997].[EAC.APE]\RAMMS+EIN.[1997].[MCD].ENGEL.[EAC-APE].BY.4RTX3R.[MeTaLMaDNeSS.TeaM].wav

Nivel de pico 100.0 %
Calidad de lнmite 100.0 %
CRC C9EDFC35
Copia realizada

No existen errores

Fin de la informaciуn de estado
AUDIOCHECKER v2.0 beta (build 457) - by Dester -
~~~~~~~~~~~~~~~~~~~~~~~~~~~~~~~~~~
-=== НЕ РЕДАКТИРУЙТЕ ЭТОТ ФАЙЛ! ===-

Путь: ...\1997 - Engel

01 -=- Rammstein - Engel.flac -=- CDDA (100%)

227360740

продолжительность:00:18:37
01. Engel (Extended) 04:36
02. Feuerrader (Live demo 1994) 04:50
03. Wilder Wein (Demo) 05:42
04. Rammstein (Eskimos & Egypt instrumental) 03:28
Exact Audio Copy V0.99 prebeta 3 from 28. July 2007

EAC Auslese-Logdatei vom 22. April 2008, 2:31

Rammstein / Engel (fan edition)

Benutztes Laufwerk : SONY DVD RW DW-Q31A Adapter: 0 ID: 0

Lesemodus : Sicher
Benutze Accurate Stream : Ja
Audio Puffer abgeschaltet : Ja
Benutze C2 Fehlerinformationen : Nein

Leseoffset Korrektur : 6
Ьberlesen in das Lead-In und Lead-Out : Nein
Fьlle fehlende Offsetsample mit Stille auf : Ja
Lцsche fьhrende und nachfolgende stille Blцcke : Nein
Null Samples gehen in CRC Berechnungen ein : Ja
Benutzte Schnittstelle : Installierte externe ASPI Schnittstelle

Benutztes Ausgabeformat : Interne WAV Routinen
Sampleformat : 44.100 Hz; 16 Bit; Stereo

TOC der ausgelesenen CD

Track | Start | Lдnge | Startsektor | Endsektor
-------------------------------------------------------
1 | 0:00.00 | 4:36.22 | 0 | 20721
2 | 4:36.22 | 4:50.00 | 20722 | 42471
3 | 9:26.22 | 5:42.03 | 42472 | 68124
4 | 15:08.25 | 3:28.70 | 68125 | 83794

Bereichsstatus und Fehler

Gewдhlter Bereich

Dateiname C:\Rammstein - 7 Maxi Singles\1997 - Engel (Fan Edition)\Rammstein - Engel (fan edition).wav

Spitzenpegel 100.0 %
Bereichsqualitдt 100.0 %
Kopie CRC EE594823
Kopie OK

Keine Fehler aufgetreten

AccurateRip Ьbersicht

Track 1 akkurat gelesen (Zuversicht 11) [8A4656B2]
Track 2 akkurat gelesen (Zuversicht 11) [A4991A6B]
Track 3 akkurat gelesen (Zuversicht 11) [FC8D17A7]
Track 4 akkurat gelesen (Zuversicht 11) [D696ADAE]

Alle Tracks wurden akkurat gelesen

Ende des Statusreports
AUDIOCHECKER v2.0 beta (build 457) - by Dester -
~~~~~~~~~~~~~~~~~~~~~~~~~~~~~~~~~~
-=== НЕ РЕДАКТИРУЙТЕ ЭТОТ ФАЙЛ! ===-

Путь: ...\1997 - Engel (Fan Edition)

01 -=- Rammstein - Engel (fan edition).flac -=- CDDA (100%)

66212868

продолжительность:00:19:27
01. Du Hast (Single Version) 03:55
02. Buck Dich (Album Version) 03:22
03. Du Hast (Remix By Jacob Hellner) 06:44
04. Du Hast (Remix By Clawfinger) 05:24
Exact Audio Copy V0.99 prebeta 3 from 28. July 2007

EAC Auslese-Logdatei vom 22. April 2008, 2:41

Rammstein / Du Hast

Benutztes Laufwerk : SONY DVD RW DW-Q31A Adapter: 0 ID: 0

Lesemodus : Sicher
Benutze Accurate Stream : Ja
Audio Puffer abgeschaltet : Ja
Benutze C2 Fehlerinformationen : Nein

Leseoffset Korrektur : 6
Ьberlesen in das Lead-In und Lead-Out : Nein
Fьlle fehlende Offsetsample mit Stille auf : Ja
Lцsche fьhrende und nachfolgende stille Blцcke : Nein
Null Samples gehen in CRC Berechnungen ein : Ja
Benutzte Schnittstelle : Installierte externe ASPI Schnittstelle

Benutztes Ausgabeformat : Interne WAV Routinen
Sampleformat : 44.100 Hz; 16 Bit; Stereo

TOC der ausgelesenen CD

Track | Start | Lдnge | Startsektor | Endsektor
-------------------------------------------------------
1 | 0:00.32 | 3:55.43 | 32 | 17699
2 | 3:56.00 | 3:22.52 | 17700 | 32901
3 | 7:18.52 | 6:44.55 | 32902 | 63256
4 | 14:03.32 | 5:24.00 | 63257 | 87556

Bereichsstatus und Fehler

Gewдhlter Bereich

Dateiname C:\Rammstein - 7 Maxi Singles\1997 - Du hast\Rammstein - Du Hast.wav

Spitzenpegel 100.0 %
Bereichsqualitдt 100.0 %
Kopie CRC E595E6B3
Kopie OK

Keine Fehler aufgetreten

AccurateRip Ьbersicht

Track 1 akkurat gelesen (Zuversicht 7) [A26E0DAE]
Track 2 akkurat gelesen (Zuversicht 7) [3E77AF2D]
Track 3 akkurat gelesen (Zuversicht 7) [D492A0DC]
Track 4 akkurat gelesen (Zuversicht 7) [BED2D3F3]

Alle Tracks wurden akkurat gelesen

Ende des Statusreports
AUDIOCHECKER v2.0 beta (build 457) - by Dester -
~~~~~~~~~~~~~~~~~~~~~~~~~~~~~~~~~~
-=== НЕ РЕДАКТИРУЙТЕ ЭТОТ ФАЙЛ! ===-

Путь: ...\1997 - Du hast

01 -=- Rammstein - Du Hast.flac -=- CDDA (100%)

99561268

продолжительность:00:12:18
01. Das Modell 04:45
02. Kokain 03:09
03. Alter Mann [special version] 04:23
Exact Audio Copy V0.99 prebeta 3 from 28. July 2007

EAC Auslese-Logdatei vom 22. April 2008, 2:49

Rammstein / Das Modell

Benutztes Laufwerk : SONY DVD RW DW-Q31A Adapter: 0 ID: 0

Lesemodus : Sicher
Benutze Accurate Stream : Ja
Audio Puffer abgeschaltet : Ja
Benutze C2 Fehlerinformationen : Nein

Leseoffset Korrektur : 6
Ьberlesen in das Lead-In und Lead-Out : Nein
Fьlle fehlende Offsetsample mit Stille auf : Ja
Lцsche fьhrende und nachfolgende stille Blцcke : Nein
Null Samples gehen in CRC Berechnungen ein : Ja
Benutzte Schnittstelle : Installierte externe ASPI Schnittstelle

Benutztes Ausgabeformat : Interne WAV Routinen
Sampleformat : 44.100 Hz; 16 Bit; Stereo

TOC der ausgelesenen CD

Track | Start | Lдnge | Startsektor | Endsektor
-------------------------------------------------------
1 | 0:00.00 | 4:45.65 | 0 | 21439
2 | 4:45.65 | 3:09.40 | 21440 | 35654
3 | 7:55.30 | 4:23.06 | 35655 | 55385
4 | 14:50.36 | 1:05.35 | 66786 | 71695

Bereichsstatus und Fehler

Gewдhlter Bereich

Dateiname C:\Rammstein - 7 Maxi Singles\1997 - Das Modell\Rammstein - Das Modell.wav

Spitzenpegel 100.0 %
Bereichsqualitдt 100.0 %
Kopie CRC 1DA7C0DF
Kopie OK

Keine Fehler aufgetreten

AccurateRip Ьbersicht

Track 1 akkurat gelesen (Zuversicht 8) [323DCA44]
Track 2 akkurat gelesen (Zuversicht 8) [AEC4A80E]
Track 3 akkurat gelesen (Zuversicht 8) [99ED1889]

Alle Tracks wurden akkurat gelesen

Ende des Statusreports
AUDIOCHECKER v2.0 beta (build 457) - by Dester -
~~~~~~~~~~~~~~~~~~~~~~~~~~~~~~~~~~
-=== НЕ РЕДАКТИРУЙТЕ ЭТОТ ФАЙЛ! ===-

Путь: ...\1997 - Das Modell

01 -=- Rammstein - Das Modell.flac -=- CDDA (100%)

90160708

продолжительность:00:33:46
01. Du riechst so gut '98 04:24
02. Du riechst so gut [Remix by Faith No More] 01:57
03. Du riechst so gut [Remix by Gunter Schulz - KMFDM & Hiwatt Marshall] 04:07
04. Du riechst so gut [Remix by Sascha Konietzko - KMFDM] 04:47
05. Du riechst so gut [Remix by Olaf Bruhn - Bobo In White Wooden Houses] 04:45
06. Du riechst so gut [Remix by Sascha Moser - Bobo In White Wooden Houses] 03:53
07. Du riechst so gut [Remix by Jacob Hellner & Marc Stagg] 04:33
08. Du riechst so gut ['Migrane'-Remix by Gunter Schulz - KMFDM] 05:17
Exact Audio Copy V0.99 prebeta 3 from 28. July 2007

EAC Auslese-Logdatei vom 11. Juli 2008, 3:13

Rammstein / Du riechst so gut '98

Benutztes Laufwerk : SONY DVD RW DW-Q31A Adapter: 0 ID: 0

Lesemodus : Sicher
Benutze Accurate Stream : Ja
Audio Puffer abgeschaltet : Ja
Benutze C2 Fehlerinformationen : Nein

Leseoffset Korrektur : 6
Ьberlesen in das Lead-In und Lead-Out : Nein
Fьlle fehlende Offsetsample mit Stille auf : Ja
Lцsche fьhrende und nachfolgende stille Blцcke : Nein
Null Samples gehen in CRC Berechnungen ein : Ja
Benutzte Schnittstelle : Installierte externe ASPI Schnittstelle

Benutztes Ausgabeformat : Interne WAV Routinen
Sampleformat : 44.100 Hz; 16 Bit; Stereo

TOC der ausgelesenen CD

Track | Start | Lдnge | Startsektor | Endsektor
-------------------------------------------------------
1 | 0:00.00 | 4:24.40 | 0 | 19839
2 | 4:24.40 | 1:57.52 | 19840 | 28666
3 | 6:22.17 | 4:07.10 | 28667 | 47201
4 | 10:29.27 | 4:47.05 | 47202 | 68731
5 | 15:16.32 | 4:45.30 | 68732 | 90136
6 | 20:01.62 | 3:53.35 | 90137 | 107646
7 | 23:55.22 | 4:33.45 | 107647 | 128166
8 | 28:28.67 | 5:17.31 | 128167 | 151972
9 | 36:18.23 | 17:02.00 | 163373 | 240022

Bereichsstatus und Fehler

Gewдhlter Bereich

Dateiname C:\Rammstein - Complete Discography\Singles\1998 - Du riechst so gut '98\Rammstein - Du riechst so gut '98.wav

Spitzenpegel 99.9 %
Bereichsqualitдt 100.0 %
Kopie CRC E0E0AEB1
Kopie OK

Keine Fehler aufgetreten

AccurateRip Ьbersicht

Track 1 akkurat gelesen (Zuversicht 7) [ED2C5765]
Track 2 akkurat gelesen (Zuversicht 7) [2497C947]
Track 3 akkurat gelesen (Zuversicht 7) [F8434186]
Track 4 akkurat gelesen (Zuversicht 7) [E77E29D2]
Track 5 akkurat gelesen (Zuversicht 7) [C71635CB]
Track 6 akkurat gelesen (Zuversicht 7) [6B2CB8EE]
Track 7 akkurat gelesen (Zuversicht 7) [46B2706F]
Track 8 akkurat gelesen (Zuversicht 7) [348C9BD4]

Alle Tracks wurden akkurat gelesen

Ende des Statusreports
AUDIOCHECKER v2.0 beta (build 457) - by Dester -
~~~~~~~~~~~~~~~~~~~~~~~~~~~~~~~~~~
-=== НЕ РЕДАКТИРУЙТЕ ЭТОТ ФАЙЛ! ===-

Путь: ...\1998 - Du riechst so gut '98

01 -=- Rammstein - Du riechst so gut '98.flac -=- CDDA (100%)

77211972

продолжительность:00:24:07
01. Stripped 04:28
02. Stripped (Psilonaut Mix) 04:32
03. Stripped (Heavy Mental Mix) 05:16
04. Stripped (Tribute to Dusseldorf Mix) 05:13
05. Stripped (FKK Mix) 04:35
Exact Audio Copy V0.99 prebeta 3 from 28. July 2007

EAC Auslese-Logdatei vom 22. April 2008, 3:03

Rammstein / Stripped

Benutztes Laufwerk : SONY DVD RW DW-Q31A Adapter: 0 ID: 0

Lesemodus : Sicher
Benutze Accurate Stream : Ja
Audio Puffer abgeschaltet : Ja
Benutze C2 Fehlerinformationen : Nein

Leseoffset Korrektur : 6
Ьberlesen in das Lead-In und Lead-Out : Nein
Fьlle fehlende Offsetsample mit Stille auf : Ja
Lцsche fьhrende und nachfolgende stille Blцcke : Nein
Null Samples gehen in CRC Berechnungen ein : Ja
Benutzte Schnittstelle : Installierte externe ASPI Schnittstelle

Benutztes Ausgabeformat : Interne WAV Routinen
Sampleformat : 44.100 Hz; 16 Bit; Stereo

TOC der ausgelesenen CD

Track | Start | Lдnge | Startsektor | Endsektor
-------------------------------------------------------
1 | 0:00.00 | 4:28.74 | 0 | 20173
2 | 4:28.74 | 4:32.11 | 20174 | 40584
3 | 9:01.10 | 5:16.19 | 40585 | 64303
4 | 14:17.29 | 5:13.62 | 64304 | 87840
5 | 19:31.16 | 4:35.69 | 87841 | 108534
6 | 26:39.10 | 24:47.14 | 119935 | 231473

Bereichsstatus und Fehler

Gewдhlter Bereich

Dateiname C:\Rammstein - 7 Maxi Singles\1998 - Stripped\Rammstein - Stripped.wav

Spitzenpegel 100.0 %
Bereichsqualitдt 99.9 %
Kopie CRC E3DEB5A6
Kopie OK

Keine Fehler aufgetreten

AccurateRip Ьbersicht

Track 1 akkurat gelesen (Zuversicht 6) [ED39C178]
Track 2 akkurat gelesen (Zuversicht 6) [59452DCF]
Track 3 akkurat gelesen (Zuversicht 6) [29BFFAE5]
Track 4 akkurat gelesen (Zuversicht 6) [806406A1]
Track 5 akkurat gelesen (Zuversicht 6) [E9C12F8A]

Alle Tracks wurden akkurat gelesen

Ende des Statusreports
AUDIOCHECKER v2.0 beta (build 457) - by Dester -
~~~~~~~~~~~~~~~~~~~~~~~~~~~~~~~~~~
-=== НЕ РЕДАКТИРУЙТЕ ЭТОТ ФАЙЛ! ===-

Путь: ...\1998 - Stripped

01 -=- Rammstein - Stripped.flac -=- CDDA (100%)

198526564

продолжительность:00:20:23
01. Wut Will Nicht Sterben (Radio Edit) 04:27
02. Wut Will Nicht Sterben (Extended Mix) 06:39
03. Wilder Frieden (Radio Edit) 03:54
04. Turen Offnen Sich Zur Stadt 05:22
Exact Audio Copy V0.99 prebeta 3 from 28. July 2007

EAC Auslese-Logdatei vom 22. April 2008, 9:05

Puhdys / Wut Will Nicht Sterben

Benutztes Laufwerk : SONY DVD RW DW-Q31A Adapter: 0 ID: 0

Lesemodus : Sicher
Benutze Accurate Stream : Ja
Audio Puffer abgeschaltet : Ja
Benutze C2 Fehlerinformationen : Nein

Leseoffset Korrektur : 6
Ьberlesen in das Lead-In und Lead-Out : Nein
Fьlle fehlende Offsetsample mit Stille auf : Ja
Lцsche fьhrende und nachfolgende stille Blцcke : Nein
Null Samples gehen in CRC Berechnungen ein : Ja
Benutzte Schnittstelle : Installierte externe ASPI Schnittstelle

Benutztes Ausgabeformat : Interne WAV Routinen
Sampleformat : 44.100 Hz; 16 Bit; Stereo

TOC der ausgelesenen CD

Track | Start | Lдnge | Startsektor | Endsektor
-------------------------------------------------------
1 | 0:00.00 | 4:27.62 | 0 | 20086
2 | 4:27.62 | 6:39.00 | 20087 | 50011
3 | 11:06.62 | 3:54.00 | 50012 | 67561
4 | 15:00.62 | 5:22.44 | 67562 | 91755

Bereichsstatus und Fehler

Gewдhlter Bereich

Dateiname C:\Rammstein - 7 Maxi Singles\Puhdys - 2000 - Wut will nicht sterben\Puhdys - Wut Will Nicht Sterben.wav

Spitzenpegel 100.0 %
Bereichsqualitдt 100.0 %
Kopie CRC E8248CC3
Kopie OK

Keine Fehler aufgetreten

AccurateRip Ьbersicht

Track 1 nicht in Datenbank enthalten
Track 2 nicht in Datenbank enthalten
Track 3 nicht in Datenbank enthalten
Track 4 nicht in Datenbank enthalten

Keiner der Tracks ist in der AccurateRip Datenbank vorhanden

Ende des Statusreports
AUDIOCHECKER v2.0 beta (build 457) - by Dester -
~~~~~~~~~~~~~~~~~~~~~~~~~~~~~~~~~~
-=== НЕ РЕДАКТИРУЙТЕ ЭТОТ ФАЙЛ! ===-

Путь: ...\2000 - Wut will nicht sterben (feat. PUHDYS)

01 -=- Puhdys - Wut Will Nicht Sterben.flac -=- CDDA (100%)

61194724

продолжительность:00:23:00
01. Sonne 04:35
02. Adios 03:51
03. Sonne (Clawfinger K.O. Remix) 04:11
04. Sonne (Clawfinger T.K.O. Remix) 05:50
05. Sonne (Instrumental) 04:32
Exact Audio Copy V0.99 prebeta 3 from 28. July 2007

EAC Auslese-Logdatei vom 22. April 2008, 3:21

Rammstein / Sonne

Benutztes Laufwerk : SONY DVD RW DW-Q31A Adapter: 0 ID: 0

Lesemodus : Sicher
Benutze Accurate Stream : Ja
Audio Puffer abgeschaltet : Ja
Benutze C2 Fehlerinformationen : Nein

Leseoffset Korrektur : 6
Ьberlesen in das Lead-In und Lead-Out : Nein
Fьlle fehlende Offsetsample mit Stille auf : Ja
Lцsche fьhrende und nachfolgende stille Blцcke : Nein
Null Samples gehen in CRC Berechnungen ein : Ja
Benutzte Schnittstelle : Installierte externe ASPI Schnittstelle

Benutztes Ausgabeformat : Interne WAV Routinen
Sampleformat : 44.100 Hz; 16 Bit; Stereo

TOC der ausgelesenen CD

Track | Start | Lдnge | Startsektor | Endsektor
-------------------------------------------------------
1 | 0:00.00 | 4:35.04 | 0 | 20628
2 | 4:35.04 | 3:51.09 | 20629 | 37962
3 | 8:26.13 | 4:11.16 | 37963 | 56803
4 | 12:37.29 | 5:50.67 | 56804 | 83120
5 | 18:28.21 | 4:32.05 | 83121 | 103525

Bereichsstatus und Fehler

Gewдhlter Bereich

Dateiname C:\Rammstein - 7 Maxi Singles\2001 - Sonne\Rammstein - Sonne.wav

Spitzenpegel 100.0 %
Bereichsqualitдt 100.0 %
Kopie CRC 556AA644
Kopie OK

Keine Fehler aufgetreten

AccurateRip Ьbersicht

Track 1 akkurat gelesen (Zuversicht 7) [9FA81A3C]
Track 2 akkurat gelesen (Zuversicht 7) [43A57620]
Track 3 akkurat gelesen (Zuversicht 7) [07A55218]
Track 4 akkurat gelesen (Zuversicht 7) [064FD1FA]
Track 5 akkurat gelesen (Zuversicht 7) [D9B8523E]

Alle Tracks wurden akkurat gelesen

Ende des Statusreports
AUDIOCHECKER v2.0 beta (build 457) - by Dester -
~~~~~~~~~~~~~~~~~~~~~~~~~~~~~~~~~~
-=== НЕ РЕДАКТИРУЙТЕ ЭТОТ ФАЙЛ! ===-

Путь: ...\2001 - Sonne

01 -=- Rammstein - Sonne.flac -=- CDDA (100%)

218687748

продолжительность:00:21:36
01. Links 2-3-4 03:42
02. Halleluja 03:45
03. Links 2-3-4 [Clawfinger Geradeaus remix] 04:27
04. Links 2-3-4 [Westbam technoelectro mix] 05:57
05. Links 2-3-4 [Westbam hard rock cafe bonus mix] 03:43
Exact Audio Copy V0.99 prebeta 3 from 28. July 2007

EAC Auslese-Logdatei vom 22. April 2008, 8:35

Rammstein / Links 2-3-4

Benutztes Laufwerk : SONY DVD RW DW-Q31A Adapter: 0 ID: 0

Lesemodus : Sicher
Benutze Accurate Stream : Ja
Audio Puffer abgeschaltet : Ja
Benutze C2 Fehlerinformationen : Nein

Leseoffset Korrektur : 6
Ьberlesen in das Lead-In und Lead-Out : Nein
Fьlle fehlende Offsetsample mit Stille auf : Ja
Lцsche fьhrende und nachfolgende stille Blцcke : Nein
Null Samples gehen in CRC Berechnungen ein : Ja
Benutzte Schnittstelle : Installierte externe ASPI Schnittstelle

Benutztes Ausgabeformat : Interne WAV Routinen
Sampleformat : 44.100 Hz; 16 Bit; Stereo

TOC der ausgelesenen CD

Track | Start | Lдnge | Startsektor | Endsektor
-------------------------------------------------------
1 | 0:00.00 | 3:42.35 | 0 | 16684
2 | 3:42.35 | 3:45.50 | 16685 | 33609
3 | 7:28.10 | 4:27.52 | 33610 | 53686
4 | 11:55.62 | 5:57.28 | 53687 | 80489
5 | 17:53.15 | 3:43.10 | 80490 | 97224

Bereichsstatus und Fehler

Gewдhlter Bereich

Dateiname C:\Rammstein - 7 Maxi Singles\2001 - Links 2 3 4\Rammstein - Links 2-3-4.wav

Spitzenpegel 99.9 %
Bereichsqualitдt 100.0 %
Kopie CRC A9755855
Kopie OK

Keine Fehler aufgetreten

AccurateRip Ьbersicht

Track 1 akkurat gelesen (Zuversicht 3) [36A946EF]
Track 2 akkurat gelesen (Zuversicht 3) [F443303D]
Track 3 akkurat gelesen (Zuversicht 3) [063AB69F]
Track 4 akkurat gelesen (Zuversicht 3) [CA1FD057]
Track 5 akkurat gelesen (Zuversicht 3) [3E01548E]

Alle Tracks wurden akkurat gelesen

Ende des Statusreports
AUDIOCHECKER v2.0 beta (build 457) - by Dester -
~~~~~~~~~~~~~~~~~~~~~~~~~~~~~~~~~~
-=== НЕ РЕДАКТИРУЙТЕ ЭТОТ ФАЙЛ! ===-

Путь: ...\2001 - Links 2 3 4

01 -=- Rammstein - Links 2-3-4.flac -=- CDDA (100%)

103793364

продолжительность:00:27:03
01. Ich Will (Album Version) (3:39)
02. Ich Will (Live) (4:18)
03. Ich Will (Westbam Mix) (6:22)
04. Ich Will (Paul Van Dyk Mix) (6:14)
05. Pet Sematary (6:32)
EAC extraction logfile from 18. January 2005, 23:25 for CD
Rammstein / Ich Will

Used drive : _NEC DVD_RW ND-3500AG Adapter: 1 ID: 0
Read mode : Secure with NO C2, accurate stream, disable cache
Read offset correction : 48
Overread into Lead-In and Lead-Out : No

Used output format : Internal WAV Routines
44.100 Hz; 16 Bit; Stereo

Other options :
Fill up missing offset samples with silence : Yes
Delete leading and trailing silent blocks : No
Installed external ASPI interface

Range status and errors
Selected range
Filename G:\Rammstein - Ich Will.wav

Peak level 99.9 %
Range quality 100.0 %
CRC 30B492AF
Copy OK

No errors occured

End of status report
AUDIOCHECKER v2.0 beta (build 457) - by Dester -
~~~~~~~~~~~~~~~~~~~~~~~~~~~~~~~~~~
-=== НЕ РЕДАКТИРУЙТЕ ЭТОТ ФАЙЛ! ===-

Путь: ...\2001 - Ich will

01 -=- Rammstein - Ich Will.flac -=- CDDA (100%)

236827396

продолжительность:00:21:09
01. Mutter (Radio Edit) 03:41
02. Mutter (Vocoder Mix) 04:34
03. 5/4 05:31
04. Mutter (Sono's Inkubator Mix) 07:22
Exact Audio Copy V0.99 prebeta 3 from 28. July 2007

EAC Auslese-Logdatei vom 22. April 2008, 8:50

Rammstein / Mutter (CD Single)

Benutztes Laufwerk : SONY DVD RW DW-Q31A Adapter: 0 ID: 0

Lesemodus : Sicher
Benutze Accurate Stream : Ja
Audio Puffer abgeschaltet : Ja
Benutze C2 Fehlerinformationen : Nein

Leseoffset Korrektur : 6
Ьberlesen in das Lead-In und Lead-Out : Nein
Fьlle fehlende Offsetsample mit Stille auf : Ja
Lцsche fьhrende und nachfolgende stille Blцcke : Nein
Null Samples gehen in CRC Berechnungen ein : Ja
Benutzte Schnittstelle : Installierte externe ASPI Schnittstelle

Benutztes Ausgabeformat : Interne WAV Routinen
Sampleformat : 44.100 Hz; 16 Bit; Stereo

TOC der ausgelesenen CD

Track | Start | Lдnge | Startsektor | Endsektor
-------------------------------------------------------
1 | 0:00.00 | 3:41.67 | 0 | 16641
2 | 3:41.67 | 4:34.10 | 16642 | 37201
3 | 8:16.02 | 5:31.23 | 37202 | 62049
4 | 13:47.25 | 7:22.02 | 62050 | 95201

Bereichsstatus und Fehler

Gewдhlter Bereich

Dateiname C:\Rammstein - 7 Maxi Singles\2002 - Mutter\Rammstein - Mutter (CD Single).wav

Spitzenpegel 98.8 %
Bereichsqualitдt 100.0 %
Kopie CRC 3EA663AA
Kopie OK

Keine Fehler aufgetreten

AccurateRip Ьbersicht

Track 1 akkurat gelesen (Zuversicht 1) [3ACCDB35]
Track 2 akkurat gelesen (Zuversicht 1) [CE8A4A8E]
Track 3 akkurat gelesen (Zuversicht 1) [FF063AAB]
Track 4 akkurat gelesen (Zuversicht 1) [9BD6A51B]

Alle Tracks wurden akkurat gelesen

Ende des Statusreports
AUDIOCHECKER v2.0 beta (build 457) - by Dester -
~~~~~~~~~~~~~~~~~~~~~~~~~~~~~~~~~~
-=== НЕ РЕДАКТИРУЙТЕ ЭТОТ ФАЙЛ! ===-

Путь: ...\2002 - Mutter

01 -=- Rammstein - Mutter (CD Single).flac -=- CDDA (100%)

87755396

продолжительность:00:22:57
01. Feuer Frei! (3:09)
02. Feuer Frei! (Rammstein vs. Junkie XL Remix) (4:10)
03. Feuer Frei! (Rammstein Remix 130) (3:44)
04. Feuer Frei! (Rammstein Remix 95) (3:34)
05. Du Hast (''A Tribute To Rammstein'' Cover Version By Battery) (4:42)
06. Buck dich (''A Tribute To Rammstein'' Cover Version By Battery) (3:40)
EAC extraction logfile from 12. March 2007, 13:43 for CD
Rammstein / Feuer Frei [6-Track Single]

Used drive : PLEXTOR CD-R PREMIUM Adapter: 5 ID: 1
Read mode : Secure with NO C2, accurate stream, disable cache
Read offset correction : 30
Overread into Lead-In and Lead-Out : Yes

Used output format : Internal WAV Routines
44.100 Hz; 16 Bit; Stereo

Other options :
Fill up missing offset samples with silence : Yes
Delete leading and trailing silent blocks : No
Installed external ASPI interface

Range status and errors
Selected range
Filename G:\Rammstein - Feuer Frei! [6-Track Single].wav

Peak level 99.9 %
Range quality 100.0 %
CRC 0E889063
Copy OK

No errors occured

End of status report
AUDIOCHECKER v2.0 beta (build 457) - by Dester -
~~~~~~~~~~~~~~~~~~~~~~~~~~~~~~~~~~
-=== НЕ РЕДАКТИРУЙТЕ ЭТОТ ФАЙЛ! ===-

Путь: ...\2002 - Feuer Frei!

01 -=- Rammstein - Feuer Frei.flac -=- CDDA (100%)

123928372

продолжительность:00:23:13
01. Mein Teil (4:25)
02. Mein Teil [You Are What You Eat Edit] (Remix by Pet Shop Boys) (4:08)
03. Mein Teil [The Return to New York Buffet Mix] (Remix by Arthur Baker) (7:24)
04. Mein Teil [There Are No Guitars On This Mix] (Remix by Pet Shop Boys) (7:16)
EAC extraction logfile from 13. August 2004, 18:18 for CD
Rammstein / Mein Teil

Used drive : TEAC CD-W552E Adapter: 1 ID: 1
Read mode : Secure with NO C2, accurate stream, disable cache
Read offset correction : 0
Overread into Lead-In and Lead-Out : No

Used output format : Internal WAV Routines
44.100 Hz; 16 Bit; Stereo

Other options :
Fill up missing offset samples with silence : Yes
Delete leading and trailing silent blocks : No
Installed external ASPI interface

Range status and errors
Selected range
Filename E:\CD_TEMP\RAMMSTEIN\Mein Teil EP.wav

Peak level 99.9 %
Range quality 100.0 %
CRC 51714832
Copy OK

No errors occured

End of status report
AUDIOCHECKER v2.0 beta (build 457) - by Dester -
~~~~~~~~~~~~~~~~~~~~~~~~~~~~~~~~~~
-=== НЕ РЕДАКТИРУЙТЕ ЭТОТ ФАЙЛ! ===-

Путь: ...\2004 - Mein Teil

01 -=- Rammstein - Mein Teil EP.flac -=- CDDA (100%)

254396308

продолжительность:00:36:19
01. Amerika (3:43)
02. Amerika (English Version) (3:42)
03. Amerika (Digital Hardcore Mix) by Alec Empire (3:51)
04. Amerika (Western-Remix) by Olsen Involtini (3:15)
05. Amerika (Andy Panthen & Mat Diaz's Clubmix) (4:05)
06. Amerika (Electro Ghetto Remix) By Bushido & Ilan (4:32)
07. Amerika (Jam & Spoon So kann's gehen Mix) (7:34)
08. Mein Herz brennt Orchesterlied V (5:37)
EAC extraction logfile from 23. September 2004, 14:13 for CD
Rammstein / Amerika

Used drive : TEAC CD-W552E Adapter: 1 ID: 1
Read mode : Secure with NO C2, accurate stream, disable cache
Read offset correction : 0
Overread into Lead-In and Lead-Out : No

Used output format : Internal WAV Routines
44.100 Hz; 16 Bit; Stereo

Other options :
Fill up missing offset samples with silence : Yes
Delete leading and trailing silent blocks : No
Installed external ASPI interface

Range status and errors
Selected range
Filename E:\temp\Amerika EP.wav

Peak level 100.0 %
Range quality 99.9 %
CRC FABD25B5
Copy OK

No errors occured

End of status report
AUDIOCHECKER v2.0 beta (build 457) - by Dester -
~~~~~~~~~~~~~~~~~~~~~~~~~~~~~~~~~~
-=== НЕ РЕДАКТИРУЙТЕ ЭТОТ ФАЙЛ! ===-

Путь: ...\2004 - Amerika

01 -=- Rammstein - Amerika CDM.flac -=- CDDA (100%)

188836788

продолжительность:00:28:40
01. Ohne Dich (Album Edit) (4:33)
02. Ohne Dich (Mina Harker's Version) Remix by Laibach (4:00)
03. Ohne Dich (Sacred Mix) Remix by Sven Helbig (4:35)
04. Ohne Dich (Schiller Mix) (5:23)
05. Ohne Dich (Under Byen Remix) (5:49)
06. Ohne Dich (Beta Version) (4:21)
EAC extraction logfile from 30. November 2004, 15:28 for CD
Rammstein / Ohne Dich

Used drive : TEAC CD-W552E Adapter: 1 ID: 1
Read mode : Secure with NO C2, accurate stream, disable cache
Read offset correction : 0
Overread into Lead-In and Lead-Out : No

Used output format : Internal WAV Routines
44.100 Hz; 16 Bit; Stereo

Other options :
Fill up missing offset samples with silence : Yes
Delete leading and trailing silent blocks : No
Installed external ASPI interface

Range status and errors
Selected range
Filename E:\temp\Ohne_Dich.wav

Peak level 99.9 %
Range quality 99.9 %
CRC 56ECFF7F
Copy OK

No errors occured

End of status report
AUDIOCHECKER v2.0 beta (build 457) - by Dester -
~~~~~~~~~~~~~~~~~~~~~~~~~~~~~~~~~~
-=== НЕ РЕДАКТИРУЙТЕ ЭТОТ ФАЙЛ! ===-

Путь: ...\2004 - Ohne Dich

01 -=- Rammstein - Ohne Dich.flac -=- CDDA (99%)

237693380

продолжительность:00:35:46
01. Keine Lust (3:45)
02. Keine Lust (Remix No.1) By Clawfinger (4:37)
03. Keine Lust (The Psychosonic Remix) By DJ Drug (5:02)
04. Keine Lust (Bozz Remix) By Azad (3:52)
05. Keine Lust (Jazz Remix) By Clawfinger (4:12)
06. Keine Lust (Black Strobe Remix) (7:08)
07. Keine Lust (Curve Remix) By Front 242 (3:40)
08. Keine Lust (Ich Zahl Die Fliegen Remix) By Krieger (3:30)
EAC extraction logfile from 3. March 2005, 11:40 for CD
Rammstein / Keine Lust MCD

Used drive : PLEXTOR CD-R PREMIUM Adapter: 1 ID: 1
Read mode : Secure with NO C2, accurate stream, disable cache
Read offset correction : 0
Overread into Lead-In and Lead-Out : No

Used output format : Internal WAV Routines
44.100 Hz; 16 Bit; Stereo

Other options :
Fill up missing offset samples with silence : Yes
Delete leading and trailing silent blocks : No
Installed external ASPI interface

Range status and errors
Selected range
Filename H:\Rammstein - Keine Lust MCD.wav

Peak level 99.9 %
Range quality 100.0 %
CRC 318128A1
Copy OK

No errors occured

End of status report
AUDIOCHECKER v2.0 beta (build 457) - by Dester -
~~~~~~~~~~~~~~~~~~~~~~~~~~~~~~~~~~
-=== НЕ РЕДАКТИРУЙТЕ ЭТОТ ФАЙЛ! ===-

Путь: ...\2005 - Keine Lust

01 -=- Rammstein - Keine Lust MCD.flac -=- CDDA (100%)

117061188

продолжительность:00:16:27
01. Benzin 03:47
02. Benzin (Combustion Remix By Meshuggah) 05:05
03. Benzin (Smallstars Remix By Ad Rock) 03:45
04. Benzin (Kerosinii Remix By Apocalyptica) 03:48
Exact Audio Copy V0.99 prebeta 3 from 28. July 2007

EAC Auslese-Logdatei vom 11. Juli 2008, 9:55

Rammstein / Benzin

Benutztes Laufwerk : SONY DVD RW DW-Q31A Adapter: 0 ID: 0

Lesemodus : Sicher
Benutze Accurate Stream : Ja
Audio Puffer abgeschaltet : Ja
Benutze C2 Fehlerinformationen : Nein

Leseoffset Korrektur : 6
Ьberlesen in das Lead-In und Lead-Out : Nein
Fьlle fehlende Offsetsample mit Stille auf : Ja
Lцsche fьhrende und nachfolgende stille Blцcke : Nein
Null Samples gehen in CRC Berechnungen ein : Ja
Benutzte Schnittstelle : Installierte externe ASPI Schnittstelle

Benutztes Ausgabeformat : Interne WAV Routinen
Sampleformat : 44.100 Hz; 16 Bit; Stereo

TOC der ausgelesenen CD

Track | Start | Lдnge | Startsektor | Endsektor
-------------------------------------------------------
1 | 0:00.00 | 3:47.61 | 0 | 17085
2 | 3:47.61 | 5:05.58 | 17086 | 40018
3 | 8:53.44 | 3:45.24 | 40019 | 56917
4 | 12:38.68 | 3:48.41 | 56918 | 74058

Bereichsstatus und Fehler

Gewдhlter Bereich

Dateiname C:\Rammstein - Complete Discography\Singles\2005 - Benzin\Rammstein - Benzin.wav

Spitzenpegel 99.9 %
Bereichsqualitдt 100.0 %
Kopie CRC C1839D88
Kopie OK

Keine Fehler aufgetreten

AccurateRip Ьbersicht

Track 1 akkurat gelesen (Zuversicht 5) [C164FF8E]
Track 2 akkurat gelesen (Zuversicht 6) [33CAADCB]
Track 3 akkurat gelesen (Zuversicht 5) [EA0EB15D]
Track 4 akkurat gelesen (Zuversicht 5) [54D0E536]

Alle Tracks wurden akkurat gelesen

Ende des Statusreports
AUDIOCHECKER v2.0 beta (build 457) - by Dester -
~~~~~~~~~~~~~~~~~~~~~~~~~~~~~~~~~~
-=== НЕ РЕДАКТИРУЙТЕ ЭТОТ ФАЙЛ! ===-

Путь: ...\2005 - Benzin

01 -=- Rammstein - Benzin.flac -=- CDDA (100%)

155210452

продолжительность:00:18:00
01. Rosenrot (Single Edit) 03:47
02. Rosenrot (The Tweaker Remix by Chris Vrenna) 04:35
03. Rosenrot (Northern Lite by Northern Lite) 04:46
04. Rosenrot (3AM at Cosy Remix by Jagz Kooner) 04:49
EAC Auslese-Logdatei vom 11. Juli 2008, 10:06

Rammstein / Rosenrot

Benutztes Laufwerk : SONY DVD RW DW-Q31A Adapter: 0 ID: 0

Lesemodus : Sicher
Benutze Accurate Stream : Ja
Audio Puffer abgeschaltet : Ja
Benutze C2 Fehlerinformationen : Nein

Leseoffset Korrektur : 6
Ьberlesen in das Lead-In und Lead-Out : Nein
Fьlle fehlende Offsetsample mit Stille auf : Ja
Lцsche fьhrende und nachfolgende stille Blцcke : Nein
Null Samples gehen in CRC Berechnungen ein : Ja
Benutzte Schnittstelle : Installierte externe ASPI Schnittstelle

Benutztes Ausgabeformat : Interne WAV Routinen
Sampleformat : 44.100 Hz; 16 Bit; Stereo

TOC der ausgelesenen CD

Track | Start | Lдnge | Startsektor | Endsektor
-------------------------------------------------------
1 | 0:00.00 | 3:47.26 | 0 | 17050
2 | 3:47.26 | 4:35.64 | 17051 | 37739
3 | 8:23.15 | 4:46.74 | 37740 | 59263
4 | 13:10.14 | 4:49.61 | 59264 | 80999

Bereichsstatus und Fehler

Gewдhlter Bereich

Dateiname C:\Rammstein - Complete Discography\Singles\2005 - Rosenrot\Rammstein - Rosenrot.wav

Spitzenpegel 99.9 %
Bereichsqualitдt 100.0 %
Kopie CRC E5C880CE
Kopie OK

Keine Fehler aufgetreten

AccurateRip Ьbersicht

Track 1 nicht in Datenbank enthalten
Track 2 nicht in Datenbank enthalten
Track 3 nicht in Datenbank enthalten
Track 4 nicht in Datenbank enthalten

Keiner der Tracks ist in der AccurateRip Datenbank vorhanden

Ende des Statusreports
AUDIOCHECKER v2.0 beta (build 457) - by Dester -
~~~~~~~~~~~~~~~~~~~~~~~~~~~~~~~~~~
-=== НЕ РЕДАКТИРУЙТЕ ЭТОТ ФАЙЛ! ===-

Путь: ...\2005 - Rosenrot

01 -=- Rammstein - Rosenrot.flac -=- CDDA (100%)

103241332

продолжительность:00:11:11
01 - Mann gegen Mann – 3:52
02 - Mann gegen Mann [Popular Music Mix by Vince Clarke] – 4:06
03 - Mann gegen Mann [Musensohn Remix by Sven Helbig] – 3:14
04 - Ich Will Live [Video at Festival de Nimes] – 4:07
EAC extraction logfile from 3. March 2006, 10:48 for CD
Rammstein / Mann Gegen Mann

Used drive : PLEXTOR CD-R PREMIUM Adapter: 0 ID: 1
Read mode : Secure with NO C2, accurate stream, disable cache
Read offset correction : 30
Overread into Lead-In and Lead-Out : No

Used output format : Internal WAV Routines
44.100 Hz; 16 Bit; Stereo

Other options :
Fill up missing offset samples with silence : Yes
Delete leading and trailing silent blocks : No
Installed external ASPI interface

Range status and errors
Selected range
Filename G:\Rammstein - Mann Gegen Mann.wav

Peak level 99.9 %
Range quality 100.0 %
CRC 48505F1A
Copy OK

No errors occured

End of status report
AUDIOCHECKER v2.0 beta (build 457) - by Dester -
~~~~~~~~~~~~~~~~~~~~~~~~~~~~~~~~~~
-=== НЕ РЕДАКТИРУЙТЕ ЭТОТ ФАЙЛ! ===-

Путь: ...\2006 - Mann Gegen Mann

01 -=- Rammstein - Mann Gegen Mann.flac -=- CDDA (100%)

61758292

продолжительность:00:09:06
01. Pussy (Radio Edit) 03:47
02. Rammlied 05:18
Exact Audio Copy V0.99 prebeta 5 from 4. May 2009

EAC Auslese-Logdatei vom 20. Februar 2010, 17:53

Rammstein / Pussy

Benutztes Laufwerk : HL-DT-STDVD-ROM GDR-H30N Adapter: 0 ID: 1

Lesemodus : Sicher
Benutze Accurate Stream : Ja
Audio Puffer abgeschaltet : Ja
Benutze C2 Fehlerinformationen : Nein

Leseoffset Korrektur : 6
Ьberlesen in das Lead-In und Lead-Out : Nein
Fьlle fehlende Offsetsample mit Stille auf : Ja
Lцsche fьhrende und nachfolgende stille Blцcke : Nein
Null Samples gehen in CRC Berechnungen ein : Ja
Benutzte Schnittstelle : Installierte externe ASPI Schnittstelle

Benutztes Ausgabeformat : Interne WAV Routinen
Sampleformat : 44.100 Hz; 16 Bit; Stereo

TOC der ausgelesenen CD

Track | Start | Lдnge | Startsektor | Endsektor
-------------------------------------------------------
1 | 0:00.00 | 3:47.37 | 0 | 17061
2 | 3:47.37 | 5:18.52 | 17062 | 40963

Bereichsstatus und Fehler

Gewдhlter Bereich

Dateiname K:\Rammstein - Discography\Singles\2009 - Pussy\Rammstein - Pussy.wav

Spitzenpegel 99.8 %
Bereichsqualitдt 100.0 %
Kopie CRC CA2082F7
Kopie OK

Keine Fehler aufgetreten

AccurateRip Ьbersicht

Track 1 akkurat gelesen (Zuversicht 13) [0CFBDC3E]
Track 2 akkurat gelesen (Zuversicht 14) [5260DDA7]

Alle Tracks wurden akkurat gelesen

Ende des Statusreports
AUDIOCHECKER v2.0 beta (build 457) - by Dester -
~~~~~~~~~~~~~~~~~~~~~~~~~~~~~~~~~~
-=== НЕ РЕДАКТИРУЙТЕ ЭТОТ ФАЙЛ! ===-

Путь: ...\2009 - Pussy

01 -=- Rammstein - Pussy.flac -=- CDDA (100%)

146450772
Albums:

продолжительность:00:49:33
01. Wollt ihr das Bett in Flammen sehen 05:17
02. Der Meister 04:10
03. Weisses Fleisch 03:35
04. Asche zu Asche 03:51
05. Seemann 04:48
06. Du riechst so gut 04:49
07. Das alte Leid 05:44
08. Heirate mich 04:44
09. Herzeleid 03:43
10. Laichzeit 04:22
11. Rammstein 04:25
Exact Audio Copy V0.99 prebeta 5 from 4. May 2009

EAC Auslese-Logdatei vom 5. Februar 2010, 16:28

Rammstein / Herzeleid

Benutztes Laufwerk : HL-DT-STDVD-ROM GDR-H30N Adapter: 0 ID: 1

Lesemodus : Sicher
Benutze Accurate Stream : Ja
Audio Puffer abgeschaltet : Ja
Benutze C2 Fehlerinformationen : Nein

Leseoffset Korrektur : 6
Ьberlesen in das Lead-In und Lead-Out : Nein
Fьlle fehlende Offsetsample mit Stille auf : Ja
Lцsche fьhrende und nachfolgende stille Blцcke : Nein
Null Samples gehen in CRC Berechnungen ein : Ja
Benutzte Schnittstelle : Installierte externe ASPI Schnittstelle

Benutztes Ausgabeformat : Interne WAV Routinen
Sampleformat : 44.100 Hz; 16 Bit; Stereo

TOC der ausgelesenen CD

Track | Start | Lдnge | Startsektor | Endsektor
-------------------------------------------------------
1 | 0:00.32 | 5:17.25 | 32 | 23831
2 | 5:17.57 | 4:10.55 | 23832 | 42636
3 | 9:28.37 | 3:35.63 | 42637 | 58824
4 | 13:04.25 | 3:51.55 | 58825 | 76204
5 | 16:56.05 | 4:48.12 | 76205 | 97816
6 | 21:44.17 | 4:49.20 | 97817 | 119511
7 | 26:33.37 | 5:44.38 | 119512 | 145349
8 | 32:18.00 | 4:44.50 | 145350 | 166699
9 | 37:02.50 | 3:43.27 | 166700 | 183451
10 | 40:46.02 | 4:22.58 | 183452 | 203159
11 | 45:08.60 | 4:25.02 | 203160 | 223036

Bereichsstatus und Fehler

Gewдhlter Bereich

Dateiname K:\Rammstein - Discography\Albums\1995 - Herzeleid\Rammstein - Herzeleid.wav

Spitzenpegel 100.0 %
Bereichsqualitдt 100.0 %
Kopie CRC 82399B39
Kopie OK

Keine Fehler aufgetreten

AccurateRip Ьbersicht

Track 1 akkurat gelesen (Zuversicht 154) [3C683345]
Track 2 akkurat gelesen (Zuversicht 151) [44557E7E]
Track 3 akkurat gelesen (Zuversicht 152) [2EBE022D]
Track 4 akkurat gelesen (Zuversicht 148) [1FF0F054]
Track 5 akkurat gelesen (Zuversicht 153) [F6FE038E]
Track 6 akkurat gelesen (Zuversicht 151) [7056A868]
Track 7 akkurat gelesen (Zuversicht 149) [2B9E2639]
Track 8 akkurat gelesen (Zuversicht 151) [B5553534]
Track 9 akkurat gelesen (Zuversicht 149) [EDABD429]
Track 10 akkurat gelesen (Zuversicht 150) [132C73D2]
Track 11 akkurat gelesen (Zuversicht 150) [25749F53]

Alle Tracks wurden akkurat gelesen

Ende des Statusreports
AUDIOCHECKER v2.0 beta (build 457) - by Dester -
~~~~~~~~~~~~~~~~~~~~~~~~~~~~~~~~~~
-=== НЕ РЕДАКТИРУЙТЕ ЭТОТ ФАЙЛ! ===-

Путь: ...\1995 - Herzeleid

01 -=- Rammstein - Herzeleid.flac -=- CDDA (100%)

228559220

продолжительность:00:43:58
02. Engel 04:25
03. Tier 03:47
04. Bestrafe mich 03:38
05. Du hast 03:55
06. Buck dich 03:23
07. Spiel mit mir 04:46
08. Klavier 04:23
09. Alter Mann 04:24
10. Eifersucht 03:37
11. Kuss mich (Fellfrosch) 03:31
Exact Audio Copy V0.99 prebeta 3 from 28. July 2007

EAC Auslese-Logdatei vom 30. Juli 2008, 6:56

Rammstein / Sehnsucht

Benutztes Laufwerk : SONY DVD RW DW-Q31A Adapter: 0 ID: 0

Lesemodus : Sicher
Benutze Accurate Stream : Ja
Audio Puffer abgeschaltet : Ja
Benutze C2 Fehlerinformationen : Nein

Leseoffset Korrektur : 6
Ьberlesen in das Lead-In und Lead-Out : Nein
Fьlle fehlende Offsetsample mit Stille auf : Ja
Lцsche fьhrende und nachfolgende stille Blцcke : Nein
Null Samples gehen in CRC Berechnungen ein : Ja
Benutzte Schnittstelle : Installierte externe ASPI Schnittstelle

Benutztes Ausgabeformat : Interne WAV Routinen
Sampleformat : 44.100 Hz; 16 Bit; Stereo

TOC der ausgelesenen CD

Track | Start | Lдnge | Startsektor | Endsektor
-------------------------------------------------------
1 | 0:00.32 | 4:04.33 | 32 | 18364
2 | 4:04.65 | 4:24.45 | 18365 | 38209
3 | 8:29.35 | 3:47.67 | 38210 | 55301
4 | 12:17.27 | 3:38.65 | 55302 | 71716
5 | 15:56.17 | 3:55.43 | 71717 | 89384
6 | 19:51.60 | 3:22.52 | 89385 | 104586
7 | 23:14.37 | 4:46.65 | 104587 | 126101
8 | 28:01.27 | 4:24.68 | 126102 | 145969
9 | 32:26.20 | 4:24.27 | 145970 | 165796
10 | 36:50.47 | 3:37.15 | 165797 | 182086
11 | 40:27.62 | 3:30.28 | 182087 | 197864

Bereichsstatus und Fehler

Gewдhlter Bereich

Dateiname C:\Rammstein - Complete Discography\Albums\1997 - Sehnsucht\Rammstein - Sehnsucht.wav

Spitzenpegel 100.0 %
Bereichsqualitдt 100.0 %
Kopie CRC 394250D4
Kopie OK

Keine Fehler aufgetreten

AccurateRip Ьbersicht

Track 1 akkurat gelesen (Zuversicht 27) [F69596EE]
Track 2 akkurat gelesen (Zuversicht 26) [9AAE3B9F]
Track 3 akkurat gelesen (Zuversicht 26) [30A4301A]
Track 4 akkurat gelesen (Zuversicht 26) [7D45FDDB]
Track 5 akkurat gelesen (Zuversicht 26) [5C3080A0]
Track 6 akkurat gelesen (Zuversicht 26) [140F2FC1]
Track 7 akkurat gelesen (Zuversicht 26) [06D601A6]
Track 8 akkurat gelesen (Zuversicht 26) [9EE10E78]
Track 9 akkurat gelesen (Zuversicht 26) [81914C48]
Track 10 akkurat gelesen (Zuversicht 25) [30CA2B93]
Track 11 akkurat gelesen (Zuversicht 25) [D7D0089C]

Alle Tracks wurden akkurat gelesen

Ende des Statusreports
AUDIOCHECKER v2.0 beta (build 457) - by Dester -
~~~~~~~~~~~~~~~~~~~~~~~~~~~~~~~~~~
-=== НЕ РЕДАКТИРУЙТЕ ЭТОТ ФАЙЛ! ===-

Путь: ...\1997 - Sehnsucht

01 -=- Rammstein - Sehnsucht.flac -=- CDDA (100%)

126038676

Sehnsucht (Australian Tour Edition) (Disc 1):
продолжительность:00:48:45
01. Sehnsucht 04:04
02. Engel 04:25
03. Tier 03:47
04. Bestrafe mich 03:38
05. Du hast 03:55
06. Buck dich 03:23
07. Spiel mit mir 04:46
08. Klavier 04:23
09. Alter Mann 04:24
10. Eifersucht 03:37
11. Kuss mich (Fellfrosch) 03:31
12. Stripped 04:45

Asche zu Asche (Australian Tour EP) (Disc 2):

продолжительность:00:29:50
01. Asche Zu Asche 03:53
02. Spiel Mit Mir (Live) 05:19
03. Laichzeit (Live) 05:14
04. Wollt Ihr Das Bett In Flammen Sehen? (Live) 05:53
05. Engel (Live) 05:58
06. Asche Zu Asche (Live) 03:30
Exact Audio Copy V0.99 prebeta 5 from 4. May 2009

EAC Auslese-Logdatei vom 6. Februar 2010, 4:35

Rammstein / Sehnsucht (Australian Tour Edition) (Disc 1)

Benutztes Laufwerk : HL-DT-STDVD-ROM GDR-H30N Adapter: 0 ID: 1

Lesemodus : Sicher
Benutze Accurate Stream : Ja
Audio Puffer abgeschaltet : Ja
Benutze C2 Fehlerinformationen : Nein

Leseoffset Korrektur : 6
Ьberlesen in das Lead-In und Lead-Out : Nein
Fьlle fehlende Offsetsample mit Stille auf : Ja
Lцsche fьhrende und nachfolgende stille Blцcke : Nein
Null Samples gehen in CRC Berechnungen ein : Ja
Benutzte Schnittstelle : Installierte externe ASPI Schnittstelle

Benutztes Ausgabeformat : Interne WAV Routinen
Sampleformat : 44.100 Hz; 16 Bit; Stereo

TOC der ausgelesenen CD

Track | Start | Lдnge | Startsektor | Endsektor
-------------------------------------------------------
1 | 0:00.00 | 4:05.62 | 0 | 18436
2 | 4:05.62 | 4:25.45 | 18437 | 38356
3 | 8:31.32 | 3:47.43 | 38357 | 55424
4 | 12:19.00 | 3:38.25 | 55425 | 71799
5 | 15:57.25 | 3:55.65 | 71800 | 89489
6 | 19:53.15 | 3:23.07 | 89490 | 104721
7 | 23:16.22 | 4:46.53 | 104722 | 126224
8 | 28:03.00 | 4:23.40 | 126225 | 145989
9 | 32:26.40 | 4:24.15 | 145990 | 165804
10 | 36:50.55 | 3:37.27 | 165805 | 182106
11 | 40:28.07 | 3:31.68 | 182107 | 197999
12 | 44:00.00 | 4:45.15 | 198000 | 219389

Bereichsstatus und Fehler

Gewдhlter Bereich

Dateiname K:\Rammstein - Discography\Albums\1997 - Sehnsucht - Australian Tour Edition\Rammstein - Sehnsucht (Australian Tour Edition) (Disc 1).wav

Spitzenpegel 100.0 %
Bereichsqualitдt 100.0 %
Kopie CRC 47442EF7
Kopie OK

Keine Fehler aufgetreten

AccurateRip Ьbersicht

Track 1 akkurat gelesen (Zuversicht 5) [A860CAB9]
Track 2 akkurat gelesen (Zuversicht 5) [640C463F]
Track 3 akkurat gelesen (Zuversicht 5) [1DB49BA2]
Track 4 akkurat gelesen (Zuversicht 5) [D4CD34D9]
Track 5 akkurat gelesen (Zuversicht 5) [9CF53930]
Track 6 akkurat gelesen (Zuversicht 5) [C7340918]
Track 7 akkurat gelesen (Zuversicht 5) [40214695]
Track 8 akkurat gelesen (Zuversicht 5) [A4755789]
Track 9 akkurat gelesen (Zuversicht 5) [FC12BFA5]
Track 10 akkurat gelesen (Zuversicht 5) [9688C7A4]
Track 11 akkurat gelesen (Zuversicht 5) [F007DA9F]
Track 12 akkurat gelesen (Zuversicht 5) [8634402A]

Alle Tracks wurden akkurat gelesen

Ende des Statusreports

Exact Audio Copy V0.99 prebeta 5 from 4. May 2009

EAC Auslese-Logdatei vom 6. Februar 2010, 18:13

Rammstein / Sehnsucht (Australian Tour Edition) (Disc 2)

Benutztes Laufwerk : HL-DT-STDVD-ROM GDR-H30N Adapter: 0 ID: 1

Lesemodus : Sicher
Benutze Accurate Stream : Ja
Audio Puffer abgeschaltet : Ja
Benutze C2 Fehlerinformationen : Nein

Leseoffset Korrektur : 6
Ьberlesen in das Lead-In und Lead-Out : Nein
Fьlle fehlende Offsetsample mit Stille auf : Ja
Lцsche fьhrende und nachfolgende stille Blцcke : Nein
Null Samples gehen in CRC Berechnungen ein : Ja
Benutzte Schnittstelle : Installierte externe ASPI Schnittstelle

Benutztes Ausgabeformat : Interne WAV Routinen
Sampleformat : 44.100 Hz; 16 Bit; Stereo

TOC der ausgelesenen CD

Track | Start | Lдnge | Startsektor | Endsektor
-------------------------------------------------------
1 | 0:00.00 | 3:53.32 | 0 | 17506
2 | 3:53.32 | 5:19.35 | 17507 | 41466
3 | 9:12.67 | 5:14.63 | 41467 | 65079
4 | 14:27.55 | 5:53.60 | 65080 | 91614
5 | 20:21.40 | 5:58.02 | 91615 | 118466
6 | 26:19.42 | 3:30.63 | 118467 | 134279

Bereichsstatus und Fehler

Gewдhlter Bereich

Dateiname K:\Rammstein - Discography\Albums\1997 - Sehnsucht - Australian Tour Edition\Rammstein - Sehnsucht (Australian Tour Edition) (Disc 2).wav

Spitzenpegel 100.0 %
Bereichsqualitдt 100.0 %
Kopie CRC 614B6262
Kopie OK

Keine Fehler aufgetreten

AccurateRip Ьbersicht

Track 1 akkurat gelesen (Zuversicht 5) [7E7FDCD7]
Track 2 akkurat gelesen (Zuversicht 4) [5B52B2D0]
Track 3 akkurat gelesen (Zuversicht 4) [69D83360]
Track 4 akkurat gelesen (Zuversicht 4) [98D26BF4]
Track 5 akkurat gelesen (Zuversicht 4) [9D1C28C6]
Track 6 akkurat gelesen (Zuversicht 4) [09B1D2F6]

Alle Tracks wurden akkurat gelesen

Ende des Statusreports
AUDIOCHECKER v2.0 beta (build 457) - by Dester -
~~~~~~~~~~~~~~~~~~~~~~~~~~~~~~~~~~
-=== DO NOT EDIT THIS FILE! ===-

Путь: ...\1997 - Sehnsucht - Australian Tour Edition

1 -=- Rammstein - Sehnsucht (Australian Tour Edition) (Disc 1).flac -=- MPEG (99%)
2 -=- Rammstein - Sehnsucht (Australian Tour Edition) (Disc 2).flac -=- CDDA (100%)

Сводка 99,50% CDDA

37722788

продолжительность:01:19:08
01. Spiel mit mir [05:22]
02. Bestrafe mich [03:49]
03. Weisses Fleisch [04:45]
04. Sehnsucht [04:25]
05. Asche zu Asche [03:24]
06. Wilder Wein [05:17]
07. Heirate mich [06:26]
08. Du riechst so gut [05:24]
09. Du hast [04:27]
10. Bueck Dich [05:57]
11. Engel [05:57]
12. Rammstein [05:29]
13. Laichzeit [05:14]
14. Wollt ihr das Bett in Flammen sehen? [05:52]
15. Seemann [6:54]
EAC extrae el archivo del registro desde 28. Diciembre 2003, 13:36 para el CD
Rammstein / Live Aus Berlin

Unidad Usada: HL-DT-STCD-RW GCE-8320B Adapter: 1 ID: 1
Modo de Lectura: Seguro sin C2, con Flujo Preciso, sin desactivar Cache
Correcciуn Combinada de Lectura/Escritura del Balance: 0
Leer por encima de la sesiуn inicial y final del CD : No

Usar Formato de Salida: C:\Archivos de programa\Exact Audio Copy\Codecs\MAC.exe (Compresor Monkey's Audio (menor pйrdida))
High Lossless Compression
Opciones adicionales de la Linea de comandos: %l--alt-preset 128%l%h--alt-preset standard%h %s %d

Otras Opciones:
Rellenar muestras pйrdidas del balance con silencios : Si
Eliminar bloques de silencios al principio y final : No
Interfaz ASPI externa instalada

Lнmite erroneo
Seleccionar Lнmite
Nombre de archivo C:\Documents and Settings\Alberto\Escritorio\CDImage.wav

Nivel de pico 100.0 %
Calidad de lнmite 100.0 %
CRC E1659208
Copia realizada

No existen errores

Fin de la informaciуn de estado
AUDIOCHECKER v2.0 beta (build 457) - by Dester -
~~~~~~~~~~~~~~~~~~~~~~~~~~~~~~~~~~
-=== НЕ РЕДАКТИРУЙТЕ ЭТОТ ФАЙЛ! ===-

Путь: ...\1999 - Live aus Berlin

01 -=- Rammstein - Live Aus Berlin.flac -=- CDDA (100%)

249870068

CD 1:
продолжительность:01:01:47
01. Spiel Mit Mir [6:09]
02. Herzeleid [3:58]
03. Bestrafe Mich [3:49]
04. Weisses Fleisch [4:36]
05. Sehnsucht [4:25]
06. Asche Zu Asche [3:25]
07. Wilder Wein [5:57]
08. Klavier [4:50]
09. Heirate Mich [7:47]
10. Du Riechst So Gut [5:26]
11. Du Hast [4:27]
12. Buck Dich [6:00]

CD 2:
продолжительность:00:37:34
01. Engel [6:44]
02. Rammstein [5:42]
03. Tier [3:43]
04. Laichzeit [5:14]
05. Wollt Ihr Das Bett In Flammen Sehen? [6:15]
06. Seemann [9:57]
Exact Audio Copy V0.99 prebeta 5 from 4. May 2009

EAC Auslese-Logdatei vom 6. Februar 2010, 19:15

Rammstein / Live Aus Berlin (CD1)

Benutztes Laufwerk : HL-DT-STDVDRAM GSA-H42N Adapter: 0 ID: 0

Lesemodus : Sicher
Benutze Accurate Stream : Ja
Audio Puffer abgeschaltet : Ja
Benutze C2 Fehlerinformationen : Nein

Leseoffset Korrektur : 667
Ьberlesen in das Lead-In und Lead-Out : Nein
Fьlle fehlende Offsetsample mit Stille auf : Ja
Lцsche fьhrende und nachfolgende stille Blцcke : Nein
Null Samples gehen in CRC Berechnungen ein : Ja
Benutzte Schnittstelle : Installierte externe ASPI Schnittstelle

Benutztes Ausgabeformat : Interne WAV Routinen
Sampleformat : 44.100 Hz; 16 Bit; Stereo

TOC der ausgelesenen CD

Track | Start | Lдnge | Startsektor | Endsektor
-------------------------------------------------------
1 | 0:58.58 | 6:09.00 | 4408 | 32082
2 | 7:07.58 | 3:57.67 | 32083 | 49924
3 | 11:05.50 | 3:48.65 | 49925 | 67089
4 | 14:54.40 | 4:36.33 | 67090 | 87822
5 | 19:30.73 | 4:25.10 | 87823 | 107707
6 | 23:56.08 | 3:24.67 | 107708 | 123074
7 | 27:21.00 | 5:57.00 | 123075 | 149849
8 | 33:18.00 | 4:50.00 | 149850 | 171599
9 | 38:08.00 | 7:47.10 | 171600 | 206634
10 | 45:55.10 | 5:25.43 | 206635 | 231052
11 | 51:20.53 | 4:27.00 | 231053 | 251077
12 | 55:47.53 | 6:00.17 | 251078 | 278094

Bereichsstatus und Fehler

Gewдhlter Bereich

Dateiname K:\Rammstein - Discography\Albums\1999 - Live aus Berlin (Limited Edition)\Rammstein - Live Aus Berlin (CD1).wav

Spitzenpegel 99.9 %
Bereichsqualitдt 100.0 %
Test CRC 63F055B4
Kopie CRC 63F055B4
Kopie OK

Keine Fehler aufgetreten

AccurateRip Ьbersicht

Track 1 akkurat gelesen (Zuversicht 38) [C080F577]
Track 2 akkurat gelesen (Zuversicht 39) [B9515BD6]
Track 3 akkurat gelesen (Zuversicht 38) [879D5FBC]
Track 4 akkurat gelesen (Zuversicht 39) [9C0F2A4F]
Track 5 akkurat gelesen (Zuversicht 38) [0C113870]
Track 6 akkurat gelesen (Zuversicht 39) [31E8EE11]
Track 7 akkurat gelesen (Zuversicht 39) [8FB47E78]
Track 8 akkurat gelesen (Zuversicht 38) [AD122DB5]
Track 9 akkurat gelesen (Zuversicht 38) [C72598E0]
Track 10 akkurat gelesen (Zuversicht 39) [21E88B24]
Track 11 akkurat gelesen (Zuversicht 38) [72165225]
Track 12 akkurat gelesen (Zuversicht 38) [C688E512]

Alle Tracks wurden akkurat gelesen

Ende des Statusreports

Exact Audio Copy V0.99 prebeta 5 from 4. May 2009

EAC Auslese-Logdatei vom 6. Februar 2010, 20:53

Rammstein / Live Aus Berlin (CD2)

Benutztes Laufwerk : HL-DT-STDVDRAM GSA-H42N Adapter: 0 ID: 0

Lesemodus : Sicher
Benutze Accurate Stream : Ja
Audio Puffer abgeschaltet : Ja
Benutze C2 Fehlerinformationen : Nein

Leseoffset Korrektur : 667
Ьberlesen in das Lead-In und Lead-Out : Nein
Fьlle fehlende Offsetsample mit Stille auf : Ja
Lцsche fьhrende und nachfolgende stille Blцcke : Nein
Null Samples gehen in CRC Berechnungen ein : Ja
Benutzte Schnittstelle : Installierte externe ASPI Schnittstelle

Benutztes Ausgabeformat : Interne WAV Routinen
Sampleformat : 44.100 Hz; 16 Bit; Stereo

TOC der ausgelesenen CD

Track | Start | Lдnge | Startsektor | Endsektor
-------------------------------------------------------
1 | 0:00.00 | 6:43.43 | 0 | 30267
2 | 6:43.43 | 5:42.37 | 30268 | 55954
3 | 12:26.05 | 3:42.40 | 55955 | 72644
4 | 16:08.45 | 5:13.55 | 72645 | 96174
5 | 21:22.25 | 6:15.15 | 96175 | 124314
6 | 27:37.40 | 9:56.55 | 124315 | 169069
7 | 40:06.20 | 23:34.01 | 180470 | 286520

Bereichsstatus und Fehler

Gewдhlter Bereich

Dateiname K:\Rammstein - Discography\Albums\1999 - Live aus Berlin (Limited Edition)\Rammstein - Live Aus Berlin (CD2).wav

Spitzenpegel 99.9 %
Bereichsqualitдt 100.0 %
Test CRC 9BBD9F96
Kopie CRC 9BBD9F96
Kopie OK

Keine Fehler aufgetreten

AccurateRip Ьbersicht

Track 1 akkurat gelesen (Zuversicht 33) [0F79CCA9]
Track 2 akkurat gelesen (Zuversicht 34) [4DFCF7FE]
Track 3 akkurat gelesen (Zuversicht 34) [422BBA2F]
Track 4 akkurat gelesen (Zuversicht 35) [A7CE95BD]
Track 5 akkurat gelesen (Zuversicht 34) [B5BF2992]
Track 6 akkurat gelesen (Zuversicht 34) [01FAC900]

Alle Tracks wurden akkurat gelesen

Ende des Statusreports
AUDIOCHECKER v2.0 beta (build 457) - by Dester -
~~~~~~~~~~~~~~~~~~~~~~~~~~~~~~~~~~
-=== НЕ РЕДАКТИРУЙТЕ ЭТОТ ФАЙЛ! ===-

Путь: ...\1999 - Live aus Berlin (Limited Edition)

01 -=- Rammstein - Live Aus Berlin (CD1).flac -=- CDDA (100%)
02 -=- Rammstein - Live Aus Berlin (CD2).flac -=- CDDA (100%)

Сводка 100,00% CDDA

190485908

CD 1:
продолжительность:00:45:09
01. Mein Herz Brennt 04:39
02. Links 2 3 4 03:36
03. Sonne 04:32
04. Ich Will 03:37
05. Feuer Frei! 03:11
06. Mutter 04:32
07. Spieluhr 04:46
08. Zwitter 04:17
09. Rein Raus 03:09
10. Adios 03:49
11. Nebel 04:54

Bonus Live CD:
продолжительность:00:19:02
01. Ich Will 03:57
02. Links 2 3 4 04:54
03. Sonne 04:42
04. Spieluhr 05:27
Exact Audio Copy V0.99 prebeta 3 from 28. July 2007

EAC Auslese-Logdatei vom 11. Juli 2008, 2:37

Rammstein / Mutter

Benutztes Laufwerk : SONY DVD RW DW-Q31A Adapter: 0 ID: 0

Lesemodus : Sicher
Benutze Accurate Stream : Ja
Audio Puffer abgeschaltet : Ja
Benutze C2 Fehlerinformationen : Nein

Leseoffset Korrektur : 6
Ьberlesen in das Lead-In und Lead-Out : Nein
Fьlle fehlende Offsetsample mit Stille auf : Ja
Lцsche fьhrende und nachfolgende stille Blцcke : Nein
Null Samples gehen in CRC Berechnungen ein : Ja
Benutzte Schnittstelle : Installierte externe ASPI Schnittstelle

Benutztes Ausgabeformat : Interne WAV Routinen
Sampleformat : 44.100 Hz; 16 Bit; Stereo

TOC der ausgelesenen CD

Track | Start | Lдnge | Startsektor | Endsektor
-------------------------------------------------------
1 | 0:00.00 | 4:39.67 | 0 | 20991
2 | 4:39.67 | 3:36.55 | 20992 | 37246
3 | 8:16.47 | 4:32.73 | 37247 | 57719
4 | 12:49.45 | 3:37.45 | 57720 | 74039
5 | 16:27.15 | 3:11.32 | 74040 | 88396
6 | 19:38.47 | 4:32.45 | 88397 | 108841
7 | 24:11.17 | 4:46.13 | 108842 | 130304
8 | 28:57.30 | 4:17.37 | 130305 | 149616
9 | 33:14.67 | 3:09.73 | 149617 | 163864
10 | 36:24.65 | 3:49.72 | 163865 | 181111
11 | 40:14.62 | 4:54.45 | 181112 | 203206

Bereichsstatus und Fehler

Gewдhlter Bereich

Dateiname C:\Rammstein - Complete Discography\Albums\2001 - Mutter (Limited Edition Tour)\Rammstein - Mutter.wav

Spitzenpegel 100.0 %
Bereichsqualitдt 100.0 %
Kopie CRC 7B0FCCFD
Kopie OK

Keine Fehler aufgetreten

AccurateRip Ьbersicht

Track 1 akkurat gelesen (Zuversicht 112) [D554F9F7]
Track 2 akkurat gelesen (Zuversicht 113) [C180500B]
Track 3 akkurat gelesen (Zuversicht 113) [BF26A9A0]
Track 4 akkurat gelesen (Zuversicht 110) [5FECBB28]
Track 5 akkurat gelesen (Zuversicht 111) [D1948DE3]
Track 6 akkurat gelesen (Zuversicht 111) [D9DE8768]
Track 7 akkurat gelesen (Zuversicht 112) [713705A4]
Track 8 akkurat gelesen (Zuversicht 112) [AA86236B]
Track 9 akkurat gelesen (Zuversicht 111) [0D875F64]
Track 10 akkurat gelesen (Zuversicht 112) [A167AC73]
Track 11 akkurat gelesen (Zuversicht 112) [59C249A4]

Alle Tracks wurden akkurat gelesen

Ende des Statusreports

Exact Audio Copy V0.99 prebeta 3 from 28. July 2007

EAC Auslese-Logdatei vom 11. Juli 2008, 2:14

Rammstein / Mutter (Bonus Live Cd)

Benutztes Laufwerk : SONY DVD RW DW-Q31A Adapter: 0 ID: 0

Lesemodus : Sicher
Benutze Accurate Stream : Ja
Audio Puffer abgeschaltet : Ja
Benutze C2 Fehlerinformationen : Nein

Leseoffset Korrektur : 6
Ьberlesen in das Lead-In und Lead-Out : Nein
Fьlle fehlende Offsetsample mit Stille auf : Ja
Lцsche fьhrende und nachfolgende stille Blцcke : Nein
Null Samples gehen in CRC Berechnungen ein : Ja
Benutzte Schnittstelle : Installierte externe ASPI Schnittstelle

Benutztes Ausgabeformat : Interne WAV Routinen
Sampleformat : 44.100 Hz; 16 Bit; Stereo

TOC der ausgelesenen CD

Track | Start | Lдnge | Startsektor | Endsektor
-------------------------------------------------------
1 | 0:00.00 | 3:57.42 | 0 | 17816
2 | 3:57.42 | 4:54.70 | 17817 | 39936
3 | 8:52.37 | 4:42.45 | 39937 | 61131
4 | 13:35.07 | 5:27.60 | 61132 | 85716

Bereichsstatus und Fehler

Gewдhlter Bereich

Dateiname C:\Rammstein - Complete Discography\Albums\2001 - Mutter (Limited Edition Tour)\Rammstein - Mutter (Bonus Live Cd).wav

Spitzenpegel 98.8 %
Bereichsqualitдt 100.0 %
Kopie CRC AF1F2AA1
Kopie OK

Keine Fehler aufgetreten

AccurateRip Ьbersicht

Track 1 akkurat gelesen (Zuversicht 9) [68F399E7]
Track 2 akkurat gelesen (Zuversicht 9) [93B3BCBB]
Track 3 akkurat gelesen (Zuversicht 9) [DB54C03B]
Track 4 akkurat gelesen (Zuversicht 8) [230A5B79]

Alle Tracks wurden akkurat gelesen

Ende des Statusreports
AUDIOCHECKER v2.0 beta (build 457) - by Dester -
~~~~~~~~~~~~~~~~~~~~~~~~~~~~~~~~~~
-=== DO NOT EDIT THIS FILE! ===-

Путь: ...\2001 - Mutter (Limited Tour Edition)

1 -=- Rammstein - Mutter (Bonus Live Cd).flac -=- CDDA (99%)
2 -=- Rammstein - Mutter.flac -=- CDDA (100%)

Сводка 99,50% CDDA

170974596

продолжительность:00:48:28
01. Reise, Reise 04:11
02. Mein Teil 04:32
03. Dalai Lama 05:38
04. Keine Lust 03:42
05. Los 04:25
06. Amerika 03:46
07. Moskau 04:16
08. Morgenstern 03:59
09. Stein Um Stein 03:56
10. Ohne Dich 04:32
11. Amour 04:50
Exact Audio Copy V0.99 prebeta 5 from 4. May 2009

EAC Auslese-Logdatei vom 6. Februar 2010, 21:32

Rammstein / Reise, Reise

Benutztes Laufwerk : HL-DT-STDVDRAM GSA-H42N Adapter: 0 ID: 0

Lesemodus : Sicher
Benutze Accurate Stream : Ja
Audio Puffer abgeschaltet : Ja
Benutze C2 Fehlerinformationen : Nein

Leseoffset Korrektur : 667
Ьberlesen in das Lead-In und Lead-Out : Nein
Fьlle fehlende Offsetsample mit Stille auf : Ja
Lцsche fьhrende und nachfolgende stille Blцcke : Nein
Null Samples gehen in CRC Berechnungen ein : Ja
Benutzte Schnittstelle : Installierte externe ASPI Schnittstelle

Benutztes Ausgabeformat : Interne WAV Routinen
Sampleformat : 44.100 Hz; 16 Bit; Stereo

TOC der ausgelesenen CD

Track | Start | Lдnge | Startsektor | Endsektor
-------------------------------------------------------
1 | 0:36.01 | 4:11.12 | 2701 | 21537
2 | 4:47.13 | 4:32.30 | 21538 | 41967
3 | 9:19.43 | 5:38.37 | 41968 | 67354
4 | 14:58.05 | 3:42.70 | 67355 | 84074
5 | 18:41.00 | 4:25.09 | 84075 | 103958
6 | 23:06.09 | 3:46.57 | 103959 | 120965
7 | 26:52.66 | 4:16.23 | 120966 | 140188
8 | 31:09.14 | 3:59.66 | 140189 | 158179
9 | 35:09.05 | 3:56.22 | 158180 | 175901
10 | 39:05.27 | 4:32.17 | 175902 | 196318
11 | 43:37.44 | 4:50.67 | 196319 | 218135

Bereichsstatus und Fehler

Gewдhlter Bereich

Dateiname K:\Rammstein - Discography\Albums\2004 - Reise,Reise\Rammstein - Reise, Reise.wav

Spitzenpegel 99.9 %
Bereichsqualitдt 100.0 %
Test CRC C559B98A
Kopie CRC C559B98A
Kopie OK

Keine Fehler aufgetreten

AccurateRip Ьbersicht

Track 1 akkurat gelesen (Zuversicht 200) [C08C68C4]
Track 2 akkurat gelesen (Zuversicht 200) [397A821A]
Track 3 akkurat gelesen (Zuversicht 200) [0E0FB935]
Track 4 akkurat gelesen (Zuversicht 200) [CA831470]
Track 5 akkurat gelesen (Zuversicht 200) [373DCF6D]
Track 6 akkurat gelesen (Zuversicht 200) [8C939BEC]
Track 7 akkurat gelesen (Zuversicht 200) [74E4B929]
Track 8 akkurat gelesen (Zuversicht 200) [D4A0F07A]
Track 9 akkurat gelesen (Zuversicht 200) [B36B414E]
Track 10 akkurat gelesen (Zuversicht 200) [387FDAB0]
Track 11 akkurat gelesen (Zuversicht 200) [D125795F]

Alle Tracks wurden akkurat gelesen

Ende des Statusreports
AUDIOCHECKER v2.0 beta (build 457) - by Dester -
~~~~~~~~~~~~~~~~~~~~~~~~~~~~~~~~~~
-=== НЕ РЕДАКТИРУЙТЕ ЭТОТ ФАЙЛ! ===-

Путь: ...\2004 - Reise,Reise

01 -=- Rammstein - Reise, Reise.flac -=- CDDA (100%)

228227892

продолжительность:00:48:06
01. Benzin 03:46
02. Mann Gegen Mann 03:50
03. Rosenrot 03:54
04. Spring 05:24
05. Wo Bist Du 03:55
06. Stirb Nicht Vor Mir (Don't Die Before I Do) 04:05
07. Zerstoren 05:28
08. Hilf Mir 04:43
09. Te Quiero Puta! 03:55
10. Feuer Und Wasser 05:17
11. Ein Lied 03:43
Exact Audio Copy V0.99 prebeta 3 from 28. July 2007

EAC Auslese-Logdatei vom 11. Juli 2008, 1:11

Rammstein / Rosenrot - Limited Edition

Benutztes Laufwerk : SONY DVD RW DW-Q31A Adapter: 0 ID: 0

Lesemodus : Sicher
Benutze Accurate Stream : Ja
Audio Puffer abgeschaltet : Ja
Benutze C2 Fehlerinformationen : Nein

Leseoffset Korrektur : 6
Ьberlesen in das Lead-In und Lead-Out : Nein
Fьlle fehlende Offsetsample mit Stille auf : Ja
Lцsche fьhrende und nachfolgende stille Blцcke : Nein
Null Samples gehen in CRC Berechnungen ein : Ja
Benutzte Schnittstelle : Installierte externe ASPI Schnittstelle

Benutztes Ausgabeformat : Interne WAV Routinen
Sampleformat : 44.100 Hz; 16 Bit; Stereo

TOC der ausgelesenen CD

Track | Start | Lдnge | Startsektor | Endsektor
-------------------------------------------------------
1 | 0:00.00 | 3:46.00 | 0 | 16949
2 | 3:46.00 | 3:50.42 | 16950 | 34241
3 | 7:36.42 | 3:54.53 | 34242 | 51844
4 | 11:31.20 | 5:24.50 | 51845 | 76194
5 | 16:55.70 | 3:55.27 | 76195 | 93846
6 | 20:51.22 | 4:05.20 | 93847 | 112241
7 | 24:56.42 | 5:28.70 | 112242 | 136911
8 | 30:25.37 | 4:43.66 | 136912 | 158202
9 | 35:09.28 | 3:55.47 | 158203 | 175874
10 | 39:05.00 | 5:17.55 | 175875 | 199704
11 | 44:22.55 | 3:43.36 | 199705 | 216465

Bereichsstatus und Fehler

Gewдhlter Bereich

Dateiname C:\Rammstein - Complete Discography\Albums\2005 - Rosenrot\Rammstein - Rosenrot - Limited Edition.wav

Spitzenpegel 99.9 %
Bereichsqualitдt 100.0 %
Kopie CRC 1DA19E91
Kopie OK

Keine Fehler aufgetreten

AccurateRip Ьbersicht

Track 1 akkurat gelesen (Zuversicht 140) [4AE29A48]
Track 2 akkurat gelesen (Zuversicht 140) [4EBD7C25]
Track 3 akkurat gelesen (Zuversicht 137) [F2BD323E]
Track 4 akkurat gelesen (Zuversicht 138) [EDAC905C]
Track 5 akkurat gelesen (Zuversicht 141) [506D5818]
Track 6 akkurat gelesen (Zuversicht 139) [9B6C5A67]
Track 7 akkurat gelesen (Zuversicht 138) [58502A72]
Track 8 akkurat gelesen (Zuversicht 138) [9BC8298A]
Track 9 akkurat gelesen (Zuversicht 140) [2BD6257D]
Track 10 akkurat gelesen (Zuversicht 140) [D135465A]
Track 11 akkurat gelesen (Zuversicht 139) [491849B9]

Alle Tracks wurden akkurat gelesen

Ende des Statusreports
AUDIOCHECKER v2.0 beta (build 457) - by Dester -
~~~~~~~~~~~~~~~~~~~~~~~~~~~~~~~~~~
-=== НЕ РЕДАКТИРУЙТЕ ЭТОТ ФАЙЛ! ===-

Путь: ...\2005 - Rosenrot

01 -=- Rammstein - Rosenrot - Limited Edition.flac -=- CDDA (100%)

16205716

CD 1:
продолжительность:00:48:00
01. Intro 02:03
02. Reise, Reise 05:31
03. Links 2 3 4 04:50
04. Keine Lust 03:52
05. Feuer frei! 03:31
06. Asche zu Asche 04:05
07. Morgenstern 04:53
08. Mein Teil 06:37
09. Stein um Stein 05:26
10. Los 07:07

CD 2:
продолжительность:00:57:19
01. Du Riechst So Gut 05:50
02. Benzin 04:05
03. Du Hast 04:20
04. Sehnsucht 04:22
05. Amerika 06:19
06. Rammstein 05:12
07. Sonne 04:51
08. Ich Will 04:20
09. Ohne Dich 05:08
10. Stripped 08:15
11. Outro 04:32
Exact Audio Copy V0.99 prebeta 3 from 28. July 2007

EAC Auslese-Logdatei vom 11. Juli 2008, 9:03

Rammstein / Voelkerball (Limited Photobook CD1)

Benutztes Laufwerk : SONY DVD RW DW-Q31A Adapter: 0 ID: 0

Lesemodus : Sicher
Benutze Accurate Stream : Ja
Audio Puffer abgeschaltet : Ja
Benutze C2 Fehlerinformationen : Nein

Leseoffset Korrektur : 6
Ьberlesen in das Lead-In und Lead-Out : Nein
Fьlle fehlende Offsetsample mit Stille auf : Ja
Lцsche fьhrende und nachfolgende stille Blцcke : Nein
Null Samples gehen in CRC Berechnungen ein : Ja
Benutzte Schnittstelle : Installierte externe ASPI Schnittstelle

Benutztes Ausgabeformat : Interne WAV Routinen
Sampleformat : 44.100 Hz; 16 Bit; Stereo

TOC der ausgelesenen CD

Track | Start | Lдnge | Startsektor | Endsektor
-------------------------------------------------------
1 | 0:00.00 | 2:03.69 | 0 | 9293
2 | 2:03.69 | 5:31.04 | 9294 | 34122
3 | 7:34.73 | 4:50.46 | 34123 | 55918
4 | 12:25.44 | 3:52.34 | 55919 | 73352
5 | 16:18.03 | 3:31.70 | 73353 | 89247
6 | 19:49.73 | 4:05.65 | 89248 | 107687
7 | 23:55.63 | 4:53.03 | 107688 | 129665
8 | 28:48.66 | 6:37.64 | 129666 | 159504
9 | 35:26.55 | 5:26.60 | 159505 | 184014
10 | 40:53.40 | 7:07.01 | 184015 | 216040

Bereichsstatus und Fehler

Gewдhlter Bereich

Dateiname C:\Rammstein - Complete Discography\Albums\2006 - Vцlkerball (Limited Edition)\Rammstein - Vцlkerball (Limited Photobook) CD1.wav

Spitzenpegel 98.8 %
Bereichsqualitдt 100.0 %
Kopie CRC 0375F09F
Kopie OK

Keine Fehler aufgetreten

AccurateRip Ьbersicht

Track 1 akkurat gelesen (Zuversicht 8) [0711A82A]
Track 2 akkurat gelesen (Zuversicht 8) [DC532CA8]
Track 3 akkurat gelesen (Zuversicht 8) [338FAFCD]
Track 4 akkurat gelesen (Zuversicht 8) [BC624D05]
Track 5 akkurat gelesen (Zuversicht 8) [E2869C24]
Track 6 akkurat gelesen (Zuversicht 8) [FE2490C8]
Track 7 akkurat gelesen (Zuversicht 8) [9924C805]
Track 8 akkurat gelesen (Zuversicht 8) [A53180F3]
Track 9 akkurat gelesen (Zuversicht 8) [94A29772]
Track 10 akkurat gelesen (Zuversicht 8) [DC781E2B]

Alle Tracks wurden akkurat gelesen

Ende des Statusreports

Exact Audio Copy V0.99 prebeta 3 from 28. July 2007

EAC Auslese-Logdatei vom 11. Juli 2008, 9:30

Rammstein / Voelkerball (Limited Photobook CD2)

Benutztes Laufwerk : SONY DVD RW DW-Q31A Adapter: 0 ID: 0

Lesemodus : Sicher
Benutze Accurate Stream : Ja
Audio Puffer abgeschaltet : Ja
Benutze C2 Fehlerinformationen : Nein

Leseoffset Korrektur : 6
Ьberlesen in das Lead-In und Lead-Out : Nein
Fьlle fehlende Offsetsample mit Stille auf : Ja
Lцsche fьhrende und nachfolgende stille Blцcke : Nein
Null Samples gehen in CRC Berechnungen ein : Ja
Benutzte Schnittstelle : Installierte externe ASPI Schnittstelle

Benutztes Ausgabeformat : Interne WAV Routinen
Sampleformat : 44.100 Hz; 16 Bit; Stereo

TOC der ausgelesenen CD

Track | Start | Lдnge | Startsektor | Endsektor
-------------------------------------------------------
1 | 0:00.00 | 5:50.16 | 0 | 26265
2 | 5:50.16 | 4:05.07 | 26266 | 44647
3 | 9:55.23 | 4:20.52 | 44648 | 64199
4 | 14:16.00 | 4:22.55 | 64200 | 83904
5 | 18:38.55 | 6:19.63 | 83905 | 112392
6 | 24:58.43 | 5:12.24 | 112393 | 135816
7 | 30:10.67 | 4:51.35 | 135817 | 157676
8 | 35:02.27 | 4:20.64 | 157677 | 177240
9 | 39:23.16 | 5:08.31 | 177241 | 200371
10 | 44:31.47 | 8:15.48 | 200372 | 237544
11 | 52:47.20 | 4:32.12 | 237545 | 257956

Bereichsstatus und Fehler

Gewдhlter Bereich

Dateiname C:\Rammstein - Complete Discography\Albums\2006 - Vцlkerball (Limited Edition)\Rammstein - Vцlkerball (Limited Photobook CD2).wav

Spitzenpegel 98.8 %
Bereichsqualitдt 100.0 %
Kopie CRC D4AE33F2
Kopie OK

Keine Fehler aufgetreten

AccurateRip Ьbersicht

Track 1 akkurat gelesen (Zuversicht 5) [88597D3D]
Track 2 akkurat gelesen (Zuversicht 5) [1951D23D]
Track 3 akkurat gelesen (Zuversicht 5) [A9887910]
Track 4 akkurat gelesen (Zuversicht 5) [81769073]
Track 5 akkurat gelesen (Zuversicht 5) [57F0A428]
Track 6 akkurat gelesen (Zuversicht 5) [8E3D17CE]
Track 7 akkurat gelesen (Zuversicht 5) [7DE3C33D]
Track 8 akkurat gelesen (Zuversicht 5) [23DCDC69]
Track 9 akkurat gelesen (Zuversicht 5) [F0BBF3BF]
Track 10 akkurat gelesen (Zuversicht 5) [705D0B26]
Track 11 akkurat gelesen (Zuversicht 5) [BE46D17D]

Alle Tracks wurden akkurat gelesen

Ende des Statusreports
AUDIOCHECKER v2.0 beta (build 457) - by Dester -
~~~~~~~~~~~~~~~~~~~~~~~~~~~~~~~~~~
-=== НЕ РЕДАКТИРУЙТЕ ЭТОТ ФАЙЛ! ===-

Путь: ...\2006 - Voelkerball (Limited Edition)

01 -=- Rammstein - Voelkerball (Limited Photobook CD1).flac -=- CDDA (100%)
02 -=- Rammstein - Voelkerball (Limited Photobook CD2).flac -=- CDDA (100%)

Сводка 100,00% CDDA

148715764

CD 1:
продолжительность:00:46:06
01. Rammlied 05:18
02. Ich tu dir weh 05:01
03. Waidmanns Heil 03:32
04. Haifisch 03:44
05. B******** 04:14
06. Fruhling in Paris 04:44
07. Wiener Blut 03:52
08. Pussy 03:59
09. Liebe ist fur alle da 03:28
10. Mehr 04:10
11. Roter Sand 03:59

CD 2:

продолжительность:00:22:15
01. Fuhre Mich 04:33
02. Donaukinder 05:17
03. Halt 04:20
04. Roter Sand (Orchester Version) 04:07
05. Liese 03:55
Exact Audio Copy V0.99 prebeta 5 from 4. May 2009

EAC Auslese-Logdatei vom 13. November 2009, 0:52

Rammstein / Liebe ist fuer alle da (CD 1)

Benutztes Laufwerk : HL-DT-STDVD-ROM GDR-H30N Adapter: 0 ID: 1

Lesemodus : Sicher
Benutze Accurate Stream : Ja
Audio Puffer abgeschaltet : Ja
Benutze C2 Fehlerinformationen : Nein

Leseoffset Korrektur : 6
Ьberlesen in das Lead-In und Lead-Out : Nein
Fьlle fehlende Offsetsample mit Stille auf : Ja
Lцsche fьhrende und nachfolgende stille Blцcke : Nein
Null Samples gehen in CRC Berechnungen ein : Ja
Benutzte Schnittstelle : Installierte externe ASPI Schnittstelle

Benutztes Ausgabeformat : Interne WAV Routinen
Sampleformat : 44.100 Hz; 16 Bit; Stereo

TOC der ausgelesenen CD

Track | Start | Lдnge | Startsektor | Endsektor
-------------------------------------------------------
1 | 0:00.00 | 5:18.50 | 0 | 23899
2 | 5:18.50 | 5:01.64 | 23900 | 46538
3 | 10:20.39 | 3:32.60 | 46539 | 62498
4 | 13:53.24 | 3:44.68 | 62499 | 79366
5 | 17:38.17 | 4:14.01 | 79367 | 98417
6 | 21:52.18 | 4:44.69 | 98418 | 119786
7 | 26:37.12 | 3:52.09 | 119787 | 137195
8 | 30:29.21 | 3:59.06 | 137196 | 155126
9 | 34:28.27 | 3:28.23 | 155127 | 170749
10 | 37:56.50 | 4:10.39 | 170750 | 189538
11 | 42:07.14 | 3:59.00 | 189539 | 207463

Bereichsstatus und Fehler

Gewдhlter Bereich

Dateiname K:\Rammstein - Discography\Albums\2009 - Liebe ist fuer alle da (Special Edition)\Rammstein - Liebe ist fuer alle da (CD 1).wav

Spitzenpegel 99.9 %
Bereichsqualitдt 100.0 %
Kopie CRC 4DCFACF2
Kopie OK

Keine Fehler aufgetreten

AccurateRip Ьbersicht

Track 1 nicht in Datenbank enthalten
Track 2 nicht in Datenbank enthalten
Track 3 nicht in Datenbank enthalten
Track 4 nicht in Datenbank enthalten
Track 5 nicht in Datenbank enthalten
Track 6 nicht in Datenbank enthalten
Track 7 nicht in Datenbank enthalten
Track 8 nicht in Datenbank enthalten
Track 9 nicht in Datenbank enthalten
Track 10 nicht in Datenbank enthalten
Track 11 nicht in Datenbank enthalten

Keiner der Tracks ist in der AccurateRip Datenbank vorhanden

Ende des Statusreports

Exact Audio Copy V0.99 prebeta 5 from 4. May 2009

EAC Auslese-Logdatei vom 13. November 2009, 0:58

Rammstein / Liebe ist fuer alle da (CD 2)

Benutztes Laufwerk : HL-DT-STDVD-ROM GDR-H30N Adapter: 0 ID: 1

Lesemodus : Sicher
Benutze Accurate Stream : Ja
Audio Puffer abgeschaltet : Ja
Benutze C2 Fehlerinformationen : Nein

Leseoffset Korrektur : 6
Ьberlesen in das Lead-In und Lead-Out : Nein
Fьlle fehlende Offsetsample mit Stille auf : Ja
Lцsche fьhrende und nachfolgende stille Blцcke : Nein
Null Samples gehen in CRC Berechnungen ein : Ja
Benutzte Schnittstelle : Installierte externe ASPI Schnittstelle

Benutztes Ausgabeformat : Interne WAV Routinen
Sampleformat : 44.100 Hz; 16 Bit; Stereo

TOC der ausgelesenen CD

Track | Start | Lдnge | Startsektor | Endsektor
-------------------------------------------------------
1 | 0:00.00 | 4:33.14 | 0 | 20488
2 | 4:33.14 | 5:17.73 | 20489 | 44336
3 | 9:51.12 | 4:20.70 | 44337 | 63906
4 | 14:12.07 | 4:07.58 | 63907 | 82489
5 | 18:19.65 | 3:55.43 | 82490 | 100157

Bereichsstatus und Fehler

Gewдhlter Bereich

Dateiname K:\Rammstein - Discography\Albums\2009 - Liebe ist fuer alle da (Special Edition)\Rammstein - Liebe ist fuer alle da (CD 2).wav

Spitzenpegel 99.9 %
Bereichsqualitдt 100.0 %
Kopie CRC FB157BB9
Kopie OK

Keine Fehler aufgetreten

AccurateRip Ьbersicht

Track 1 nicht in Datenbank enthalten
Track 2 nicht in Datenbank enthalten
Track 3 nicht in Datenbank enthalten
Track 4 nicht in Datenbank enthalten
Track 5 nicht in Datenbank enthalten

Keiner der Tracks ist in der AccurateRip Datenbank vorhanden

Ende des Statusreports
AUDIOCHECKER v2.0 beta (build 457) - by Dester -
~~~~~~~~~~~~~~~~~~~~~~~~~~~~~~~~~~
-=== НЕ РЕДАКТИРУЙТЕ ЭТОТ ФАЙЛ! ===-

Путь: ...\2009 - Liebe ist fuer alle da (Special Edition)

01 -=- Rammstein - Liebe ist fuer alle da (CD 1).flac -=- CDDA (99%)
02 -=- Rammstein - Liebe ist fuer alle da (CD 2).flac -=- CDDA (100%)

Сводка 99,50% CDDA

94522676

продолжительность: 00:41:08
01. Rammlied 05:18
02. Ich Tu Dir Weh 00:04
03. Waidmanns Heil 03:32
04. Haifisch 03:44
05. B******** 04:14
06. Fruhling In Paris 04:44
07. Wiener Blut 03:52
08. Pussy 03:59
09. Liebe Ist Fur Alle Da 03:28
10. Mehr 04:10
11. Roter Sand 03:59[/b]
Exact Audio Copy V0.99 prebeta 5 from 4. May 2009

EAC Auslese-Logdatei vom 20. Februar 2010, 17:42

Rammstein / Liebe Ist Fuer Alle Da

Benutztes Laufwerk : HL-DT-STDVD-ROM GDR-H30N Adapter: 0 ID: 1

Lesemodus : Sicher
Benutze Accurate Stream : Ja
Audio Puffer abgeschaltet : Ja
Benutze C2 Fehlerinformationen : Nein

Leseoffset Korrektur : 6
Ьberlesen in das Lead-In und Lead-Out : Nein
Fьlle fehlende Offsetsample mit Stille auf : Ja
Lцsche fьhrende und nachfolgende stille Blцcke : Nein
Null Samples gehen in CRC Berechnungen ein : Ja
Benutzte Schnittstelle : Installierte externe ASPI Schnittstelle

Benutztes Ausgabeformat : Interne WAV Routinen
Sampleformat : 44.100 Hz; 16 Bit; Stereo

TOC der ausgelesenen CD

Track | Start | Lдnge | Startsektor | Endsektor
-------------------------------------------------------
1 | 0:00.00 | 5:18.50 | 0 | 23899
2 | 5:18.50 | 0:04.00 | 23900 | 24199
3 | 5:22.50 | 3:32.60 | 24200 | 40159
4 | 8:55.35 | 3:44.68 | 40160 | 57027
5 | 12:40.28 | 4:14.02 | 57028 | 76079
6 | 16:54.30 | 4:44.68 | 76080 | 97447
7 | 21:39.23 | 3:52.09 | 97448 | 114856
8 | 25:31.32 | 3:59.07 | 114857 | 132788
9 | 29:30.39 | 3:28.22 | 132789 | 148410
10 | 32:58.61 | 4:10.40 | 148411 | 167200
11 | 37:09.26 | 3:59.00 | 167201 | 185125

Bereichsstatus und Fehler

Gewдhlter Bereich

Dateiname K:\Rammstein - Discography\Albums\2009 - Liebe ist fuer alle da (New Version)\Rammstein - Liebe Ist Fьr Alle Da.wav

Spitzenpegel 99.9 %
Bereichsqualitдt 100.0 %
Kopie CRC 9675A9D2
Kopie OK

Keine Fehler aufgetreten

AccurateRip Ьbersicht

Track 1 akkurat gelesen (Zuversicht 15) [8F786C41]
Track 2 nicht in Datenbank enthalten
Track 3 akkurat gelesen (Zuversicht 15) [FA423418]
Track 4 akkurat gelesen (Zuversicht 15) [28108C44]
Track 5 akkurat gelesen (Zuversicht 15) [9058628F]
Track 6 akkurat gelesen (Zuversicht 15) [4E881623]
Track 7 akkurat gelesen (Zuversicht 15) [23D1420C]
Track 8 akkurat gelesen (Zuversicht 15) [A7696EBA]
Track 9 akkurat gelesen (Zuversicht 15) [0E676737]
Track 10 akkurat gelesen (Zuversicht 15) [59E5A2E5]
Track 11 akkurat gelesen (Zuversicht 15) [7512C664]

10 Track(s) akkurat gelesen
1 Track(s) nicht in der AccurateRip Datenbank vorhanden

Einige Tracks konnten nicht als akkurat verifiziert werden

Ende des Statusreports
AUDIOCHECKER v2.0 beta (build 457) - by Dester -
~~~~~~~~~~~~~~~~~~~~~~~~~~~~~~~~~~
-=== НЕ РЕДАКТИРУЙТЕ ЭТОТ ФАЙЛ! ===-

Путь: ...\2009 - Liebe ist fuer alle da (New Version)

01 -=- Rammstein - Liebe Ist Fuer Alle Da.flac -=- CDDA (99%)

58267204
Правила, инструкции, FAQ!!!
Торрент  Добавлен [08 авг 2015, 23:22] Скачать торрент Магнет ссылка
Скачать торрент
125.46 КБ

Статус
Проверен 
 
Размер  10.32 ГБ
Приватный: Нет (DHT включён)
.torrent скачан  14
Как залить торрент? | Как скачать Torrent? | Как смотреть и слушать онлайн?  
Гость
 



Вернуться в Дискографии (Зарубежные)

Кто сейчас на конференции

Сейчас этот форум просматривают: нет зарегистрированных пользователей и гости: 0