Rainbow - дискография 10 [SHM-CD] (Japanese Press 2008) [Cardboard Sleeve][Limited Release] - 2008, FLAC (image+.cue), lossless


Статистика раздачи
Размер: 2.81 ГБ | Добавлен: 17 ноя 2012, 16:32 | Скачали: 13
Сидеров: 78  [0 байт/сек]    Личеров: 87  [0 байт/сек]

Сообщение Гость » 17 ноя 2012, 16:32

Rainbow 10[SHM-CD] (Japanese Press 2008) [Cardboard Sleeve][Limited Release]


Жанр: Hard Rock
Год выпуска диска: 2008
Label/Distributor: Japanese - Universal Music
Аудио кодек: FLAC
Тип рипа: image+.cue
Битрейт аудио: lossless

Компакт-диски • Cardboard Sleeve • изготавливаются в Японии согласно лицензии.
Диск упакован в картонный конверт размером 135мм * 135мм. Это точная миниатюрная копия оригинального классического LP винила. Кроме того, диск копируется с оригинальной LP точностью и включает в себя буклеты с фотографиями, черно-белый аккуратно сложенный лист с аннотацией и текстами песен на японском и английском языке, эмблемы артистов, используется специальная бумага, чернила, структура покрытия как на оригинальном LP виниле. Конверт вложен в фирменный закрывающийся и открывающийся полиэтиленовый пакет. Англоязычный текст песен всегда включен, даже если оригинальный LP не имел напечатанных текстов!

• SHM-CD •
Новые японские выпуски, очень ограниченные и часто распроданные еще до даты выпуска тиража!!!
Превосходный новый SHM-CD (Super High Material CD) формат произведенный JVC и Universal Music Japan.
В них используется пластмасса поликарбоната с чистейшей прозрачностью для улучшения звуковых качеств.
Диск имеет превосходное звуковое качество по сравнению с Американскими или Европейскими прессами. Диск совершенно новый и запечатанный, полный OBI, роскошная упаковка включает защитный пластмассовый внешний корпус и дополнительный буклет.

Высокое качество SHM-CD (Super High Material CD) обусловлено возможностями расширения формата
аудио за счет использования специального пластика поликарбонат. Используется процесс,
разработанный JVC и Universal Music (Япония) обнаруженный в ходе совместной компании исследования
в области производства ЖК-дисплеев, SHM-CD использует функцию повышения транспарентности
по данным диска, что позволяет сделать более точным чтение CD, данных на головку CD проигрывателя

SHM-CD компакт-диски полностью совместимы со стандартными CD приводами.




Tracklist:
01. Man On The Silver Mountain [0:04:41.37]
02. Self Portrait [0:03:16.60]
03. Black Sheep Of The Family [0:03:22.23]
04. Catch The Rainbow [0:06:39.25]
05. Snake Charmer [0:04:32.52]
06. The Temple Of The King [0:04:44.68]
07. If You Don't Like Rock 'N' Roll [0:02:37.55]
08. Sixteenth Century Greensleeves [0:03:31.30]
09. Still I'm Sad [0:03:53.25]


Exact Audio Copy V0.99 prebeta 4 from 23. January 2008

Отчёт EAC об извлечении, выполненном 30. октября 2008, 18:04

Rainbow / Ritchie Blackmore's Rainbow (SHM-CD Japanese UICY-93618)

Дисковод: PLEXTOR DVDR PX-716A Adapter: 3 ID: 0

Режим чтения : Достоверность
Использование точного потока : Да
Отключение кэша аудио : Да
Использование указателей C2 : Нет

Коррекция смещения при чтении : 30
Способность читать области Lead-in и Lead-out : Да
Заполнение пропущенных сэмплов тишиной : Да
Удаление блоков с тишиной в начале и конце : Нет
При вычислениях CRC использовались нулевые сэмплы : Нет
Интерфейс : Установленный внешний ASPI-интерфейс

Выходной формат : Пользовательский кодировщик
Выбранный битрейт : 32 kBit/s
Качество : Высокий
Добавление ID3-тэга : Да
Утилита сжатия : C:\Program Files\AUDIO\Exact Audio Copy 099pb4\Flac\flac.exe
Дополнительные параметры : -6 -V -T "artist=%a" -T "title=%t" -T "album=%g" -T "date=%y" -T "tracknumber=%n" -T "genre=%m" -T "comment=EAC 0.99prebeta4 / FLAC 1.2.1 q6" %s

TOC извлечённого CD

Трек | Старт | Длительность | Начальный сектор | Конечный сектор
---------------------------------------------------------------------
1 | 0:00.00 | 4:41.37 | 0 | 21111
2 | 4:41.37 | 3:16.60 | 21112 | 35871
3 | 7:58.22 | 3:22.23 | 35872 | 51044
4 | 11:20.45 | 6:39.25 | 51045 | 80994
5 | 17:59.70 | 4:32.52 | 80995 | 101446
6 | 22:32.47 | 4:44.68 | 101447 | 122814
7 | 27:17.40 | 2:37.55 | 122815 | 134644
8 | 29:55.20 | 3:31.30 | 134645 | 150499
9 | 33:26.50 | 3:53.25 | 150500 | 167999

Характеристики диапазона извлечения и сообщения об ошибках

Выбранный диапазон

Имя файла D:\MY_Create\Rainbow_(SHM-CD)-Rainbow\Rainbow - Ritchie Blackmore's Rainbow (SHM-CD Japanese UICY-93618).wav

Пиковый уровень 100.0 %
Качество диапазона 100.0 %
CRC копии C2C6E118
Копирование... OK

Ошибок не произошло

Конец отчёта






Tracklist:
01. Tarot Woman [0:06:04.07]
02. Run With The Wolf [0:03:43.08]
03. Starstruck [0:04:08.30]
04. Do You Close Your Eyes [0:03:02.30]
05. Stargazer [0:08:32.05]
06. A Light In The Black [0:08:11.50]


Exact Audio Copy V0.99 prebeta 4 from 23. January 2008

Отчёт EAC об извлечении, выполненном 31. октября 2008, 11:22

Rainbow / Rising (SHM-CD Japanese UICY-93619)

Дисковод: PLEXTOR DVDR PX-716A Adapter: 3 ID: 0

Режим чтения : Достоверность
Использование точного потока : Да
Отключение кэша аудио : Да
Использование указателей C2 : Нет

Коррекция смещения при чтении : 30
Способность читать области Lead-in и Lead-out : Да
Заполнение пропущенных сэмплов тишиной : Да
Удаление блоков с тишиной в начале и конце : Нет
При вычислениях CRC использовались нулевые сэмплы : Нет
Интерфейс : Установленный внешний ASPI-интерфейс

Выходной формат : Пользовательский кодировщик
Выбранный битрейт : 32 kBit/s
Качество : Высокий
Добавление ID3-тэга : Да
Утилита сжатия : C:\Program Files\AUDIO\Exact Audio Copy 099pb4\Flac\flac.exe
Дополнительные параметры : -6 -V -T "artist=%a" -T "title=%t" -T "album=%g" -T "date=%y" -T "tracknumber=%n" -T "genre=%m" -T "comment=EAC 0.99prebeta4 / FLAC 1.2.1 q6" %s

TOC извлечённого CD

Трек | Старт | Длительность | Начальный сектор | Конечный сектор
---------------------------------------------------------------------
1 | 0:00.00 | 6:04.07 | 0 | 27306
2 | 6:04.07 | 3:43.08 | 27307 | 44039
3 | 9:47.15 | 4:08.30 | 44040 | 62669
4 | 13:55.45 | 3:02.30 | 62670 | 76349
5 | 16:58.00 | 8:32.05 | 76350 | 114754
6 | 25:30.05 | 8:11.50 | 114755 | 151629

Характеристики диапазона извлечения и сообщения об ошибках

Выбранный диапазон

Имя файла D:\MY_Create\Rainbow_(SHM-CD)-Rising\Rainbow - Rising (SHM-CD Japanese UICY-93619).wav

Пиковый уровень 100.0 %
Качество диапазона 100.0 %
CRC копии 986B2D11
Копирование... OK

Ошибок не произошло

Конец отчёта






Tracklist:
01. Kill The King [0:05:31.50]
02. Man On The Silver Mountain \ Blues \ Starstruck [0:11:16.35]
03. Catch The Rainbow [0:15:37.50]
04. Mistreated [0:13:08.70]
05. Sixteenth Century Greensleeves [0:07:37.60]
06. Still I'm Sad [0:11:01.10]


Exact Audio Copy V0.99 prebeta 4 from 23. January 2008

Отчёт EAC об извлечении, выполненном 31. октября 2008, 14:00

Rainbow / On Stage (SHM-CD Japanese UICY-93620)

Дисковод: PLEXTOR DVDR PX-716A Adapter: 3 ID: 0

Режим чтения : Достоверность
Использование точного потока : Да
Отключение кэша аудио : Да
Использование указателей C2 : Нет

Коррекция смещения при чтении : 30
Способность читать области Lead-in и Lead-out : Да
Заполнение пропущенных сэмплов тишиной : Да
Удаление блоков с тишиной в начале и конце : Нет
При вычислениях CRC использовались нулевые сэмплы : Нет
Интерфейс : Установленный внешний ASPI-интерфейс

Выходной формат : Пользовательский кодировщик
Выбранный битрейт : 32 kBit/s
Качество : Высокий
Добавление ID3-тэга : Да
Утилита сжатия : C:\Program Files\AUDIO\Exact Audio Copy 099pb4\Flac\flac.exe
Дополнительные параметры : -6 -V -T "artist=%a" -T "title=%t" -T "album=%g" -T "date=%y" -T "tracknumber=%n" -T "genre=%m" -T "comment=EAC 0.99prebeta4 / FLAC 1.2.1 q6" %s

TOC извлечённого CD

Трек | Старт | Длительность | Начальный сектор | Конечный сектор
---------------------------------------------------------------------
1 | 0:00.00 | 5:31.50 | 0 | 24874
2 | 5:31.50 | 11:16.35 | 24875 | 75609
3 | 16:48.10 | 15:37.50 | 75610 | 145934
4 | 32:25.60 | 13:08.70 | 145935 | 205104
5 | 45:34.55 | 7:37.60 | 205105 | 239439
6 | 53:12.40 | 11:01.10 | 239440 | 289024

Характеристики диапазона извлечения и сообщения об ошибках

Выбранный диапазон

Имя файла D:\MY_Create\Rainbow_(SHM-CD)-On_Stage\Rainbow - On Stage (SHM-CD Japanese UICY-93620).wav

Пиковый уровень 94.5 %
Качество диапазона 100.0 %
CRC копии BFC714EA
Копирование... OK

Ошибок не произошло

Конец отчёта






Tracklist:
01. Long Live Rock 'n' Roll [0:04:24.72]
02. Lady Of The Lake [0:03:38.40]
03. L.A. Connection [0:05:02.28]
04. Gates Of Babylon [0:06:51.27]
05. Kill The King [0:04:30.38]
06. The Shed (Subtle) [0:04:47.62]
07. Sensitive To Light [0:03:07.73]
08. Rainbow Eyes [0:07:26.60]


Exact Audio Copy V0.99 prebeta 4 from 23. January 2008

Отчёт EAC об извлечении, выполненном 1. ноября 2008, 10:32

Rainbow / Long Live Rock 'n' Roll (SHM-CD Japanese UICY-93621)

Дисковод: PLEXTOR DVDR PX-716A Adapter: 3 ID: 0

Режим чтения : Достоверность
Использование точного потока : Да
Отключение кэша аудио : Да
Использование указателей C2 : Нет

Коррекция смещения при чтении : 30
Способность читать области Lead-in и Lead-out : Да
Заполнение пропущенных сэмплов тишиной : Да
Удаление блоков с тишиной в начале и конце : Нет
При вычислениях CRC использовались нулевые сэмплы : Нет
Интерфейс : Установленный внешний ASPI-интерфейс

Выходной формат : Пользовательский кодировщик
Выбранный битрейт : 32 kBit/s
Качество : Высокий
Добавление ID3-тэга : Да
Утилита сжатия : C:\Program Files\AUDIO\Exact Audio Copy 099pb4\Flac\flac.exe
Дополнительные параметры : -6 -V -T "artist=%a" -T "title=%t" -T "album=%g" -T "date=%y" -T "tracknumber=%n" -T "genre=%m" -T "comment=EAC 0.99prebeta4 / FLAC 1.2.1 q6" %s

TOC извлечённого CD

Трек | Старт | Длительность | Начальный сектор | Конечный сектор
---------------------------------------------------------------------
1 | 0:00.00 | 4:24.72 | 0 | 19871
2 | 4:24.72 | 3:38.40 | 19872 | 36261
3 | 8:03.37 | 5:02.28 | 36262 | 58939
4 | 13:05.65 | 6:51.27 | 58940 | 89791
5 | 19:57.17 | 4:30.38 | 89792 | 110079
6 | 24:27.55 | 4:47.62 | 110080 | 131666
7 | 29:15.42 | 3:07.73 | 131667 | 145764
8 | 32:23.40 | 7:26.60 | 145765 | 179274

Характеристики диапазона извлечения и сообщения об ошибках

Выбранный диапазон

Имя файла D:\MY_Create\Rainbow_(SHM-CD)-Long_Live_Rock'n'Roll\Rainbow - Long Live Rock 'n' Roll (SHM-CD Japanese UICY-93621).wav

Пиковый уровень 100.0 %
Качество диапазона 100.0 %
CRC копии 0E22FFB2
Копирование... OK

Ошибок не произошло

Конец отчёта






Tracklist:
01. All Night Long [0:03:53.62]
02. Eyes Of The World [0:06:43.13]
03. No Time To Lose [0:03:45.37]
04. Makin' Love [0:04:38.55]
05. Since You Been Gone [0:03:20.70]
06. Love's No Friend [0:04:55.28]
07. Danger Zone [0:04:32.07]
08. Lost In Hollywood [0:04:51.53]


Exact Audio Copy V0.99 prebeta 4 from 23. January 2008

Отчёт EAC об извлечении, выполненном 1. ноября 2008, 13:35

Rainbow / Down To Earth (SHM-CD Japanese UICY-93622)

Дисковод: PLEXTOR DVDR PX-716A Adapter: 3 ID: 0

Режим чтения : Достоверность
Использование точного потока : Да
Отключение кэша аудио : Да
Использование указателей C2 : Нет

Коррекция смещения при чтении : 30
Способность читать области Lead-in и Lead-out : Да
Заполнение пропущенных сэмплов тишиной : Да
Удаление блоков с тишиной в начале и конце : Нет
При вычислениях CRC использовались нулевые сэмплы : Нет
Интерфейс : Установленный внешний ASPI-интерфейс

Выходной формат : Пользовательский кодировщик
Выбранный битрейт : 32 kBit/s
Качество : Высокий
Добавление ID3-тэга : Да
Утилита сжатия : C:\Program Files\AUDIO\Exact Audio Copy 099pb4\Flac\flac.exe
Дополнительные параметры : -6 -V -T "artist=%a" -T "title=%t" -T "album=%g" -T "date=%y" -T "tracknumber=%n" -T "genre=%m" -T "comment=EAC 0.99prebeta4 / FLAC 1.2.1 q6" %s

TOC извлечённого CD

Трек | Старт | Длительность | Начальный сектор | Конечный сектор
---------------------------------------------------------------------
1 | 0:00.00 | 3:53.62 | 0 | 17536
2 | 3:53.62 | 6:43.13 | 17537 | 47774
3 | 10:37.00 | 3:45.37 | 47775 | 64686
4 | 14:22.37 | 4:38.55 | 64687 | 85591
5 | 19:01.17 | 3:20.70 | 85592 | 100661
6 | 22:22.12 | 4:55.28 | 100662 | 122814
7 | 27:17.40 | 4:32.07 | 122815 | 143221
8 | 31:49.47 | 4:51.53 | 143222 | 165099

Характеристики диапазона извлечения и сообщения об ошибках

Выбранный диапазон

Имя файла D:\MY_Create\Rainbow_(SHM-CD)-Down_To_Earth\Rainbow - Down To Earth (SHM-CD Japanese UICY-93622).wav

Пиковый уровень 99.9 %
Качество диапазона 100.0 %
CRC копии 8D615755
Копирование... OK

Ошибок не произошло

Конец отчёта






Tracklist:
01. I Surrender [0:04:05.15]
02. Spotlight Kid [0:04:57.62]
03. No Release [0:05:37.58]
04. Magic [0:04:09.20]
05. Vielleicht Das Nachste Mal (Maybe Next Time) [0:03:20.45]
06. Can't Happen Here [0:05:00.20]
07. Freedom Fighter [0:04:24.62]
08. Midtown Tunnel Vision [0:04:35.00]
09. Difficult To Cure (Beethoven's Ninth) [0:05:57.73]


Exact Audio Copy V0.99 prebeta 4 from 23. January 2008

Отчёт EAC об извлечении, выполненном 1. ноября 2008, 19:33

Rainbow / Difficult To Cure (SHM-CD Japanese UICY-93623)

Дисковод: PLEXTOR DVDR PX-716A Adapter: 3 ID: 0

Режим чтения : Достоверность
Использование точного потока : Да
Отключение кэша аудио : Да
Использование указателей C2 : Нет

Коррекция смещения при чтении : 30
Способность читать области Lead-in и Lead-out : Да
Заполнение пропущенных сэмплов тишиной : Да
Удаление блоков с тишиной в начале и конце : Нет
При вычислениях CRC использовались нулевые сэмплы : Нет
Интерфейс : Установленный внешний ASPI-интерфейс

Выходной формат : Пользовательский кодировщик
Выбранный битрейт : 32 kBit/s
Качество : Высокий
Добавление ID3-тэга : Да
Утилита сжатия : C:\Program Files\AUDIO\Exact Audio Copy 099pb4\Flac\flac.exe
Дополнительные параметры : -6 -V -T "artist=%a" -T "title=%t" -T "album=%g" -T "date=%y" -T "tracknumber=%n" -T "genre=%m" -T "comment=EAC 0.99prebeta4 / FLAC 1.2.1 q6" %s

TOC извлечённого CD

Трек | Старт | Длительность | Начальный сектор | Конечный сектор
---------------------------------------------------------------------
1 | 0:00.00 | 4:05.15 | 0 | 18389
2 | 4:05.15 | 4:57.62 | 18390 | 40726
3 | 9:03.02 | 5:37.58 | 40727 | 66059
4 | 14:40.60 | 4:09.20 | 66060 | 84754
5 | 18:50.05 | 3:20.45 | 84755 | 99799
6 | 22:10.50 | 5:00.20 | 99800 | 122319
7 | 27:10.70 | 4:24.62 | 122320 | 142181
8 | 31:35.57 | 4:35.00 | 142182 | 162806
9 | 36:10.57 | 5:57.73 | 162807 | 189654

Характеристики диапазона извлечения и сообщения об ошибках

Выбранный диапазон

Имя файла D:\MY_Create\Rainbow_(SHM-CD)-Difficult_To_Cure\Rainbow - Difficult To Cure (SHM-CD Japanese UICY-93623).wav

Пиковый уровень 100.0 %
Качество диапазона 100.0 %
CRC копии EDD577F6
Копирование... OK

Ошибок не произошло

Конец отчёта






Tracklist:
01. Death Alley Driver [0:04:45.50]
02. Stone Cold [0:05:19.32]
03. Bring On The Night (Dream Chaser) [0:04:08.10]
04. Tite Squeeze [0:03:15.73]
05. Tearin' Out My Heart [0:04:05.52]
06. Power [0:04:27.38]
07. Miss Mistreated [0:04:30.05]
08. Rock Fever [0:03:52.65]
09. Eyes Of Fire [0:06:39.50]


Exact Audio Copy V0.99 prebeta 4 from 23. January 2008

Отчёт EAC об извлечении, выполненном 2. ноября 2008, 10:40

Rainbow / Straight Between The Eyes (SHM-CD Japanese UICY-93624)

Дисковод: PLEXTOR DVDR PX-716A Adapter: 3 ID: 0

Режим чтения : Достоверность
Использование точного потока : Да
Отключение кэша аудио : Да
Использование указателей C2 : Нет

Коррекция смещения при чтении : 30
Способность читать области Lead-in и Lead-out : Да
Заполнение пропущенных сэмплов тишиной : Да
Удаление блоков с тишиной в начале и конце : Нет
При вычислениях CRC использовались нулевые сэмплы : Нет
Интерфейс : Установленный внешний ASPI-интерфейс

Выходной формат : Пользовательский кодировщик
Выбранный битрейт : 32 kBit/s
Качество : Высокий
Добавление ID3-тэга : Да
Утилита сжатия : C:\Program Files\AUDIO\Exact Audio Copy 099pb4\Flac\flac.exe
Дополнительные параметры : -6 -V -T "artist=%a" -T "title=%t" -T "album=%g" -T "date=%y" -T "tracknumber=%n" -T "genre=%m" -T "comment=EAC 0.99prebeta4 / FLAC 1.2.1 q6" %s

TOC извлечённого CD

Трек | Старт | Длительность | Начальный сектор | Конечный сектор
---------------------------------------------------------------------
1 | 0:00.00 | 4:45.50 | 0 | 21424
2 | 4:45.50 | 5:19.32 | 21425 | 45381
3 | 10:05.07 | 4:08.10 | 45382 | 63991
4 | 14:13.17 | 3:15.73 | 63992 | 78689
5 | 17:29.15 | 4:05.52 | 78690 | 97116
6 | 21:34.67 | 4:27.38 | 97117 | 117179
7 | 26:02.30 | 4:30.05 | 117180 | 137434
8 | 30:32.35 | 3:52.65 | 137435 | 154899
9 | 34:25.25 | 6:39.50 | 154900 | 184874

Характеристики диапазона извлечения и сообщения об ошибках

Выбранный диапазон

Имя файла D:\MY_Create\Rainbow_(SHM-CD)-Straight_Between_The_Eyes\Rainbow - Straight Between The Eyes (SHM-CD Japanese UICY-93624).wav

Пиковый уровень 99.9 %
Качество диапазона 100.0 %
CRC копии BC2FB6A0
Копирование... OK

Ошибок не произошло

Конец отчёта






Tracklist:
01. Stranded [0:04:30.32]
02. Can't Let You Go [0:04:22.10]
03. Fool For The Night [0:04:04.60]
04. Fire Dance [0:04:30.50]
05. Anybody There [0:02:40.48]
06. Desperate Heart [0:04:36.67]
07. Street Of Dreams [0:04:26.50]
08. Drinking With The Devil [0:03:44.55]
09. Snowman [0:04:33.25]
10. Make Your Move [0:05:25.20]


Exact Audio Copy V0.99 prebeta 4 from 23. January 2008

Отчёт EAC об извлечении, выполненном 4. ноября 2008, 11:48

Rainbow / Bent Out Of Shape (SHM-CD Japanese UICY-93625)

Дисковод: PLEXTOR DVDR PX-716A Adapter: 3 ID: 0

Режим чтения : Достоверность
Использование точного потока : Да
Отключение кэша аудио : Да
Использование указателей C2 : Нет

Коррекция смещения при чтении : 30
Способность читать области Lead-in и Lead-out : Да
Заполнение пропущенных сэмплов тишиной : Да
Удаление блоков с тишиной в начале и конце : Нет
При вычислениях CRC использовались нулевые сэмплы : Нет
Интерфейс : Установленный внешний ASPI-интерфейс

Выходной формат : Пользовательский кодировщик
Выбранный битрейт : 32 kBit/s
Качество : Высокий
Добавление ID3-тэга : Да
Утилита сжатия : C:\Program Files\AUDIO\Exact Audio Copy 099pb4\Flac\flac.exe
Дополнительные параметры : -6 -V -T "artist=%a" -T "title=%t" -T "album=%g" -T "date=%y" -T "tracknumber=%n" -T "genre=%m" -T "comment=EAC 0.99prebeta4 / FLAC 1.2.1 q6" %s

TOC извлечённого CD

Трек | Старт | Длительность | Начальный сектор | Конечный сектор
---------------------------------------------------------------------
1 | 0:00.00 | 4:30.32 | 0 | 20281
2 | 4:30.32 | 4:22.10 | 20282 | 39941
3 | 8:52.42 | 4:04.60 | 39942 | 58301
4 | 12:57.27 | 4:30.50 | 58302 | 78601
5 | 17:28.02 | 2:40.48 | 78602 | 90649
6 | 20:08.50 | 4:36.67 | 90650 | 111416
7 | 24:45.42 | 4:26.50 | 111417 | 131416
8 | 29:12.17 | 3:44.55 | 131417 | 148271
9 | 32:56.72 | 4:33.25 | 148272 | 168771
10 | 37:30.22 | 5:25.20 | 168772 | 193166

Характеристики диапазона извлечения и сообщения об ошибках

Выбранный диапазон

Имя файла D:\MY_Create\Rainbow_(SHM-CD)-Bent_Out_Of_Shape\Rainbow - Bent Out Of Shape (SHM-CD Japanese UICY-93625).wav

Пиковый уровень 99.9 %
Качество диапазона 100.0 %
CRC копии 6929B858
Копирование... OK

Ошибок не произошло

Конец отчёта






Tracklist Disc 1:
01. Spotlight Kid [0:06:06.67]
02. I Surrender [0:05:43.50]
03. Miss Mistreated [0:04:21.28]
04. Street Of Dreams [0:04:57.55]
05. Jealous Lover [0:03:12.72]
06. Can't Happen Here [0:04:16.40]
07. Tearin' Out My Heart [0:08:08.25]
08. Since You Been Gone [0:03:47.23]
09. Bad Girl [0:04:51.70]

Tracklist Disc 2:
01. Difficult To Cure [0:11:18.70]
02. Stone Cold [0:04:28.10]
03. Power [0:04:28.70]
04. Man On The Silver Mountain [0:08:19.10]
05. Long Live Rock 'N' Roll [0:07:11.22]
06. Weiss Heim [0:05:12.38]


Exact Audio Copy V0.99 prebeta 4 from 23. January 2008

Отчёт EAC об извлечении, выполненном 11. ноября 2008, 11:31

Rainbow / Finyl Vinyl (SHM-CD Japanese UICY-93626) Disc 1

Дисковод: PLEXTOR DVDR PX-716A Adapter: 3 ID: 0

Режим чтения : Достоверность
Использование точного потока : Да
Отключение кэша аудио : Да
Использование указателей C2 : Нет

Коррекция смещения при чтении : 30
Способность читать области Lead-in и Lead-out : Да
Заполнение пропущенных сэмплов тишиной : Да
Удаление блоков с тишиной в начале и конце : Нет
При вычислениях CRC использовались нулевые сэмплы : Нет
Интерфейс : Установленный внешний ASPI-интерфейс

Выходной формат : Пользовательский кодировщик
Выбранный битрейт : 32 kBit/s
Качество : Высокий
Добавление ID3-тэга : Да
Утилита сжатия : C:\Program Files\AUDIO\Exact Audio Copy 099pb4\Flac\flac.exe
Дополнительные параметры : -6 -V -T "artist=%a" -T "title=%t" -T "album=%g" -T "date=%y" -T "tracknumber=%n" -T "genre=%m" -T "comment=EAC 0.99prebeta4 / FLAC 1.2.1 q6" %s

TOC извлечённого CD

Трек | Старт | Длительность | Начальный сектор | Конечный сектор
---------------------------------------------------------------------
1 | 0:00.00 | 6:06.67 | 0 | 27516
2 | 6:06.67 | 5:43.50 | 27517 | 53291
3 | 11:50.42 | 4:21.28 | 53292 | 72894
4 | 16:11.70 | 4:57.55 | 72895 | 95224
5 | 21:09.50 | 3:12.72 | 95225 | 109696
6 | 24:22.47 | 4:16.40 | 109697 | 128936
7 | 28:39.12 | 8:08.25 | 128937 | 165561
8 | 36:47.37 | 3:47.23 | 165562 | 182609
9 | 40:34.60 | 4:51.70 | 182610 | 204504

Характеристики диапазона извлечения и сообщения об ошибках

Выбранный диапазон

Имя файла D:\MY_Create\Rainbow_(SHM-CD)-Finyl_Vinyl\CD1\Rainbow - Finyl Vinyl (SHM-CD Japanese UICY-93626) Disc 1.wav

Пиковый уровень 100.0 %
Качество диапазона 100.0 %
CRC копии 668745E9
Копирование... OK

Ошибок не произошло

Конец отчёта



Exact Audio Copy V0.99 prebeta 4 from 23. January 2008

Отчёт EAC об извлечении, выполненном 11. ноября 2008, 11:53

Rainbow / Finyl Vinyl (SHM-CD Japanese UICY-93627) Disc 2

Дисковод: PLEXTOR DVDR PX-716A Adapter: 3 ID: 0

Режим чтения : Достоверность
Использование точного потока : Да
Отключение кэша аудио : Да
Использование указателей C2 : Нет

Коррекция смещения при чтении : 30
Способность читать области Lead-in и Lead-out : Да
Заполнение пропущенных сэмплов тишиной : Да
Удаление блоков с тишиной в начале и конце : Нет
При вычислениях CRC использовались нулевые сэмплы : Нет
Интерфейс : Установленный внешний ASPI-интерфейс

Выходной формат : Пользовательский кодировщик
Выбранный битрейт : 32 kBit/s
Качество : Высокий
Добавление ID3-тэга : Да
Утилита сжатия : C:\Program Files\AUDIO\Exact Audio Copy 099pb4\Flac\flac.exe
Дополнительные параметры : -6 -V -T "artist=%a" -T "title=%t" -T "album=%g" -T "date=%y" -T "tracknumber=%n" -T "genre=%m" -T "comment=EAC 0.99prebeta4 / FLAC 1.2.1 q6" %s

TOC извлечённого CD

Трек | Старт | Длительность | Начальный сектор | Конечный сектор
---------------------------------------------------------------------
1 | 0:00.00 | 11:18.70 | 0 | 50919
2 | 11:18.70 | 4:28.10 | 50920 | 71029
3 | 15:47.05 | 4:28.70 | 71030 | 91199
4 | 20:16.00 | 8:19.10 | 91200 | 128634
5 | 28:35.10 | 7:11.22 | 128635 | 160981
6 | 35:46.32 | 5:12.38 | 160982 | 184419

Характеристики диапазона извлечения и сообщения об ошибках

Выбранный диапазон

Имя файла D:\MY_Create\Rainbow_(SHM-CD)-Finyl_Vinyl\CD2\Rainbow - Finyl Vinyl (SHM-CD Japanese UICY-93627) Disc 2.wav

Пиковый уровень 100.0 %
Качество диапазона 99.9 %
CRC копии FA3B474F
Копирование... OK

Ошибок не произошло

Конец отчёта




Приятного прослушивания!
Правила, инструкции, FAQ!!!
Торрент  Добавлен [17 ноя 2012, 16:32] Скачать торрент Магнет ссылка
Скачать торрент
56.45 КБ

Статус
Проверен 
 
Размер  2.81 ГБ
Приватный: Нет (DHT включён)
.torrent скачан  13
Как залить торрент? | Как скачать Torrent? | Как смотреть и слушать онлайн?  
Гость
 



Вернуться в Дискографии (Зарубежные)

Кто сейчас на конференции

Сейчас этот форум просматривают: нет зарегистрированных пользователей и гости: 0