Путешествия Гулливера 3Д / Gullivers Travels 3D (Роб Леттерман / Rob Letterman) [2010, фэнтези, комедия, приключения, BDrip-AVC] Half OverUnder / Вертикальная анаморфная стереопара


Статистика раздачи
Размер: 7.28 ГБ | Добавлен: 11 июл 2014, 12:24 | Скачали: 6
Сидеров: 48  [0 байт/сек]    Личеров: 15  [0 байт/сек]

Сообщение Гость » 11 июл 2014, 12:24


Путешествия Гулливера 3Д | Gulliver's Travels 3D
«Чем больше шкаф, тем громче падает»


Страна: США
Жанр: фэнтези, комедия, приключения
Продолжительность: 01:24:40
Год выпуска: 2010
Перевод: Профессиональный (дублированный)
Русские субтитры: есть

Режиссер: Роб Леттерман / Rob Letterman
В ролях: Джек Блэк / Jack Black (Lemuel Gulliver), Джейсон Сигел / Jason Segel (Horatio), Эмили Блант / Emily Blunt (Princess Mary), Аманда Пит / Amanda Peet (Darcy Silverman), Билли Коннолли / Billy Connolly (King Theodore), Криc О’Дауд / Chris O'Dowd (General Edward), ТиДжей Миллер / T.J. Miller (Dan), Джеймс Корден / James Corden (Jinks), Кэтрин Тейт / Catherine Tate (Queen Isabelle), Эмманюэль Куатра / Emmanuel Quatra (King Leopold)

Описание: Лемюэль Гулливер, ищущий славы и сенсационного материала, отправляется в Бермудский треугольник, одно из самых таинственных мест планеты. Оттуда шторм уносит его в неизвестном направлении к острову, населенному крошечным народом, благодаря которому Гулливер вырвется из своего тесного мирка в большой мир.

by elephant

Качество: BDrip
Контейнер: MKV
Формат 3D: Half OverUnder / Вертикальная анаморфная стереопара
Порядок ракурсов: Левый ракурс первый
Видео кодек: x264
Аудио кодек: AC3
Видео: 1920x1080 / MPEG4 Video (H264) / 23.976 fps / 11.2 Mbps
Аудио: AC3 / 5.1 / 48 kHz / 448 kbps / 16 bits |Русский (дубляж, лицензия)|

Аудио 2: AC3 / 5.1 / 48 kHz / 384 kbps / 16 bits |Английский (Original)|
Субтитры: Русские (форсированные, полные), English
* Ради роли в «Путешествиях Гулливера» Эмили Блант отказалась от съемок в «Железном человеке 2».

Бюджет: $112 000 000
Сборы в США: $42 779 261
Сборы в мире: + $180 000 000 = $222 779 261
Сборы в России: $17 019 280
General
Complete name : D:\Gulliver's.Travels.3D.2010.BD3DRip.Half.OU.x264.AC3.3D-RuGroup.mkv
Format : Matroska
File size : 7.28 GiB
Duration : 1h 24mn
Overall bit rate : 12.3 Mbps
Encoded date : UTC 2011-04-23 12:39:45
Writing application : mkvmerge v2.9.9 ('Tutu') built on Nov 25 2009 21:13:32
Writing library : libebml v0.7.9 + libmatroska v0.8.1

Video
ID : 1
Format : AVC
Format/Info : Advanced Video Codec
Format profile : High@L4.0
Format settings, CABAC : Yes
Format settings, ReFrames : 4 frames
Codec ID : V_MPEG4/ISO/AVC
Duration : 1h 24mn
Bit rate : 11.2 Mbps
Width : 1 920 pixels
Height : 1 080 pixels
Display aspect ratio : 16:9
Frame rate : 23.976 fps
Color space : YUV
Chroma subsampling : 4:2:0
Bit depth : 8 bits
Scan type : Progressive
Bits/(Pixel*Frame) : 0.226
Stream size : 6.64 GiB (91%)
Title : Gulliver's.Travels.2010.3D.BDRip.AC3.x264.3D-RuGroup
Writing library : x264 core 114 r1913 5fd3dce
Encoding settings : cabac=1 / ref=4 / deblock=1:-3:-3 / analyse=0x3:0x133 / me=umh / subme=10 / psy=1 / psy_rd=1.00:0.15 / mixed_ref=1 / me_range=48 / chroma_me=1 / trellis=2 / 8x8dct=1 / cqm=0 / deadzone=21,11 / fast_pskip=0 / chroma_qp_offset=-3 / threads=3 / sliced_threads=0 / nr=0 / decimate=1 / interlaced=0 / constrained_intra=0 / bframes=6 / b_pyramid=2 / b_adapt=2 / b_bias=0 / direct=3 / weightb=1 / open_gop=0 / weightp=2 / keyint=250 / keyint_min=23 / scenecut=40 / intra_refresh=0 / rc_lookahead=60 / rc=crf / mbtree=1 / crf=18.0 / qcomp=0.70 / qpmin=0 / qpmax=51 / qpstep=4 / ip_ratio=1.40 / aq=1:0.90

Audio #1
ID : 2
Format : AC-3
Format/Info : Audio Coding 3
Mode extension : CM (complete main)
Codec ID : A_AC3
Duration : 1h 24mn
Bit rate mode : Constant
Bit rate : 448 Kbps
Channel(s) : 6 channels
Channel positions : Front: L C R, Side: L R, LFE
Sampling rate : 48.0 KHz
Bit depth : 16 bits
Compression mode : Lossy
Stream size : 271 MiB (4%)
Title : Дубляж
Language : Russian

Audio #2
ID : 3
Format : AC-3
Format/Info : Audio Coding 3
Mode extension : CM (complete main)
Codec ID : A_AC3
Duration : 1h 24mn
Bit rate mode : Constant
Bit rate : 384 Kbps
Channel(s) : 6 channels
Channel positions : Front: L C R, Side: L R, LFE
Sampling rate : 48.0 KHz
Bit depth : 16 bits
Compression mode : Lossy
Stream size : 233 MiB (3%)
Title : Оригинал
Language : English

Text #1
ID : 4
Format : UTF-8
Codec ID : S_TEXT/UTF8
Codec ID/Info : UTF-8 Plain Text
Title : Русские (форсированные)
Language : Russian

Text #2
ID : 5
Format : UTF-8
Codec ID : S_TEXT/UTF8
Codec ID/Info : UTF-8 Plain Text
Title : Русские
Language : Russian

Text #3
ID : 6
Format : UTF-8
Codec ID : S_TEXT/UTF8
Codec ID/Info : UTF-8 Plain Text
Title : English
Language : English

Menu
00:00:00.000 : :1
00:03:06.352 : :2
00:06:35.311 : :3
00:10:05.688 : :4
00:12:32.918 : :5
00:14:30.703 : :6
00:16:29.113 : :7
00:20:13.420 : :8
00:23:03.548 : :9
00:26:02.269 : :10
00:29:24.679 : :11
00:34:32.528 : :12
00:38:50.119 : :13
00:42:48.440 : :14
00:48:49.801 : :15
00:52:30.272 : :16
00:55:11.683 : :17
01:00:36.799 : :18
01:05:50.905 : :19
01:08:17.176 : :20
01:10:59.838 : :21
01:14:45.147 : :22
01:16:27.416 : :23
01:20:10.764 : :24

Правила, инструкции, FAQ!!!
Торрент  Добавлен [11 июл 2014, 12:24] Скачать торрент Магнет ссылка
Скачать торрент
36.91 КБ

Статус
Проверен 
 
Размер  7.28 ГБ
Приватный: Нет (DHT включён)
.torrent скачан  6
Как залить торрент? | Как скачать Torrent? | Как смотреть и слушать онлайн?  
Гость
 



Вернуться в HD-Video в 3D

Кто сейчас на конференции

Сейчас этот форум просматривают: нет зарегистрированных пользователей и гости: 2