(Psychedelic Rock) [CD] Motorpsycho - The Crucible - 2019, FLAC (tracks+.cue), lossless


Статистика раздачи
Размер: 237.36 МБ | Добавлен: 09 мар 2019, 11:26 | Скачали: 2
Сидеров: 11  [0 байт/сек]    Личеров: 0  [0 байт/сек]

Сообщение Гость » 09 мар 2019, 11:26

Motorpsycho - The Crucible
Жанр: Psychedelic Rock
Носитель: CD
Год выпуска диска: 2019
Страна: Norway
Производитель диска: Rune Grammofon / MPCD 103
Аудио кодек: FLAC
Тип рипа: tracks+.cue
Битрейт аудио: lossless
Продолжительность: 40:31
Наличие сканов в содержимом раздачи:
Трэклист:
01. Psychotzar (8:43)
02. Lux Aeterna (10:56)
03. The Crucible (20:52)
Состав:
- Bent Saether / vocals, bass, sundry
- Hans Magnus "Snah" Ryan / guitars, vocals
- Tomas Jarmyr / drums
Доп. информация: http://www.progarchives.com/artist.asp?id=5268
Код: Выделить всё
X Lossless Decoder version 20181019 (151.1)
XLD extraction logfile from 2019-03-08 19:50:01 +0100
Motorpsycho / The Crucible
Used drive : PIONEER BD-RW   BDR-XD05 (revision 3.01)
Media type : Pressed CD
Ripper mode             : XLD Secure Ripper
Disable audio cache     : OK for the drive with a cache less than 1375KiB
Make use of C2 pointers : NO
Read offset correction  : 667
Max retry count         : 10
Gap status              : Analyzed, Appended (except HTOA)
TOC of the extracted CD
     Track |   Start  |  Length  | Start sector | End sector
    ---------------------------------------------------------
        1  | 00:00:00 | 08:43:35 |         0    |    39259
        2  | 08:43:35 | 10:55:50 |     39260    |    88434
        3  | 19:39:10 | 20:51:03 |     88435    |   182262
AccurateRip Summary (DiscID: 0004bac6-00105eee-19097e03)
    Track 01 : OK (v1+v2, confidence 2/2)
    Track 02 : OK (v1+v2, confidence 2/2)
    Track 03 : OK (v1+v2, confidence 2/2)
        ->All tracks accurately ripped.
All Tracks
    Album gain               : -7.09 dB
    Peak                     : 0.986969
    Statistics
        Read error                           : 0
        Jitter error (maybe fixed)           : 0
        Retry sector count                   : 0
        Damaged sector count                 : 0
Track 01
    Filename : /Users/maudlin/Documents/MUSIC/redacted/rips/Motorpsycho/Motorpsycho - The Crucible (2019) [FLAC]/01. Psychotzar.flac
    Pre-gap length : 00:02:00
    Track gain               : -7.13 dB
    Peak                     : 0.983093
    CRC32 hash (test run)    : 78EEDA67
    CRC32 hash               : 78EEDA67
    CRC32 hash (skip zero)   : 5644862B
    AccurateRip v1 signature : FA7E9080
    AccurateRip v2 signature : 1C1FC661
        ->Accurately ripped (v1+v2, confidence 1+1/2)
    Statistics
        Read error                           : 0
        Jitter error (maybe fixed)           : 0
        Retry sector count                   : 0
        Damaged sector count                 : 0
Track 02
    Filename : /Users/maudlin/Documents/MUSIC/redacted/rips/Motorpsycho/Motorpsycho - The Crucible (2019) [FLAC]/02. Lux Aeterna.flac
    Track gain               : -7.76 dB
    Peak                     : 0.979126
    CRC32 hash (test run)    : B4C5FA08
    CRC32 hash               : B4C5FA08
    CRC32 hash (skip zero)   : CA62EB0E
    AccurateRip v1 signature : 16A3C91D
    AccurateRip v2 signature : 8AD2A479
        ->Accurately ripped (v1+v2, confidence 1+1/2)
    Statistics
        Read error                           : 0
        Jitter error (maybe fixed)           : 0
        Retry sector count                   : 0
        Damaged sector count                 : 0
Track 03
    Filename : /Users/maudlin/Documents/MUSIC/redacted/rips/Motorpsycho/Motorpsycho - The Crucible (2019) [FLAC]/03. The Crucible.flac
    Track gain               : -6.71 dB
    Peak                     : 0.986969
    CRC32 hash (test run)    : CB890CA0
    CRC32 hash               : CB890CA0
    CRC32 hash (skip zero)   : 4829A445
    AccurateRip v1 signature : 1AD9471E
    AccurateRip v2 signature : 9839ED4C
        ->Accurately ripped (v1+v2, confidence 1+1/2)
    Statistics
        Read error                           : 0
        Jitter error (maybe fixed)           : 0
        Retry sector count                   : 0
        Damaged sector count                 : 0
No errors occurred
End of status report
-----BEGIN XLD SIGNATURE-----
HJ8sWMOogdHr5nyeFIfzqPWRxYmbpJdnCu8QfwY8SZHu3KmCcGHc0pKeMoScPEqzsmJWFYwF9AAE71FUJe.bP4pe6shYstJxhcybKVS
-----END XLD SIGNATURE-----
Код: Выделить всё
TITLE "The Crucible"
PERFORMER "Motorpsycho"
CATALOG 7033662010301
REM GENRE "progressive rock"
REM DATE "2019"
REM DISCID 19097E03
REM REPLAYGAIN_ALBUM_GAIN -7.09 dB
REM REPLAYGAIN_ALBUM_PEAK 0.986969
FILE "01. Psychotzar.flac" WAVE
  TRACK 01 AUDIO
    TITLE "Psychotzar"
    PERFORMER "Motorpsycho"
    ISRC NOFGR1903010
    REM REPLAYGAIN_TRACK_GAIN -7.13 dB
    REM REPLAYGAIN_TRACK_PEAK 0.983093
    INDEX 01 00:00:00
FILE "02. Lux Aeterna.flac" WAVE
  TRACK 02 AUDIO
    TITLE "Lux Aeterna"
    PERFORMER "Motorpsycho"
    ISRC NOFGR1903020
    REM REPLAYGAIN_TRACK_GAIN -7.76 dB
    REM REPLAYGAIN_TRACK_PEAK 0.979126
    INDEX 01 00:00:00
FILE "03. The Crucible.flac" WAVE
  TRACK 03 AUDIO
    TITLE "The Crucible"
    PERFORMER "Motorpsycho"
    ISRC NOFGR1903030
    REM REPLAYGAIN_TRACK_GAIN -6.71 dB
    REM REPLAYGAIN_TRACK_PEAK 0.986969
    INDEX 01 00:00:00
источник: redacted
Правила, инструкции, FAQ!!!
Торрент  Добавлен [09 мар 2019, 11:26] Скачать торрент Магнет ссылка
Скачать торрент
19.85 КБ

Статус
Проверен 
 
Размер  237.36 МБ
Приватный: Нет (DHT включён)
.torrent скачан  2
Как залить торрент? | Как скачать Torrent? | Как смотреть и слушать онлайн?  
Гость
 



Вернуться в Progressive & Art-Rock

Кто сейчас на конференции

Сейчас этот форум просматривают: нет зарегистрированных пользователей и гости: 1