(Psychedelic Rock, Jazz Rock, Folk Rock) [CD] Hasting's Street Opera - Slippery When Wet - 1969 (2019, Out-Sider), FLAC (tracks+.cue), lossless


Статистика раздачи
Размер: 311.99 МБ | Добавлен: 09 мар 2019, 11:27 | Скачали: 1
Сидеров: 30  [0 байт/сек]    Личеров: 10  [0 байт/сек]

Сообщение Гость » 09 мар 2019, 11:27


Hasting's Street Opera - Slippery When Wet

Жанр: Progressive Rock, Psychedelic Rock, Jazz Rock, Folk Rock
Носитель:CD (Album, Reissue, Remastered)
Страна-производитель диска (релиза): Spain
Год издания оригинала: 1969, private LP
Год переиздания: 2019
Издатель (лейбл): Out-Sider
Номер по каталогу: OSRCD073
Страна исполнителя (группы): US
Аудио кодек: FLAC (*.flac)
Тип рипа: (tracks + .cue)
Битрейт аудио: lossless
Наличие сканов в содержимом раздачи: Full scans, jpg, 600 dpi
Продолжительность: 45:32
Источник (релизер): Моя коллекция, мой рип
Трэклист:
1. Nobody Knows (7:16)
2. Fool-August (3:49)
3. Scarborough Fair (6:21)
4. Lo-De-Do (0:20)
5. Perch (4:50)
6. Taste Of Honey (3:38)
7. Think Of Me (5:25)
8. Summertime (13:53)
Код: Выделить всё
Exact Audio Copy V1.3 from 2. September 2016
EAC extraction logfile from 8. March 2019, 1:07
Hasting's Street Opera / Slippery When Wet
Used drive  : ATAPI   iHAS122   F   Adapter: 1  ID: 0
Read mode               : Secure
Utilize accurate stream : Yes
Defeat audio cache      : Yes
Make use of C2 pointers : No
Read offset correction                      : 6
Overread into Lead-In and Lead-Out          : No
Fill up missing offset samples with silence : Yes
Delete leading and trailing silent blocks   : No
Null samples used in CRC calculations       : Yes
Used interface                              : Native Win32 interface for Win NT & 2000
Gap handling                                : Appended to previous track
Used output format              : User Defined Encoder
Selected bitrate                : 1024 kBit/s
Quality                         : High
Add ID3 tag                     : Yes
Command line compressor         : C:\Program Files (x86)\Exact Audio Copy\Flac\flac.exe
Additional command line options : -6 -V -T "ARTIST=%artist%" -T "TITLE=%title%" -T "ALBUM=%albumtitle%" -T "DATE=%year%" -T "TRACKNUMBER=%tracknr%" -T "GENRE=%genre%" -T "COMMENT=%comment%" %hascover%--picture="%coverfile%"%hascover% %source% -o %dest%
TOC of the extracted CD
     Track |   Start  |  Length  | Start sector | End sector
    ---------------------------------------------------------
        1  |  0:00.00 |  7:22.31 |         0    |    33180
        2  |  7:22.31 |  3:53.74 |     33181    |    50729
        3  | 11:16.30 |  6:23.62 |     50730    |    79516
        4  | 17:40.17 |  0:21.68 |     79517    |    81159
        5  | 18:02.10 |  4:46.30 |     81160    |   102639
        6  | 22:48.40 |  3:42.45 |    102640    |   119334
        7  | 26:31.10 |  5:29.48 |    119335    |   144057
        8  | 32:00.58 | 13:56.23 |    144058    |   206780
Track  1
     Filename E:\Music\olaf_alien\Hasting's Street Opera - Slippery When Wet (1969, private - 2019, Out-Sider)\01 - Nobody Knows.wav
     Pre-gap length  0:00:02.00
     Peak level 100.0 %
     Extraction speed 5.6 X
     Track quality 100.0 %
     Test CRC 2E2A7592
     Copy CRC 2E2A7592
     Track not present in AccurateRip database
     Copy OK
Track  2
     Filename E:\Music\olaf_alien\Hasting's Street Opera - Slippery When Wet (1969, private - 2019, Out-Sider)\02 - Fool-August.wav
     Peak level 100.0 %
     Extraction speed 5.9 X
     Track quality 100.0 %
     Test CRC 2E5EB478
     Copy CRC 2E5EB478
     Track not present in AccurateRip database
     Copy OK
Track  3
     Filename E:\Music\olaf_alien\Hasting's Street Opera - Slippery When Wet (1969, private - 2019, Out-Sider)\03 - Scarborough Fair.wav
     Peak level 100.0 %
     Extraction speed 6.9 X
     Track quality 100.0 %
     Test CRC E97C143D
     Copy CRC E97C143D
     Track not present in AccurateRip database
     Copy OK
Track  4
     Filename E:\Music\olaf_alien\Hasting's Street Opera - Slippery When Wet (1969, private - 2019, Out-Sider)\04 - Lo-De-Do.wav
     Peak level 78.2 %
     Extraction speed 1.4 X
     Track quality 99.5 %
     Test CRC C4F1D977
     Copy CRC C4F1D977
     Track not present in AccurateRip database
     Copy OK
Track  5
     Filename E:\Music\olaf_alien\Hasting's Street Opera - Slippery When Wet (1969, private - 2019, Out-Sider)\05 - Perch.wav
     Peak level 96.8 %
     Extraction speed 7.4 X
     Track quality 100.0 %
     Test CRC 4A18AD9A
     Copy CRC 4A18AD9A
     Track not present in AccurateRip database
     Copy OK
Track  6
     Filename E:\Music\olaf_alien\Hasting's Street Opera - Slippery When Wet (1969, private - 2019, Out-Sider)\06 - Taste of Honey.wav
     Peak level 99.7 %
     Extraction speed 7.6 X
     Track quality 100.0 %
     Test CRC A315564D
     Copy CRC A315564D
     Track not present in AccurateRip database
     Copy OK
Track  7
     Filename E:\Music\olaf_alien\Hasting's Street Opera - Slippery When Wet (1969, private - 2019, Out-Sider)\07 - Think of Me.wav
     Peak level 100.0 %
     Extraction speed 7.1 X
     Track quality 99.9 %
     Test CRC 5C130649
     Copy CRC 5C130649
     Track not present in AccurateRip database
     Copy OK
Track  8
     Filename E:\Music\olaf_alien\Hasting's Street Opera - Slippery When Wet (1969, private - 2019, Out-Sider)\08 - Summertime.wav
     Peak level 96.7 %
     Extraction speed 8.9 X
     Track quality 99.9 %
     Test CRC F9F4A645
     Copy CRC F9F4A645
     Track not present in AccurateRip database
     Copy OK
None of the tracks are present in the AccurateRip database
No errors occurred
End of status report
---- CUETools DB Plugin V2.1.6
[CTDB TOCID: LC6nRWLyM1zddkrfJXcqiH.p584-] disk not present in database
Submit result: LC6nRWLyM1zddkrfJXcqiH.p584- has been uploaded
==== Log checksum 8033F65014C0CE673C72124F393BB2139CF6742264B8E18D54ECD10C6B1BDD86 ====
Код: Выделить всё
REM GENRE "Psychedelic Rock"
REM DATE 2019
REM DISCID 640AC508
REM COMMENT "ExactAudioCopy v1.3"
PERFORMER "Hasting's Street Opera"
TITLE "Slippery When Wet"
REM COMPOSER ""
FILE "01 - Nobody Knows.wav" WAVE
  TRACK 01 AUDIO
    TITLE "Nobody Knows"
    PERFORMER "Hasting's Street Opera"
    REM COMPOSER ""
    INDEX 01 00:00:00
FILE "02 - Fool-August.wav" WAVE
  TRACK 02 AUDIO
    TITLE "Fool-August"
    PERFORMER "Hasting's Street Opera"
    REM COMPOSER ""
    INDEX 01 00:00:00
FILE "03 - Scarborough Fair.wav" WAVE
  TRACK 03 AUDIO
    TITLE "Scarborough Fair"
    PERFORMER "Hasting's Street Opera"
    REM COMPOSER ""
    INDEX 01 00:00:00
FILE "04 - Lo-De-Do.wav" WAVE
  TRACK 04 AUDIO
    TITLE "Lo-De-Do"
    PERFORMER "Hasting's Street Opera"
    REM COMPOSER ""
    INDEX 01 00:00:00
FILE "05 - Perch.wav" WAVE
  TRACK 05 AUDIO
    TITLE "Perch"
    PERFORMER "Hasting's Street Opera"
    REM COMPOSER ""
    INDEX 01 00:00:00
FILE "06 - Taste of Honey.wav" WAVE
  TRACK 06 AUDIO
    TITLE "Taste of Honey"
    PERFORMER "Hasting's Street Opera"
    REM COMPOSER ""
    INDEX 01 00:00:00
FILE "07 - Think of Me.wav" WAVE
  TRACK 07 AUDIO
    TITLE "Think of Me"
    PERFORMER "Hasting's Street Opera"
    REM COMPOSER ""
    INDEX 01 00:00:00
FILE "08 - Summertime.wav" WAVE
  TRACK 08 AUDIO
    TITLE "Summertime"
    PERFORMER "Hasting's Street Opera"
    REM COMPOSER ""
    INDEX 01 00:00:00
Код: Выделить всё
-----------------------
DON'T MODIFY THIS FILE
-----------------------
PERFORMER: auCDtect Task Manager, ver. 1.5.1RC4 build 1.5.1.5
Copyright (c) 2008-2010 y-soft. All rights reserved
[url=http://y-soft.org]http://y-soft.org[/url]
ANALYZER: auCDtect: CD records authenticity detector, version 0.8.2
Copyright (c) 2004 Oleg Berngardt. All rights reserved.
Copyright (c) 2004 Alexander Djourik. All rights reserved.
FILE: 08 - Summertime.flac
  Size: 59306011 Hash: 669FFFBABC96FEBE31C3AC5905201B05 Accuracy: -m8
  Conclusion: CDDA 100%
  Signature: 0C5772A72BF4AAFE62FC362A47BAC0EFF8B4EE76
FILE: 07 - Think of Me.flac
  Size: 26564031 Hash: C2201E9111BB4493F6BF17858B0521EA Accuracy: -m8
  Conclusion: CDDA 100%
  Signature: 11C2A6F3998374ABEAB812E40AD3959185C32DB6
FILE: 06 - Taste of Honey.flac
  Size: 21971996 Hash: 4DA3FAD8031B8A554297FD0BECD3466C Accuracy: -m8
  Conclusion: CDDA 100%
  Signature: DF1ECA1AC5C1BEFE6494DF74E4F35276FC926011
FILE: 05 - Perch.flac
  Size: 22149031 Hash: 7D661053C8B24D6AB4A21E09441BA6A9 Accuracy: -m8
  Conclusion: CDDA 100%
  Signature: E4DFA13EBDA5CFC09FB2583C87B0FAE4845BB9F6
FILE: 04 - Lo-De-Do.flac
  Size: 1472827 Hash: 3BAC585C772837173A70F14FF89AA074 Accuracy: -m8
  Conclusion: CDDA 100%
  Signature: 8F5C991CBC932C7F0CCA47414CDDCA23763A5ECE
FILE: 03 - Scarborough Fair.flac
  Size: 36372437 Hash: EDA2BA2FA56AA3D24312080170A15DD4 Accuracy: -m8
  Conclusion: CDDA 100%
  Signature: 76158325BF0B9F505ADCC45EFA517043AEE5ECDC
FILE: 02 - Fool-August.flac
  Size: 18118852 Hash: 93841A2E774141B340892E1057C7AD5E Accuracy: -m8
  Conclusion: CDDA 100%
  Signature: FC290B25CF37A24E702F7E47B577CF895A55120A
FILE: 01 - Nobody Knows.flac
  Size: 43268144 Hash: 876AB69F8A047215B2921A9689F27AB3 Accuracy: -m8
  Conclusion: CDDA 100%
  Signature: E04A669B8BDFC43272F9378B2C952B34B406A30F
Код: Выделить всё
foobar2000 1.3.16 / Замер динамического диапазона (DR) 1.1.1
Дата отчёта:  2019-03-08 01:13:53
--------------------------------------------------------------------------------
Анализ:   Hasting's Street Opera / Slippery When Wet
--------------------------------------------------------------------------------
DR         Пики         RMS           Продолжительность трека
--------------------------------------------------------------------------------
DR8        0.00 дБ   -11.53 дБ      7:22 01-Nobody Knows
DR9        0.00 дБ   -12.39 дБ      3:54 02-Fool-August
DR8        0.00 дБ   -10.42 дБ      6:24 03-Scarborough Fair
DR13      -2.13 дБ   -22.21 дБ      0:22 04-Lo-De-Do
DR8       -0.27 дБ   -11.32 дБ      4:46 05-Perch
DR7       -0.02 дБ    -9.30 дБ      3:43 06-Taste of Honey
DR9        0.00 дБ   -11.79 дБ      5:30 07-Think of Me
DR10      -0.28 дБ   -13.34 дБ     13:56 08-Summertime
--------------------------------------------------------------------------------
Количество треков: 8
Реальные значения DR: DR9
Частота:   44100 Гц
Каналов:   2
Разрядность:   16
Битрейт:   567 кбит/с
Кодек:   FLAC
================================================================================

Unknown until now US private pressing from 1969. Underground psychedelic electric jazz-rock / improv sound with mellow folk-rock moves and homemade / basement atmosphere. Mostly instrumental with some cut-up vocal sounds and effects. A mix of self-penned songs and amazing cover versions of classics like “Summertime”, “Scarborough Fair” or “A Taste Of Honey” turned into hip, extended jams not so far away from the sound of the pioneering psychedelic ballroom bands from San Francisco. Electric & acoustic guitars, bass, drums, flute...
Named after an old Detroit blues LP, Hasting’s Street Opera was formed in Montclair, New Jersey by a group of young friends (Harry Wellott, Gordon Carlisle, Don Hathaway and Chris Nelson) influenced by blues, rock, jazz and the eclectic sounds emanating from freeform / underground FM radio stations: Blues Project, Butterfield Blues Band, Miles Davies, Pharaoh Sanders, Jethro Tull…
Initially born as a blues band, HSO eventually evolved into a true improvisation collective unit. “Slippery When Wet” was recorded in 1969 at Don’s house using a portable recorder operated by their math teacher, the famous old-time music preserver Charles Faurot. It was a vanity pressing of less than 100 copies, housed in hand-made covers which were distributed among friends and family.
For this, the first ever reissue, original band member and visual artist Gordon Carlisle has designed a new vintage styled cover using old photos of the band.
*First ever reissue.
*Insert with liner notes by the band members and photos.
[guerssenrecords]
- Don Hathaway ("Cro-Magnon Man") / flute
- Chris Nelson ("Bumble Bee") / guitar
- Gordon Carlisle ("Mole") / bass guitar, acoustic guitar
- Harry ("H.Root") Wellott / drums
+
- Woody Carland / piano (7)
Правила, инструкции, FAQ!!!
Торрент  Добавлен [09 мар 2019, 11:27] Скачать торрент Магнет ссылка
Скачать торрент
14 КБ

Статус
Проверен 
 
Размер  311.99 МБ
Приватный: Нет (DHT включён)
.torrent скачан  1
Как залить торрент? | Как скачать Torrent? | Как смотреть и слушать онлайн?  
Гость
 



Вернуться в Progressive & Art-Rock

Кто сейчас на конференции

Сейчас этот форум просматривают: нет зарегистрированных пользователей и гости: 0