(Progressive Rock, World Fusion) [CD] Consider the Source - You Are Literally a Metaphor - 2019, FLAC (tracks+.cue), lossless


Статистика раздачи
Размер: 455.82 МБ | Добавлен: 09 мар 2019, 11:25 | Скачали: 0
Сидеров: 0  [0 байт/сек]    Личеров: 0  [0 байт/сек]

Сообщение Гость » 09 мар 2019, 11:25

Consider the Source / You Are Literally a Metaphor
Жанр: Progressive Rock, World Fusion
Носитель: CD
Год издания: 2019
Издатель (лейбл): Independent
Страна исполнителя (группы): United States
Аудиокодек: FLAC (*.flac)
Тип рипа: tracks+.cue
Битрейт аудио: lossless
Продолжительность: 01:12:51
Источник: (релизер): zapahgary
Наличие сканов в содержимом раздачи: нет
Треклист:
01. Sketches From a Blind Man
02. The One Who Knocks
03. Unfulfilled and Alienated
04. It Is Known
05. They Call Him The Smiling Assassin
06. Misinterpretive Dane
07. You Won A Goat!
08. When You've Loved an Lost Like Frankie Has
09. Enemies of magicK
Код: Выделить всё
Exact Audio Copy V1.3 from 2. September 2016
EAC extraction logfile from 3. March 2019, 11:50
Consider the Source / You Are Literally A Metaphor
Used drive  : Dell    DVD+/-RW DW316   Adapter: 1  ID: 0
Read mode               : Secure
Utilize accurate stream : Yes
Defeat audio cache      : Yes
Make use of C2 pointers : No
Read offset correction                      : 6
Overread into Lead-In and Lead-Out          : No
Fill up missing offset samples with silence : Yes
Delete leading and trailing silent blocks   : No
Null samples used in CRC calculations       : Yes
Used interface                              : Native Win32 interface for Win NT & 2000
Gap handling                                : Appended to previous track
Used output format              : User Defined Encoder
Selected bitrate                : 1024 kBit/s
Quality                         : High
Add ID3 tag                     : No
Command line compressor         : C:\Program Files (x86)\Exact Audio Copy\Flac\flac.exe
Additional command line options : -8 -V -T "ARTIST=%artist%" -T "TITLE=%title%" -T "ALBUM=%albumtitle%" -T "DATE=%year%" -T "TRACKNUMBER=%tracknr%" -T "GENRE=%genre%" -T "PERFORMER=%albuminterpret%" -T "COMPOSER=%composer%" %haslyrics%--tag-from-file=LYRICS="%lyricsfile%"%haslyrics% -T "ALBUMARTIST=%albumartist%" -T "DISCNUMBER=%cdnumber%" -T "TOTALDISCS=%totalcds%" -T "TOTALTRACKS=%numtracks%" -T "COMMENT=%comment%" %source% -o %dest%
TOC of the extracted CD
     Track |   Start  |  Length  | Start sector | End sector
    ---------------------------------------------------------
        1  |  0:00.00 |  7:29.49 |         0    |    33723
        2  |  7:29.49 |  7:43.63 |     33724    |    68511
        3  | 15:13.37 |  3:04.66 |     68512    |    82377
        4  | 18:18.28 | 11:45.29 |     82378    |   135281
        5  | 30:03.57 |  7:29.09 |    135282    |   168965
        6  | 37:32.66 |  9:20.15 |    168966    |   210980
        7  | 46:53.06 |  7:19.19 |    210981    |   243924
        8  | 54:12.25 |  6:51.12 |    243925    |   274761
        9  | 61:03.37 | 11:47.71 |    274762    |   327857
Track  1
     Filename D:\EAC Rips\Consider the Source - You Are Literally A Metaphor (2019) [FLAC]\01 Sketches From a Blind Man.wav
     Pre-gap length  0:00:02.00
     Peak level 97.7 %
     Extraction speed 3.1 X
     Track quality 100.0 %
     Test CRC 6EFFC023
     Copy CRC 6EFFC023
     Track not present in AccurateRip database
     Copy OK
Track  2
     Filename D:\EAC Rips\Consider the Source - You Are Literally A Metaphor (2019) [FLAC]\02 The One Who Knocks.wav
     Peak level 97.7 %
     Extraction speed 3.6 X
     Track quality 100.0 %
     Test CRC 9B777C71
     Copy CRC 9B777C71
     Track not present in AccurateRip database
     Copy OK
Track  3
     Filename D:\EAC Rips\Consider the Source - You Are Literally A Metaphor (2019) [FLAC]\03 Unfulfilled and Alienated.wav
     Peak level 97.7 %
     Extraction speed 3.6 X
     Track quality 100.0 %
     Test CRC D8848742
     Copy CRC D8848742
     Track not present in AccurateRip database
     Copy OK
Track  4
     Filename D:\EAC Rips\Consider the Source - You Are Literally A Metaphor (2019) [FLAC]\04 It Is Known.wav
     Peak level 97.7 %
     Extraction speed 4.5 X
     Track quality 100.0 %
     Test CRC 670FFB21
     Copy CRC 670FFB21
     Track not present in AccurateRip database
     Copy OK
Track  5
     Filename D:\EAC Rips\Consider the Source - You Are Literally A Metaphor (2019) [FLAC]\05 They Call Him The Smiling Assassin.wav
     Peak level 97.7 %
     Extraction speed 4.8 X
     Track quality 100.0 %
     Test CRC 4D25AFE0
     Copy CRC 4D25AFE0
     Track not present in AccurateRip database
     Copy OK
Track  6
     Filename D:\EAC Rips\Consider the Source - You Are Literally A Metaphor (2019) [FLAC]\06 Misinterpretive Dance.wav
     Peak level 97.7 %
     Extraction speed 5.3 X
     Track quality 100.0 %
     Test CRC 08F92390
     Copy CRC 08F92390
     Track not present in AccurateRip database
     Copy OK
Track  7
     Filename D:\EAC Rips\Consider the Source - You Are Literally A Metaphor (2019) [FLAC]\07 You Won A Goat!.wav
     Peak level 97.7 %
     Extraction speed 5.5 X
     Track quality 100.0 %
     Test CRC C1E44BC5
     Copy CRC C1E44BC5
     Track not present in AccurateRip database
     Copy OK
Track  8
     Filename D:\EAC Rips\Consider the Source - You Are Literally A Metaphor (2019) [FLAC]\08 When You've Loved and Lost Like Frankie Has.wav
     Peak level 97.7 %
     Extraction speed 5.8 X
     Track quality 100.0 %
     Test CRC AB62941E
     Copy CRC AB62941E
     Track not present in AccurateRip database
     Copy OK
Track  9
     Filename D:\EAC Rips\Consider the Source - You Are Literally A Metaphor (2019) [FLAC]\09 Enemies of magicK.wav
     Peak level 97.7 %
     Extraction speed 6.3 X
     Track quality 100.0 %
     Test CRC F3FF43C5
     Copy CRC F3FF43C5
     Track not present in AccurateRip database
     Copy OK
None of the tracks are present in the AccurateRip database
No errors occurred
End of status report
---- CUETools DB Plugin V2.1.6
[CTDB TOCID: 41VKt5JyI3teYTudKY32wPyctrQ-] disk not present in database
Submit result: 41VKt5JyI3teYTudKY32wPyctrQ- has been uploaded
==== Log checksum C0510645FF029D0721B82D733A2C941EF2E64C681F24B6F408F1CB4E35154AB8 ====
Код: Выделить всё
REM GENRE "Progressive Rock"
REM DATE 2019
REM DISCID 6A111309
REM COMMENT "ExactAudioCopy v1.3"
PERFORMER "Consider the Source"
TITLE "You Are Literally A Metaphor"
REM COMPOSER ""
FILE "01 Sketches From a Blind Man.wav" WAVE
  TRACK 01 AUDIO
    TITLE "Sketches From a Blind Man"
    PERFORMER "Consider the Source"
    REM COMPOSER ""
    ISRC QM32D1900001
    INDEX 01 00:00:00
FILE "02 The One Who Knocks.wav" WAVE
  TRACK 02 AUDIO
    TITLE "The One Who Knocks"
    PERFORMER "Consider the Source"
    REM COMPOSER ""
    ISRC QM32D1900002
    INDEX 01 00:00:00
FILE "03 Unfulfilled and Alienated.wav" WAVE
  TRACK 03 AUDIO
    TITLE "Unfulfilled and Alienated"
    PERFORMER "Consider the Source"
    REM COMPOSER ""
    ISRC QM32D1900003
    INDEX 01 00:00:00
FILE "04 It Is Known.wav" WAVE
  TRACK 04 AUDIO
    TITLE "It Is Known"
    PERFORMER "Consider the Source"
    REM COMPOSER ""
    ISRC QM32D1900004
    INDEX 01 00:00:00
FILE "05 They Call Him The Smiling Assassin.wav" WAVE
  TRACK 05 AUDIO
    TITLE "They Call Him The Smiling Assassin"
    PERFORMER "Consider the Source"
    REM COMPOSER ""
    ISRC QM32D1900005
    INDEX 01 00:00:00
FILE "06 Misinterpretive Dance.wav" WAVE
  TRACK 06 AUDIO
    TITLE "Misinterpretive Dance"
    PERFORMER "Consider the Source"
    REM COMPOSER ""
    ISRC QM32D1900006
    INDEX 01 00:00:00
FILE "07 You Won A Goat!.wav" WAVE
  TRACK 07 AUDIO
    TITLE "You Won A Goat!"
    PERFORMER "Consider the Source"
    REM COMPOSER ""
    ISRC QM32D1900007
    INDEX 01 00:00:00
FILE "08 When You've Loved and Lost Like Frankie Has.wav" WAVE
  TRACK 08 AUDIO
    TITLE "When You've Loved and Lost Like Frankie Has"
    PERFORMER "Consider the Source"
    REM COMPOSER ""
    ISRC QM32D1900008
    INDEX 01 00:00:00
FILE "09 Enemies of magicK.wav" WAVE
  TRACK 09 AUDIO
    TITLE "Enemies of magicK"
    PERFORMER "Consider the Source"
    REM COMPOSER ""
    ISRC QM32D1900009
    INDEX 01 00:00:00
Доп. информация: released March 1, 2019
Consider The Source is:
Gabriel Marin - Double Neck Guitar
John Ferrara - Bass Guitar
Jeff Mann - Drums/Percussion
Правила, инструкции, FAQ!!!
Торрент  Добавлен [09 мар 2019, 11:25] Скачать торрент Магнет ссылка
Скачать торрент
19.08 КБ

Статус
Проверен 
 
Размер  455.82 МБ
Приватный: Нет (DHT включён)
.torrent скачан  0
Как залить торрент? | Как скачать Torrent? | Как смотреть и слушать онлайн?  
Гость
 



Вернуться в Progressive & Art-Rock

Кто сейчас на конференции

Сейчас этот форум просматривают: нет зарегистрированных пользователей и гости: 0