(Progressive Rock) The Alan Parsons Project - Gaudi 1987 (Arista Rec., ARCD 8448,Japan for US) 1987, FLAC (image+.cue) lossless


Статистика раздачи
Размер: 308.14 МБ | Добавлен: 09 мар 2019, 11:25 | Скачали: 2
Сидеров: 13  [0 байт/сек]    Личеров: 2  [0 байт/сек]

Сообщение Гость » 09 мар 2019, 11:25



The Alan Parsons Project - Gaudi
Жанр: Progressive Rock
Носитель: CD
Страна-производитель диска: Japan
Год издания: 1987
Издатель (лейбл): Arista
Номер по каталогу: ARCD 8448
Страна: England
Аудиокодек: FLAC (*.flac)
Тип рипа: image+.cue
Битрейт аудио: lossless
Продолжительность:
Источник (релизер): собственный
Наличие сканов в содержимом раздачи: да
Треклист:
01. La Sagrada Familia
02. Too Late
03. Closer To Heaven
04. Standing On Higher Ground
05. Money Talks
06. Inside Looking Out
07. Paseo De Gracia
Код: Выделить всё
Exact Audio Copy V1.3 from 2. September 2016
EAC extraction logfile from 4. March 2019, 17:50
Alan Parsons Project / Gaudi
Used drive  : SONY    BD RW BDX-S600U   Adapter: 1  ID: 2
Read mode               : Secure
Utilize accurate stream : Yes
Defeat audio cache      : Yes
Make use of C2 pointers : No
Read offset correction                      : 48
Overread into Lead-In and Lead-Out          : No
Fill up missing offset samples with silence : Yes
Delete leading and trailing silent blocks   : No
Null samples used in CRC calculations       : Yes
Used interface                              : Native Win32 interface for Win NT & 2000
Used output format              : User Defined Encoder
Selected bitrate                : 896 kBit/s
Quality                         : High
Add ID3 tag                     : No
Command line compressor         : C:\Program Files (x86)\Exact Audio Copy\FLAC\FLAC.EXE
Additional command line options : -V -8 -T "Date=%year%" -T "Genre=%genre%" %source%
TOC of the extracted CD
     Track |   Start  |  Length  | Start sector | End sector
    ---------------------------------------------------------
        1  |  0:00.00 |  8:46.67 |         0    |    39516
        2  |  8:46.67 |  4:31.20 |     39517    |    59861
        3  | 13:18.12 |  5:52.73 |     59862    |    86334
        4  | 19:11.10 |  5:03.50 |     86335    |   109109
        5  | 24:14.60 |  4:26.32 |    109110    |   129091
        6  | 28:41.17 |  6:22.33 |    129092    |   157774
        7  | 35:03.50 |  3:47.12 |    157775    |   174811
Range status and errors
Selected range
     Filename K:\The Alan Parsons Project - Discography\Studio\1987. The Alan Parsons Project - Gaudi\1987. The Alan Parsons Project - Gaudi (Arista Rec., ARCD 8448,Japan for US)\Alan Parsons Project - Gaudi.wav
     Peak level 100.0 %
     Extraction speed 9.5 X
     Range quality 100.0 %
     Test CRC 31B01C2D
     Copy CRC 31B01C2D
     Copy OK
No errors occurred
AccurateRip summary
Track  1  accurately ripped (confidence 48)  [0ED09D6A]  (AR v2)
Track  2  accurately ripped (confidence 49)  [58D0F091]  (AR v2)
Track  3  accurately ripped (confidence 50)  [745FC6F6]  (AR v2)
Track  4  accurately ripped (confidence 49)  [D272A1F7]  (AR v2)
Track  5  accurately ripped (confidence 51)  [08B7D8F6]  (AR v2)
Track  6  accurately ripped (confidence 49)  [B2BF00FE]  (AR v2)
Track  7  accurately ripped (confidence 51)  [17BC7E90]  (AR v2)
All tracks accurately ripped
End of status report
---- CUETools DB Plugin V2.1.6
[CTDB TOCID: OCPY8yLo26M174nAp7L6w9gMfzE-] found
Submit result: OCPY8yLo26M174nAp7L6w9gMfzE- has been confirmed
Track | CTDB Status
  1   | (123/125) Accurately ripped
  2   | (125/125) Accurately ripped
  3   | (125/125) Accurately ripped
  4   | (124/125) Accurately ripped
  5   | (124/125) Accurately ripped
  6   | (125/125) Accurately ripped
  7   | (123/125) Accurately ripped
==== Log checksum 317A744B7C438D712FFCEA1DD57080BCF9FE4BDD5B448CCB8AD562D84E85DCF9 ====
Код: Выделить всё
REM GENRE Pop
REM DATE 1987
REM DISCID 48091A07
REM COMMENT "ExactAudioCopy v1.3"
PERFORMER "Alan Parsons Project"
TITLE "Gaudi "
REM COMPOSER ""
FILE "Alan Parsons Project - Gaudi.flac" WAVE
  TRACK 01 AUDIO
    TITLE "La Sagrada Familia"
    PERFORMER "Alan Parsons Project"
    REM COMPOSER ""
    INDEX 01 00:00:00
  TRACK 02 AUDIO
    TITLE "Too Late"
    PERFORMER "Alan Parsons Project"
    REM COMPOSER ""
    INDEX 01 08:46:67
  TRACK 03 AUDIO
    TITLE "Closer To Heaven"
    PERFORMER "Alan Parsons Project"
    REM COMPOSER ""
    INDEX 01 13:18:12
  TRACK 04 AUDIO
    TITLE "Standing On Higher Ground"
    PERFORMER "Alan Parsons Project"
    REM COMPOSER ""
    INDEX 01 19:11:10
  TRACK 05 AUDIO
    TITLE "Money Talks"
    PERFORMER "Alan Parsons Project"
    REM COMPOSER ""
    INDEX 00 24:14:27
    INDEX 01 24:14:60
  TRACK 06 AUDIO
    TITLE "Inside Looking Out"
    PERFORMER "Alan Parsons Project"
    REM COMPOSER ""
    INDEX 01 28:41:17
  TRACK 07 AUDIO
    TITLE "Paseo De Gracia"
    PERFORMER "Alan Parsons Project"
    REM COMPOSER ""
    INDEX 01 35:03:50

Правила, инструкции, FAQ!!!
Торрент  Добавлен [09 мар 2019, 11:25] Скачать торрент Магнет ссылка
Скачать торрент
13.07 КБ

Статус
Проверен 
 
Размер  308.14 МБ
Приватный: Нет (DHT включён)
.torrent скачан  2
Как залить торрент? | Как скачать Torrent? | Как смотреть и слушать онлайн?  
Гость
 



Вернуться в Progressive & Art-Rock

Кто сейчас на конференции

Сейчас этот форум просматривают: нет зарегистрированных пользователей и гости: 0