(Progressive Rock/Symphonic Prog) [WEB] Vagar (Vágar) - The Inner Eye - Part One (EP) - 2019, FLAC (tracks), lossless


Статистика раздачи
Размер: 169.24 МБ | Добавлен: 09 мар 2019, 11:25 | Скачали: 0
Сидеров: 1  [0 байт/сек]    Личеров: 0  [0 байт/сек]

Сообщение Гость » 09 мар 2019, 11:25

Vágar / The Inner Eye - Part One
Жанр: Progressive Rock/Symphonic Prog
Носитель: WEB
Год издания: 2019
Страна исполнителя (группы): Canada
Аудиокодек: FLAC (*.flac)
Тип рипа: tracks
Битрейт аудио: lossless
Продолжительность: 25:54
Источник: собственная покупка
Наличие сканов в содержимом раздачи: нет

01. The Inner Eye [00:04:59]
02. Enticement [00:05:15]
03. Capture [00:04:07]
04. The Storm [00:06:10]
05. Dreambound [00:05:22]
Released March 1, 2019
Xavier Gervais-Dumont - Vocals
Conrad Skierka - Guitars
Jesse Plessis - Keyboards
Frédéric Laurier-Monpetit - Bass
Maxime Bédard - Drums
Rose Tremblay, Gabriel Frank, Luce Chamberland - Additional Vocals
Код: Выделить всё
-----------------------
DON'T MODIFY THIS FILE
-----------------------
PERFORMER: auCDtect Task Manager, ver. 1.6.0 RC1 build 1.6.0.1
Copyright (c) 2008-2010 y-soft. All rights reserved
[url=http://y-soft.org]http://y-soft.org[/url]
ANALYZER: auCDtect: CD records authenticity detector, version 0.8.2
Copyright (c) 2004 Oleg Berngardt. All rights reserved.
Copyright (c) 2004 Alexander Djourik. All rights reserved.
FILE: 05. Dreambound.flac
  Size: 35213692 Hash: 8A3FBD69CEC425282161611AD83D4900 Accuracy: -m0
  Conclusion: CDDA 100%
  Signature: 933AC36DCFADDF8A19F5A229CFA6C38C9D03554B
FILE: 04. The Storm.flac
  Size: 40360143 Hash: 112BB77921F7E78134E6BB6F66A913B6 Accuracy: -m0
  Conclusion: CDDA 100%
  Signature: 2A8DA0AB45F6A05330118C873343DAFA8055C264
FILE: 03. Capture.flac
  Size: 26857516 Hash: B8DE9773E9883555B08CD71EE9E40FE5 Accuracy: -m0
  Conclusion: CDDA 100%
  Signature: DDFB9A13AA87A7EB0EFD1B870DB3A0CFB5FB5B0E
FILE: 02. Enticement.flac
  Size: 36898546 Hash: 3BF20F32DFDF616756C50A7440BDCC11 Accuracy: -m0
  Conclusion: CDDA 100%
  Signature: 1B654B9C9B106FD02188CC38D0FC7718D76A63EA
FILE: 01. The Inner Eye.flac
  Size: 32257417 Hash: 5B8A78330A771F3EFFF5EC0BA7D1E8F0 Accuracy: -m0
  Conclusion: CDDA 100%
  Signature: DCD94BCB56FFB34D6049BD5FAFD2A8A7B48F2D57
Код: Выделить всё
foobar2000 1.3.12 / Dynamic Range Meter 1.1.1
log date: 2019-03-06 12:53:30
--------------------------------------------------------------------------------
Analyzed: Vágar / The Inner Eye - Part One
--------------------------------------------------------------------------------
DR         Peak         RMS     Duration Track
--------------------------------------------------------------------------------
DR13      -0.16 dB   -14.87 dB      4:59 01-The Inner Eye
DR12      -0.19 dB   -13.51 dB      5:16 02-Enticement
DR13      -0.06 dB   -14.77 dB      4:08 03-Capture
DR12      -0.04 dB   -14.26 dB      6:11 04-The Storm
DR13      -0.29 dB   -15.06 dB      5:22 05-Dreambound
--------------------------------------------------------------------------------
Number of tracks:  5
Official DR value: DR12
Samplerate:        44100 Hz
Channels:          2
Bits per sample:   16
Bitrate:           871 kbps
Codec:             FLAC
================================================================================
Правила, инструкции, FAQ!!!
Торрент  Добавлен [09 мар 2019, 11:25] Скачать торрент Магнет ссылка
Скачать торрент
14.03 КБ

Статус
Проверен 
 
Размер  169.24 МБ
Приватный: Нет (DHT включён)
.torrent скачан  0
Как залить торрент? | Как скачать Torrent? | Как смотреть и слушать онлайн?  
Гость
 



Вернуться в Progressive & Art-Rock

Кто сейчас на конференции

Сейчас этот форум просматривают: нет зарегистрированных пользователей и гости: 0