(Progressive Rock/Symphonic Prog) [WEB] Caravela Escarlate - s/t - 2019 (2017), FLAC (tracks), lossless


Статистика раздачи
Размер: 364.89 МБ | Добавлен: 09 мар 2019, 11:25 | Скачали: 0
Сидеров: 0  [0 байт/сек]    Личеров: 0  [0 байт/сек]

Сообщение Гость » 09 мар 2019, 11:25

Caravela Escarlate / s/t
Жанр: Progressive Rock/Symphonic Prog
Носитель: WEB
Год издания: 2019
Страна исполнителя (группы): Brazil
Аудиокодек: FLAC (*.flac)
Тип рипа: tracks
Битрейт аудио: lossless
Продолжительность: 53:31
Источник: собственная покупка
Наличие сканов в содержимом раздачи: нет

01. Um Brilho Fragil no Infinito [00:05:12]
02. Caravela Escarlate [00:04:39]
03. Atmosfera [00:06:29]
04. Gigantes da Destruição [00:06:53]
05. Toque as Constelações [00:05:22]
06. Futuro Passado [00:04:45]
07. Cosmos [00:08:34]
08. Planeta-Estrela [00:11:34]
Originally released in 2017 (CD/Digital self-released)
Released March 1, 2019 on Karisma Records
David Paiva (Caravelle) - Guitar, Acoustic Guitar, Bass, Vocals
Ronaldo Rodrigues - Keyboards
Elcio Cáfaro - Drums
Код: Выделить всё
-----------------------
DON'T MODIFY THIS FILE
-----------------------
PERFORMER: auCDtect Task Manager, ver. 1.6.0 RC1 build 1.6.0.1
Copyright (c) 2008-2010 y-soft. All rights reserved
[url=http://y-soft.org]http://y-soft.org[/url]
ANALYZER: auCDtect: CD records authenticity detector, version 0.8.2
Copyright (c) 2004 Oleg Berngardt. All rights reserved.
Copyright (c) 2004 Alexander Djourik. All rights reserved.
FILE: Caravela Escarlate - Caravela Escarlate - 08 Planeta-Estrela.flac
  Size: 79872752 Hash: C55F155FC99C683D641270233457BBD8 Accuracy: -m0
  Conclusion: CDDA 100%
  Signature: 91881D77FEB5188FC1DAA0E2CE1DFE0B63820B7E
FILE: Caravela Escarlate - Caravela Escarlate - 07 Cosmos.flac
  Size: 58015410 Hash: C023FE491B211C4545CDF37FFD9F4361 Accuracy: -m0
  Conclusion: CDDA 99%
  Signature: C9AD2E03F7ACE2F28CB17A8F9A86F113F1A6AA7F
FILE: Caravela Escarlate - Caravela Escarlate - 06 Futuro Passado.flac
  Size: 33935260 Hash: E832312D60200FDB2088A0351A844B25 Accuracy: -m0
  Conclusion: CDDA 100%
  Signature: 184120207ACC1C359B951F20051A09BEEE5A7B56
FILE: Caravela Escarlate - Caravela Escarlate - 05 Toque as Constelações.flac
  Size: 35528435 Hash: 4821C4C5CD3268B44CEAEACCE565C540 Accuracy: -m0
  Conclusion: CDDA 100%
  Signature: 72C52E53DD0A5092D03648F3279D19A706C98018
FILE: Caravela Escarlate - Caravela Escarlate - 04 Gigantes da Destruição.flac
  Size: 46609459 Hash: 9ADBA44D9F6DA4DA3C49D014E8903685 Accuracy: -m0
  Conclusion: CDDA 100%
  Signature: 9686B72F877211B2B03A596D08590D6E594FAF3C
FILE: Caravela Escarlate - Caravela Escarlate - 03 Atmosfera.flac
  Size: 49569149 Hash: 3915EEADD677FE7B33A25D91C22D76AF Accuracy: -m0
  Conclusion: CDDA 99%
  Signature: 7A82EED2323843E0753648F69377C7F875DE5957
FILE: Caravela Escarlate - Caravela Escarlate - 02 Caravela Escarlate.flac
  Size: 34005238 Hash: A35BA8ECCA5ED5EC55C26F85CEC30E3F Accuracy: -m0
  Conclusion: CDDA 100%
  Signature: B7284595EBE34FB4B5A1EBE53EB349C4E652E1A1
FILE: Caravela Escarlate - Caravela Escarlate - 01 Um Brilho Fragil no Infinito.flac
  Size: 37902368 Hash: 8EFE0AE70A9DB389A69173EFD64834A3 Accuracy: -m0
  Conclusion: CDDA 100%
  Signature: 5356506F23CBCCB74D262715AAF668871DACCE3D
Код: Выделить всё
foobar2000 1.3.12 / Dynamic Range Meter 1.1.1
log date: 2019-03-07 07:29:52
--------------------------------------------------------------------------------
Analyzed: Caravela Escarlate / Caravela Escarlate
--------------------------------------------------------------------------------
DR         Peak         RMS     Duration Track
--------------------------------------------------------------------------------
DR8       -0.01 dB   -10.06 dB      5:13 01-Um Brilho Fragil no Infinito
DR8       -0.63 dB    -9.86 dB      4:39 02-Caravela Escarlate
DR9       -0.11 dB   -11.24 dB      6:30 03-Atmosfera
DR9       -0.62 dB   -11.93 dB      6:53 04-Gigantes da Destruição
DR9       -0.65 dB   -11.13 dB      5:22 05-Toque as Constelações
DR7       -0.67 dB    -9.23 dB      4:46 06-Futuro Passado
DR9       -0.64 dB   -10.93 dB      8:35 07-Cosmos
DR7       -0.51 dB   -11.64 dB     11:34 08-Planeta-Estrela
--------------------------------------------------------------------------------
Number of tracks:  8
Official DR value: DR8
Samplerate:        44100 Hz
Channels:          2
Bits per sample:   16
Bitrate:           919 kbps
Codec:             FLAC
================================================================================
Правила, инструкции, FAQ!!!
Торрент  Добавлен [09 мар 2019, 11:25] Скачать торрент Магнет ссылка
Скачать торрент
15.23 КБ

Статус
Проверен 
 
Размер  364.89 МБ
Приватный: Нет (DHT включён)
.torrent скачан  0
Как залить торрент? | Как скачать Torrent? | Как смотреть и слушать онлайн?  
Гость
 



Вернуться в Progressive & Art-Rock

Кто сейчас на конференции

Сейчас этот форум просматривают: нет зарегистрированных пользователей и гости: 0