(Progressive Rock) [WEB] Sid Vision - Feverish - 2019, FLAC (tracks), lossless


Статистика раздачи
Размер: 221.39 МБ | Добавлен: 09 мар 2019, 11:25 | Скачали: 0
Сидеров: 25  [0 байт/сек]    Личеров: 8  [0 байт/сек]

Сообщение Гость » 09 мар 2019, 11:25

Sid Vision / Feverish
Жанр: Progressive Rock
Носитель: WEB
Год издания: 2019
Страна исполнителя (группы): Germany
Аудиокодек: FLAC (*.flac)
Тип рипа: tracks
Битрейт аудио: lossless
Продолжительность: 36:57
Источник: собственная покупка
Наличие сканов в содержимом раздачи: нет

01. Feverish [00:02:41]
02. The Darkness We're In [00:05:23]
03. Interlude [00:01:17]
04. For The Kids [00:05:16]
05. The Tribe [00:05:55]
06. Drown Pt.I [00:07:33]
07. Drown Pt.II [00:08:50]
Released February 24, 2019
Sidney Klein (Vocals & Guitar)
Sonic Sebastian (Bass & Keys)
Erik Zaiser (Keys)
Paul Klein (Drums)
Additional musicians:
Mia Diekow: Backing Vocals (Track 4,5,6)
Elisabeth Sommer: Cello (Track 4)
Johanna Marcy: Violin (Track 4)
Helena June Klein: Spoken Words (Track 3)
Код: Выделить всё
-----------------------
DON'T MODIFY THIS FILE
-----------------------
PERFORMER: auCDtect Task Manager, ver. 1.6.0 RC1 build 1.6.0.1
Copyright (c) 2008-2010 y-soft. All rights reserved
[url=http://y-soft.org]http://y-soft.org[/url]
ANALYZER: auCDtect: CD records authenticity detector, version 0.8.2
Copyright (c) 2004 Oleg Berngardt. All rights reserved.
Copyright (c) 2004 Alexander Djourik. All rights reserved.
FILE: Sid Vision - Feverish - 07 Drown Pt.II.flac
  Size: 53143467 Hash: 4CD63EA68B2CF59012C63E6B97BCF198 Accuracy: -m0
  Conclusion: CDDA 100%
  Signature: EA67A672D2F5094DE667E8503CFDE8213962DBE4
FILE: Sid Vision - Feverish - 06 Drown Pt.I.flac
  Size: 44798437 Hash: 0B1DED6109E8D5DD39E4E24C61105D64 Accuracy: -m0
  Conclusion: CDDA 100%
  Signature: 1DF06DB5789940CF2C2AADFF2725A689BC9FE568
FILE: Sid Vision - Feverish - 05 The Tribe.flac
  Size: 38712083 Hash: 98015486EB7F5AA936EA869B4EDFE59C Accuracy: -m0
  Conclusion: CDDA 100%
  Signature: 2138ED7D16EC9AA6C7E47D65C249C142B82CCB9F
FILE: Sid Vision - Feverish - 04 For The Kids.flac
  Size: 31704047 Hash: 493C57E58E77C60A09CDF73881E1AFAA Accuracy: -m0
  Conclusion: CDDA 100%
  Signature: 6CEAA35D10DDD9DE12134907DC343034220EB1FE
FILE: Sid Vision - Feverish - 03 Interlude.flac
  Size: 5977640 Hash: 67D81F7A41912567A54BFEE8D45FFBC8 Accuracy: -m0
  Conclusion: CDDA 43%
  Signature: BA86260CA613A5C4F26069C5E06D19DF99304A4A
FILE: Sid Vision - Feverish - 02 The Darkness We're In.flac
  Size: 34985160 Hash: 709D93372099DE83C5B9500FF9CA66D6 Accuracy: -m0
  Conclusion: CDDA 100%
  Signature: 8B0918482AFE35882DD1FE667F4B1A10621FA9D6
FILE: Sid Vision - Feverish - 01 Feverish.flac
  Size: 13016777 Hash: A421E90784AC10E32316AB8B9782A000 Accuracy: -m0
  Conclusion: CDDA 100%
  Signature: 84FB82DB2F115AE8F1726540678BEB52478F1431
Код: Выделить всё
foobar2000 1.3.12 / Dynamic Range Meter 1.1.1
log date: 2019-03-03 09:04:00
--------------------------------------------------------------------------------
Analyzed: Sid Vision / Feverish
--------------------------------------------------------------------------------
DR         Peak         RMS     Duration Track
--------------------------------------------------------------------------------
DR9       -0.29 dB   -12.46 dB      2:41 01-Feverish
DR8       -0.26 dB   -10.21 dB      5:23 02-The Darkness We're In
DR9       -0.32 dB   -13.00 dB      1:17 03-Interlude
DR8       -0.27 dB   -10.99 dB      5:17 04-For The Kids
DR8       -0.28 dB   -10.36 dB      5:55 05-The Tribe
DR8       -0.27 dB   -11.12 dB      7:33 06-Drown Pt.I
DR7       -0.28 dB   -10.45 dB      8:51 07-Drown Pt.II
--------------------------------------------------------------------------------
Number of tracks:  7
Official DR value: DR8
Samplerate:        44100 Hz
Channels:          2
Bits per sample:   16
Bitrate:           799 kbps
Codec:             FLAC
================================================================================
Правила, инструкции, FAQ!!!
Торрент  Добавлен [09 мар 2019, 11:25] Скачать торрент Магнет ссылка
Скачать торрент
18.17 КБ

Статус
Проверен 
 
Размер  221.39 МБ
Приватный: Нет (DHT включён)
.torrent скачан  0
Как залить торрент? | Как скачать Torrent? | Как смотреть и слушать онлайн?  
Гость
 



Вернуться в Progressive & Art-Rock

Кто сейчас на конференции

Сейчас этот форум просматривают: нет зарегистрированных пользователей и гости: 1