(Progressive Rock) [WEB] Machines Dream - Black Science - 2017, FLAC (tracks), lossless


Статистика раздачи
Размер: 332.08 МБ | Добавлен: 09 мар 2019, 11:25 | Скачали: 0
Сидеров: 16  [0 байт/сек]    Личеров: 5  [0 байт/сек]

Сообщение Гость » 09 мар 2019, 11:25

Machines Dream / Black Science
Жанр: Progressive Rock
Носитель: WEB
Год издания: 2017
Страна исполнителя (группы): Canada
Аудиокодек: FLAC (*.flac)
Тип рипа: tracks
Битрейт аудио: lossless
Продолжительность: 53:24
Источник: собственная покупка
Наличие сканов в содержимом раздачи: нет

01. Armistice Day [00:01:34]
02. Weimar [00:10:40]
03. The Cannons Cry [00:04:18]
04. Heavy Water [00:08:36]
05. Airfield On Sunwick [00:06:11]
06. Black Science [00:08:17]
07. UXB [00:04:59]
08. Noise To Signal [00:08:47]
Released June 12, 2017
Brian Holmes: Keyboards
Craig West: Bass and Vocals
Jake Rendell: Acoustic and Backing Vocals
Ken Coulter: Drums
Rob Coleman: Lead Guitar
With:
Jakub Olejnik - Vocals
Jenny Gauvreau - Backing Vocals
Chris Belsito - Backing Vocals
Josh Norling - Sax
Код: Выделить всё
-----------------------
DON'T MODIFY THIS FILE
-----------------------
PERFORMER: auCDtect Task Manager, ver. 1.6.0 RC1 build 1.6.0.1
Copyright (c) 2008-2010 y-soft. All rights reserved
[url=http://y-soft.org]http://y-soft.org[/url]
ANALYZER: auCDtect: CD records authenticity detector, version 0.8.2
Copyright (c) 2004 Oleg Berngardt. All rights reserved.
Copyright (c) 2004 Alexander Djourik. All rights reserved.
FILE: Machines Dream - Black Science - 08 Noise To Signal.flac
  Size: 56221491 Hash: A80A86D89C1369FE71928C4CC973156F Accuracy: -m0
  Conclusion: CDDA 99%
  Signature: 798D98AB56359D9D9519051C8635AA34C8FB2422
FILE: Machines Dream - Black Science - 07 UXB.flac
  Size: 31442636 Hash: DA9B47179CC77D125E504660A8F569D9 Accuracy: -m0
  Conclusion: CDDA 100%
  Signature: 1FA21E95C09B1E2789D91D7EE4B888EB7329DAF9
FILE: Machines Dream - Black Science - 06 Black Science.flac
  Size: 52481298 Hash: 3E05E5E7D8E813521480E0780530D93B Accuracy: -m0
  Conclusion: CDDA 99%
  Signature: 6D0D4EE93AF051151974176DDFF193BAA5DB3CF9
FILE: Machines Dream - Black Science - 05 Airfield On Sunwick.flac
  Size: 43513243 Hash: 7912A02A851FA151D4E12538B90C0558 Accuracy: -m0
  Conclusion: CDDA 100%
  Signature: E72E9EB12912A226C6FEFC609407A75CAEB50392
FILE: Machines Dream - Black Science - 04 Heavy Water.flac
  Size: 53194324 Hash: F1925BA368A003C62A88EECAC5EE0497 Accuracy: -m0
  Conclusion: CDDA 100%
  Signature: F7565634E7AB40CFD9D7F46767D92A9CCECD113C
FILE: Machines Dream - Black Science - 03 The Cannons Cry.flac
  Size: 28317050 Hash: 234A63FF2C853DFE29617E5C2BF655E9 Accuracy: -m0
  Conclusion: CDDA 100%
  Signature: 4BD8E8135613D1E759A00A6524D512411EF69093
FILE: Machines Dream - Black Science - 02 Weimar.flac
  Size: 71092378 Hash: 95F30E66C15ADFB64C9C8CB3FA2F2A48 Accuracy: -m0
  Conclusion: CDDA 99%
  Signature: AAB66A327E835F3E5F6FEBB488CAC79F1990505C
FILE: Machines Dream - Black Science - 01 Armistice Day.flac
  Size: 8736440 Hash: B3B65F37154F9412791D03DC110FD13A Accuracy: -m0
  Conclusion: CDDA 100%
  Signature: 5A6287AF6B70DF5A977B9AF4B0EDA44393F78C50
Код: Выделить всё
foobar2000 1.3.12 / Dynamic Range Meter 1.1.1
log date: 2019-03-05 10:41:38
--------------------------------------------------------------------------------
Analyzed: Machines Dream / Black Science
--------------------------------------------------------------------------------
DR         Peak         RMS     Duration Track
--------------------------------------------------------------------------------
DR9       -1.00 dB   -13.59 dB      1:34 01-Armistice Day
DR9       -0.99 dB   -12.26 dB     10:41 02-Weimar
DR12      -1.00 dB   -14.12 dB      4:18 03-The Cannons Cry
DR10      -1.00 dB   -11.85 dB      8:36 04-Heavy Water
DR10      -1.00 dB   -12.32 dB      6:11 05-Airfield On Sunwick
DR10      -1.00 dB   -12.40 dB      8:17 06-Black Science
DR10      -1.00 dB   -12.36 dB      4:59 07-UXB
DR9       -1.00 dB   -11.20 dB      8:47 08-Noise To Signal
--------------------------------------------------------------------------------
Number of tracks:  8
Official DR value: DR10
Samplerate:        44100 Hz
Channels:          2
Bits per sample:   16
Bitrate:           851 kbps
Codec:             FLAC
================================================================================
Правила, инструкции, FAQ!!!
Торрент  Добавлен [09 мар 2019, 11:25] Скачать торрент Магнет ссылка
Скачать торрент
13.95 КБ

Статус
Проверен 
 
Размер  332.08 МБ
Приватный: Нет (DHT включён)
.torrent скачан  0
Как залить торрент? | Как скачать Torrent? | Как смотреть и слушать онлайн?  
Гость
 



Вернуться в Progressive & Art-Rock

Кто сейчас на конференции

Сейчас этот форум просматривают: нет зарегистрированных пользователей и гости: 0