(Progressive Rock) [CD] Electric Asturias - Trinity - 2019, FLAC (tracks+.cue), lossless


Статистика раздачи
Размер: 525.85 МБ | Добавлен: 09 мар 2019, 11:26 | Скачали: 0
Сидеров: 26  [0 байт/сек]    Личеров: 8  [0 байт/сек]

Сообщение Гость » 09 мар 2019, 11:26

Electric Asturias - Trinity
Жанр: Progressive Rock
Носитель: CD
Год выпуска диска: 2019
Страна: Japan
Производитель диска: Asturias / AS-10
Аудио кодек: FLAC
Тип рипа: tracks+.cue
Битрейт аудио: lossless
Продолжительность: 56:12
Наличие сканов в содержимом раздачи:
Трэклист:
1. クローズド・ワールド Closed World (7:13)
2. 嵐が丘 Wuthering Heights (5:54)
3. スケルタ - Skelter (4:38)
4. クロウ Crow (8:07)
5. ローガス Rogus (8:46)
組曲「ゴルゴーン」: Gorgon Suite:
6. i. メデューサ - i. Medusa (5:11)
7. ii. ステンノ - ii. Stheno (7:30)
8. iii. エウリュアレ - iii. Euryale (8:51)
Состав:
- Yoh Ohyama / Bass
- Satoshi Hirata / Guitar
- Tei Sena / Violin
- Yoshihiro Kawagoe / Keyboards
- Kiyotaka Tanabe / Drums
Доп. информация: http://www.progarchives.com/artist.asp?id=4451
Код: Выделить всё
Exact Audio Copy V1.0 beta 3 from 29. August 2011
EAC extraction logfile from 28. February 2019, 21:58
Electric Asturias / Trinity
Used drive  : MATSHITADVD+-RW UJ8E2   Adapter: 0  ID: 0
Read mode               : Secure
Utilize accurate stream : Yes
Defeat audio cache      : Yes
Make use of C2 pointers : No
Read offset correction                      : 103
Overread into Lead-In and Lead-Out          : No
Fill up missing offset samples with silence : Yes
Delete leading and trailing silent blocks   : No
Null samples used in CRC calculations       : Yes
Used interface                              : Native Win32 interface for Win NT & 2000
Gap handling                                : Appended to previous track
Used output format              : User Defined Encoder
Selected bitrate                : 768 kBit/s
Quality                         : High
Add ID3 tag                     : No
Command line compressor         : C:\Program Files (x86)\Exact Audio Copy\FLAC\FLAC.EXE
Additional command line options : -8 -V -T "ARTIST=%artist%" -T "TITLE=%title%" -T "ALBUM=%albumtitle%" -T "DATE=%year%" -T "TRACKNUMBER=%tracknr%" -T "TOTALTRACKS=%numtracks%" -T "GENRE=%genre%" -T "ALBUMARTIST=%albumartist%" -T "ALBUM ARTIST=%albumartist%" -T "COMMENT=EAC Secure Mode, Test & Copy, AccurateRip, FLAC -8" %source%
TOC of the extracted CD
     Track |   Start  |  Length  | Start sector | End sector
    ---------------------------------------------------------
        1  |  0:00.00 |  7:13.22 |         0    |    32496
        2  |  7:13.22 |  5:54.30 |     32497    |    59076
        3  | 13:07.52 |  4:38.17 |     59077    |    79943
        4  | 17:45.69 |  8:07.59 |     79944    |   116527
        5  | 25:53.53 |  8:46.34 |    116528    |   156011
        6  | 34:40.12 |  5:11.15 |    156012    |   179351
        7  | 39:51.27 |  7:30.03 |    179352    |   213104
        8  | 47:21.30 |  8:51.34 |    213105    |   252963
Track  1
     Filename C:\bzp01\Electric Asturias - Trinity (2019) [FLAC] {AS-0010}\01 - Closed World.wav
     Pre-gap length  0:00:02.00
     Peak level 100.0 %
     Extraction speed 2.7 X
     Track quality 100.0 %
     Test CRC 5BFB1B9D
     Copy CRC 5BFB1B9D
     Accurately ripped (confidence 1)  [83819CE0]  (AR v2)
     Copy OK
Track  2
     Filename C:\bzp01\Electric Asturias - Trinity (2019) [FLAC] {AS-0010}\02 - Wuthering Heights.wav
     Peak level 100.0 %
     Extraction speed 3.1 X
     Track quality 100.0 %
     Test CRC FD593C85
     Copy CRC FD593C85
     Accurately ripped (confidence 1)  [FA232704]  (AR v2)
     Copy OK
Track  3
     Filename C:\bzp01\Electric Asturias - Trinity (2019) [FLAC] {AS-0010}\03 - Skelter.wav
     Peak level 100.0 %
     Extraction speed 2.5 X
     Track quality 99.9 %
     Test CRC EC003289
     Copy CRC EC003289
     Accurately ripped (confidence 1)  [3E3D8A48]  (AR v2)
     Copy OK
Track  4
     Filename C:\bzp01\Electric Asturias - Trinity (2019) [FLAC] {AS-0010}\04 - Crow.wav
     Peak level 100.0 %
     Extraction speed 3.8 X
     Track quality 100.0 %
     Test CRC D9FC6F13
     Copy CRC D9FC6F13
     Accurately ripped (confidence 1)  [EEE089BE]  (AR v2)
     Copy OK
Track  5
     Filename C:\bzp01\Electric Asturias - Trinity (2019) [FLAC] {AS-0010}\05 - Rogus.wav
     Peak level 100.0 %
     Extraction speed 4.2 X
     Track quality 100.0 %
     Test CRC DA2AA375
     Copy CRC DA2AA375
     Accurately ripped (confidence 1)  [CF58C83B]  (AR v2)
     Copy OK
Track  6
     Filename C:\bzp01\Electric Asturias - Trinity (2019) [FLAC] {AS-0010}\06 - Medusa.wav
     Peak level 100.0 %
     Extraction speed 4.3 X
     Track quality 100.0 %
     Test CRC 3962F7B2
     Copy CRC 3962F7B2
     Accurately ripped (confidence 1)  [4F21870A]  (AR v2)
     Copy OK
Track  7
     Filename C:\bzp01\Electric Asturias - Trinity (2019) [FLAC] {AS-0010}\07 - Sthenno.wav
     Peak level 100.0 %
     Extraction speed 4.7 X
     Track quality 100.0 %
     Test CRC 88217418
     Copy CRC 88217418
     Accurately ripped (confidence 1)  [0DEB49EB]  (AR v2)
     Copy OK
Track  8
     Filename C:\bzp01\Electric Asturias - Trinity (2019) [FLAC] {AS-0010}\08 - Euryale.wav
     Peak level 100.0 %
     Extraction speed 5.1 X
     Track quality 100.0 %
     Test CRC BE68AD2D
     Copy CRC BE68AD2D
     Accurately ripped (confidence 1)  [B70A2B91]  (AR v2)
     Copy OK
All tracks accurately ripped
No errors occurred
End of status report
==== Log checksum F5C159D4FBA5659C4529BB03BF0CC6490BA358AD85744CC17DB7BB21C6CC7898 ====
Код: Выделить всё
REM GENRE "Progressive Rock"
REM DATE 2019
REM DISCID 720D2C08
REM COMMENT "ExactAudioCopy v1.0b3"
PERFORMER "Electric Asturias"
TITLE "Trinity"
FILE "01 - Closed World.wav" WAVE
  TRACK 01 AUDIO
    TITLE "Closed World"
    PERFORMER " "
    INDEX 01 00:00:00
FILE "02 - Wuthering Heights.wav" WAVE
  TRACK 02 AUDIO
    TITLE "Wuthering Heights"
    PERFORMER " "
    INDEX 01 00:00:00
FILE "03 - Skelter.wav" WAVE
  TRACK 03 AUDIO
    TITLE "Skelter"
    PERFORMER " "
    INDEX 01 00:00:00
FILE "04 - Crow.wav" WAVE
  TRACK 04 AUDIO
    TITLE "Crow"
    PERFORMER " "
    INDEX 01 00:00:00
FILE "05 - Rogus.wav" WAVE
  TRACK 05 AUDIO
    TITLE "Rogus"
    PERFORMER " "
    INDEX 01 00:00:00
FILE "06 - Medusa.wav" WAVE
  TRACK 06 AUDIO
    TITLE "Medusa"
    PERFORMER " "
    INDEX 01 00:00:00
FILE "07 - Sthenno.wav" WAVE
  TRACK 07 AUDIO
    TITLE "Sthenno"
    PERFORMER " "
    INDEX 01 00:00:00
FILE "08 - Euryale.wav" WAVE
  TRACK 08 AUDIO
    TITLE "Euryale"
    PERFORMER " "
    INDEX 01 00:00:00
источник: bzp01
Правила, инструкции, FAQ!!!
Торрент  Добавлен [09 мар 2019, 11:26] Скачать торрент Магнет ссылка
Скачать торрент
23.96 КБ

Статус
Проверен 
 
Размер  525.85 МБ
Приватный: Нет (DHT включён)
.torrent скачан  0
Как залить торрент? | Как скачать Torrent? | Как смотреть и слушать онлайн?  
Гость
 



Вернуться в Progressive & Art-Rock

Кто сейчас на конференции

Сейчас этот форум просматривают: нет зарегистрированных пользователей и гости: 2