(Progressive Metal) Dream Theater Japanese SHM-CDs - 2009, FLAC (image+.cue)


Статистика раздачи
Размер: 4.21 ГБ | Добавлен: 11 окт 2016, 18:40 | Скачали: 1
Сидеров: 9  [0 байт/сек]    Личеров: 4  [0 байт/сек]

Сообщение Гость » 11 окт 2016, 18:40

Dream Theater

Japanese SHM-CDs









Жанр: Progressive Metal
Год выпуска диска: 2009
Производитель диска: Япония
Аудио кодек: FLAC
Тип рипа: image+.cue
Информация: В 2009 году японцы переиздали некоторые альбомы из дискографии DT в формате SHM-CD. Качество звука выше, чем на обычных CD.

Трэклист:

01. Pull Me Under (8:14)
02. Another Day (4:24)
03. Take The Time (8:21)
04. Surrounded (5:30)
05. Metropolis - Part I (The Miracle And The Sleeper) (9:32)
06. Under A Glass Moon (7:03)
07. Wait For Sleep (2:32)
08. Learning To Live (11:30)
Exact Audio Copy V0.99 prebeta 4 from 23. January 2008

EAC extraction logfile from 30. June 2009, 20:30

Dream Theater / Images And Words (2009 Japanese SHM-CD)

Used drive : PIONEER DVD-RW DVR-111D Adapter: 1 ID: 0

Read mode : Secure
Utilize accurate stream : Yes
Defeat audio cache : Yes
Make use of C2 pointers : No

Read offset correction : 48
Overread into Lead-In and Lead-Out : No
Fill up missing offset samples with silence : Yes
Delete leading and trailing silent blocks : No
Null samples used in CRC calculations : No
Used interface : Installed external ASPI interface

Used output format : Internal WAV Routines
Sample format : 44.100 Hz; 16 Bit; Stereo

TOC of the extracted CD

Track | Start | Length | Start sector | End sector
---------------------------------------------------------
1 | 0:00.00 | 8:14.19 | 0 | 37068
2 | 8:14.19 | 4:23.41 | 37069 | 56834
3 | 12:37.60 | 8:20.61 | 56835 | 94395
4 | 20:58.46 | 5:30.18 | 94396 | 119163
5 | 26:28.64 | 9:32.18 | 119164 | 162081
6 | 36:01.07 | 7:03.27 | 162082 | 193833
7 | 43:04.34 | 2:32.23 | 193834 | 205256
8 | 45:36.57 | 11:30.02 | 205257 | 257008

Range status and errors

Selected range

Filename L:\Music\Dream Theater 2009 Japanese SHM-CDs\1992 - Images And Words\Dream Theater - Images And Words (2009 Japanese SHM-CD).wav

Peak level 100.0 %
Range quality 100.0 %
Copy CRC F8462C82
Copy OK

No errors occurred

AccurateRip summary

Track 1 not present in database
Track 2 not present in database
Track 3 not present in database
Track 4 not present in database
Track 5 not present in database
Track 6 not present in database
Track 7 not present in database
Track 8 not present in database

None of the tracks are present in the AccurateRip database

End of status report


01. 6:00 (5:32)
02. Caught In A Web (5:29)
03. Innocence Faded (5:42)
04. A Mind Beside Itself - I - Erotomania (6:45)
05. A Mind Beside Itself - II - Voices (9:54)
06. A Mind Beside Itself - III - The Silent Man (3:47)
07. The Mirror (6:46)
08. Lie (6:34)
09. Lifting Shadows Off A Dream (6:05)
10. Scarred (10:59)
11. Space-Dye Vest (7:31)
Exact Audio Copy V0.99 prebeta 4 from 23. January 2008

EAC extraction logfile from 30. June 2009, 20:16

Dream Theater / Awake (2009 Japanese SHM-CD)

Used drive : PIONEER DVD-RW DVR-111D Adapter: 1 ID: 0

Read mode : Secure
Utilize accurate stream : Yes
Defeat audio cache : Yes
Make use of C2 pointers : No

Read offset correction : 48
Overread into Lead-In and Lead-Out : No
Fill up missing offset samples with silence : Yes
Delete leading and trailing silent blocks : No
Null samples used in CRC calculations : No
Used interface : Installed external ASPI interface

Used output format : Internal WAV Routines
Sample format : 44.100 Hz; 16 Bit; Stereo

TOC of the extracted CD

Track | Start | Length | Start sector | End sector
---------------------------------------------------------
1 | 0:00.00 | 5:31.56 | 0 | 24880
2 | 5:31.56 | 5:28.49 | 24881 | 49529
3 | 11:00.30 | 5:42.12 | 49530 | 75191
4 | 16:42.42 | 6:45.00 | 75192 | 105566
5 | 23:27.42 | 9:53.39 | 105567 | 150080
6 | 33:21.06 | 3:47.35 | 150081 | 167140
7 | 37:08.41 | 6:45.52 | 167141 | 197567
8 | 43:54.18 | 6:33.69 | 197568 | 227111
9 | 50:28.12 | 6:05.09 | 227112 | 254495
10 | 56:33.21 | 10:58.57 | 254496 | 303902
11 | 67:32.03 | 7:30.69 | 303903 | 337721

Range status and errors

Selected range

Filename L:\Music\Dream Theater 2009 Japanese SHM-CDs\1994 - Awake\Dream Theater - Awake (2009 Japanese SHM-CD).wav

Peak level 100.0 %
Range quality 100.0 %
Copy CRC 2E63ED96
Copy OK

No errors occurred

AccurateRip summary

Track 1 not present in database
Track 2 not present in database
Track 3 not present in database
Track 4 not present in database
Track 5 not present in database
Track 6 not present in database
Track 7 not present in database
Track 8 not present in database
Track 9 not present in database
Track 10 not present in database
Track 11 not present in database

None of the tracks are present in the AccurateRip database

End of status report


01. New Millennium (8:21)
02. You Not Me (4:59)
03. Peruvian Skies (6:44)
04. Hollow Years (5:53)
05. Burning My Soul (5:29)
06. Hell's Kitchen (4:17)
07. Lines In The Sand (12:05)
08. Take Away My Pain (6:03)
09. Just Let Me Breathe (5:28)
10. Anna Lee (5:53)
11. Trial Of Tears (13:04)
Exact Audio Copy V0.99 prebeta 4 from 23. January 2008

EAC extraction logfile from 30. June 2009, 19:44

Dream Theater / Falling Into Infinity (2009 Japanese SHM-CD)

Used drive : PIONEER DVD-RW DVR-111D Adapter: 1 ID: 0

Read mode : Secure
Utilize accurate stream : Yes
Defeat audio cache : Yes
Make use of C2 pointers : No

Read offset correction : 48
Overread into Lead-In and Lead-Out : No
Fill up missing offset samples with silence : Yes
Delete leading and trailing silent blocks : No
Null samples used in CRC calculations : No
Used interface : Installed external ASPI interface

Used output format : Internal WAV Routines
Sample format : 44.100 Hz; 16 Bit; Stereo

TOC of the extracted CD

Track | Start | Length | Start sector | End sector
---------------------------------------------------------
1 | 0:00.00 | 8:20.60 | 0 | 37559
2 | 8:20.60 | 4:58.63 | 37560 | 59972
3 | 13:19.48 | 6:44.26 | 59973 | 90298
4 | 20:03.74 | 5:52.56 | 90299 | 116754
5 | 25:56.55 | 5:29.10 | 116755 | 141439
6 | 31:25.65 | 4:16.63 | 141440 | 160702
7 | 35:42.53 | 12:05.06 | 160703 | 215083
8 | 47:47.59 | 6:03.36 | 215084 | 242344
9 | 53:51.20 | 5:28.36 | 242345 | 266980
10 | 59:19.56 | 5:52.60 | 266981 | 293440
11 | 65:12.41 | 13:03.69 | 293441 | 352234

Range status and errors

Selected range

Filename L:\Music\Dream Theater 2009 Japanese SHM-CDs\1997 - Falling Into Infinity\Dream Theater - Falling Into Infinity (2009 Japanese SHM-CD).wav

Peak level 100.0 %
Range quality 100.0 %
Copy CRC 3FDE31B2
Copy OK

No errors occurred

AccurateRip summary

Track 1 not present in database
Track 2 not present in database
Track 3 not present in database
Track 4 not present in database
Track 5 not present in database
Track 6 not present in database
Track 7 not present in database
Track 8 not present in database
Track 9 not present in database
Track 10 not present in database
Track 11 not present in database

None of the tracks are present in the AccurateRip database

End of status report


01. Regression (2:07)
02. Overture 1928 (3:38)
03. Strange Deja Vu (5:13)
04. Through My Words (1:02)
05. Fatal Tragedy (6:49)
06. Beyond This Life (11:23)
07. Through Her Eyes (5:29)
08. Home (12:54)
09. The Dance Of Eternity (6:14)
10. One Last Time (3:47)
11. The Spirit Carries On (6:38)
12. Finally Free (12:00)
Exact Audio Copy V0.99 prebeta 4 from 23. January 2008

EAC extraction logfile from 30. June 2009, 19:26

Dream Theater / Scenes From A Memory (2009 Japanese SHM-CD)

Used drive : PIONEER DVD-RW DVR-111D Adapter: 1 ID: 0

Read mode : Secure
Utilize accurate stream : Yes
Defeat audio cache : Yes
Make use of C2 pointers : No

Read offset correction : 48
Overread into Lead-In and Lead-Out : No
Fill up missing offset samples with silence : Yes
Delete leading and trailing silent blocks : No
Null samples used in CRC calculations : No
Used interface : Installed external ASPI interface

Used output format : Internal WAV Routines
Sample format : 44.100 Hz; 16 Bit; Stereo

TOC of the extracted CD

Track | Start | Length | Start sector | End sector
---------------------------------------------------------
1 | 0:00.00 | 2:07.16 | 0 | 9540
2 | 2:07.16 | 3:37.62 | 9541 | 25877
3 | 5:45.03 | 5:12.64 | 25878 | 49341
4 | 10:57.67 | 1:01.61 | 49342 | 53977
5 | 11:59.53 | 6:49.18 | 53978 | 84670
6 | 18:48.71 | 11:23.23 | 84671 | 135918
7 | 30:12.19 | 5:28.40 | 135919 | 160558
8 | 35:40.59 | 12:53.41 | 160559 | 218574
9 | 48:34.25 | 6:13.53 | 218575 | 246602
10 | 54:48.03 | 3:46.55 | 246603 | 263607
11 | 58:34.58 | 6:38.22 | 263608 | 293479
12 | 65:13.05 | 12:00.18 | 293480 | 347497

Range status and errors

Selected range

Filename L:\Music\Dream Theater 2009 Japanese SHM-CDs\1999 - Scenes From A Memory\Dream Theater - Scenes From A Memory (2009 Japanese SHM-CD).wav

Peak level 100.0 %
Range quality 99.9 %
Copy CRC 8C625D82
Copy OK

No errors occurred

AccurateRip summary

Track 1 not present in database
Track 2 not present in database
Track 3 not present in database
Track 4 not present in database
Track 5 not present in database
Track 6 not present in database
Track 7 not present in database
Track 8 not present in database
Track 9 not present in database
Track 10 not present in database
Track 11 not present in database
Track 12 not present in database

None of the tracks are present in the AccurateRip database

End of status report


CD1:
01. The Glass Prison (13:54)
02. Blind Faith (10:21)
03. Misunderstood (9:33)
04. The Great Debate (13:46)
05. Disappear (6:46)
Exact Audio Copy V0.99 prebeta 4 from 23. January 2008

EAC extraction logfile from 30. June 2009, 19:07

Dream Theater / Six Degrees Of Inner Turbulence (Disc 1) (2009 Japanese SHM-CD)

Used drive : PIONEER DVD-RW DVR-111D Adapter: 1 ID: 0

Read mode : Secure
Utilize accurate stream : Yes
Defeat audio cache : Yes
Make use of C2 pointers : No

Read offset correction : 48
Overread into Lead-In and Lead-Out : No
Fill up missing offset samples with silence : Yes
Delete leading and trailing silent blocks : No
Null samples used in CRC calculations : No
Used interface : Installed external ASPI interface

Used output format : Internal WAV Routines
Sample format : 44.100 Hz; 16 Bit; Stereo

TOC of the extracted CD

Track | Start | Length | Start sector | End sector
---------------------------------------------------------
1 | 0:00.00 | 13:53.56 | 0 | 62530
2 | 13:53.56 | 10:20.73 | 62531 | 109103
3 | 24:14.54 | 9:32.67 | 109104 | 152070
4 | 33:47.46 | 13:45.58 | 152071 | 214003
5 | 47:33.29 | 6:45.60 | 214004 | 244438

Range status and errors

Selected range

Filename L:\Music\Dream Theater 2009 Japanese SHM-CDs\2002 - Six Degrees Of Inner Turbulence\Disc 1\Dream Theater - Six Degrees Of Inner Turbulence (Disc 1) (2009 Japanese SHM-CD).wav

Peak level 100.0 %
Range quality 99.9 %
Copy CRC 60136025
Copy OK

No errors occurred

AccurateRip summary

Track 1 not present in database
Track 2 not present in database
Track 3 not present in database
Track 4 not present in database
Track 5 not present in database

None of the tracks are present in the AccurateRip database

End of status report

CD2:
01. Six Degrees Of Inner Turbulence: I. Overture (6:50)
02. Six Degrees Of Inner Turbulence: II. About To Crash (5:51)
03. Six Degrees Of Inner Turbulence: III. War Inside My Head (2:08)
04. Six Degrees Of Inner Turbulence: IV. The Test That Stumped Them All (5:03)
05. Six Degrees Of Inner Turbulence: V. Goodnight Kiss (6:18)
06. Six Degrees Of Inner Turbulence: VI. Solitary Shell (5:48)
07. Six Degrees Of Inner Turbulence: VII. About To Crash (Reprise) (4:05)
08. Six Degrees Of Inner Turbulence: VIII. Losing Time / Grand Finale (6:03)
09. Solitary Shell (Radio Edit) (4:11)
Exact Audio Copy V0.99 prebeta 4 from 23. January 2008

EAC extraction logfile from 30. June 2009, 18:49

Dream Theater / Six Degrees Of Inner Turbulence (Disc 2) (2009 Japanese SHM-CD)

Used drive : PIONEER DVD-RW DVR-111D Adapter: 1 ID: 0

Read mode : Secure
Utilize accurate stream : Yes
Defeat audio cache : Yes
Make use of C2 pointers : No

Read offset correction : 48
Overread into Lead-In and Lead-Out : No
Fill up missing offset samples with silence : Yes
Delete leading and trailing silent blocks : No
Null samples used in CRC calculations : No
Used interface : Installed external ASPI interface

Used output format : Internal WAV Routines
Sample format : 44.100 Hz; 16 Bit; Stereo

TOC of the extracted CD

Track | Start | Length | Start sector | End sector
---------------------------------------------------------
1 | 0:00.00 | 6:50.37 | 0 | 30786
2 | 6:50.37 | 5:51.03 | 30787 | 57114
3 | 12:41.40 | 2:07.70 | 57115 | 66709
4 | 14:49.35 | 5:03.05 | 66710 | 89439
5 | 19:52.40 | 6:17.49 | 89440 | 117763
6 | 26:10.14 | 5:47.67 | 117764 | 143855
7 | 31:58.06 | 4:04.59 | 143856 | 162214
8 | 36:02.65 | 6:03.05 | 162215 | 189444
9 | 42:05.70 | 4:10.55 | 189445 | 208249

Range status and errors

Selected range

Filename L:\Music\Dream Theater 2009 Japanese SHM-CDs\2002 - Six Degrees Of Inner Turbulence\Disc 2\Dream Theater - Six Degrees Of Inner Turbulence (Disc 2) (2009 Japanese SHM-CD).wav

Peak level 99.9 %
Range quality 100.0 %
Copy CRC 505990FF
Copy OK

No errors occurred

AccurateRip summary

Track 1 not present in database
Track 2 not present in database
Track 3 not present in database
Track 4 not present in database
Track 5 not present in database
Track 6 not present in database
Track 7 not present in database
Track 8 not present in database
Track 9 not present in database

None of the tracks are present in the AccurateRip database

End of status report


01. As I Am (7:48)
02. This Dying Soul (11:27)
03. Endless Sacrifice (11:25)
04. Honor Thy Father (10:14)
05. Vacant (2:58)
06. Stream Of Consciousness (11:16)
07. In The Name Of God (14:14)
Exact Audio Copy V0.99 prebeta 4 from 23. January 2008

EAC extraction logfile from 30. June 2009, 18:26

Dream Theater / Train Of Thought (2009 Japanese SHM-CD)

Used drive : PIONEER DVD-RW DVR-111D Adapter: 1 ID: 0

Read mode : Secure
Utilize accurate stream : Yes
Defeat audio cache : Yes
Make use of C2 pointers : No

Read offset correction : 48
Overread into Lead-In and Lead-Out : No
Fill up missing offset samples with silence : Yes
Delete leading and trailing silent blocks : No
Null samples used in CRC calculations : No
Used interface : Installed external ASPI interface

Used output format : Internal WAV Routines
Sample format : 44.100 Hz; 16 Bit; Stereo

TOC of the extracted CD

Track | Start | Length | Start sector | End sector
---------------------------------------------------------
1 | 0:00.00 | 7:48.04 | 0 | 35103
2 | 7:48.04 | 11:27.07 | 35104 | 86635
3 | 19:15.11 | 11:24.41 | 86636 | 137976
4 | 30:39.52 | 10:14.16 | 137977 | 184042
5 | 40:53.68 | 2:57.58 | 184043 | 197375
6 | 43:51.51 | 11:16.16 | 197376 | 248091
7 | 55:07.67 | 14:14.15 | 248092 | 312156

Range status and errors

Selected range

Filename L:\Music\Dream Theater 2009 Japanese SHM-CDs\2003 - Train Of Thought\Dream Theater - Train Of Thought (2009 Japanese SHM-CD).wav

Peak level 100.0 %
Range quality 99.9 %
Copy CRC 726C6A3C
Copy OK

No errors occurred

AccurateRip summary

Track 1 not present in database
Track 2 not present in database
Track 3 not present in database
Track 4 not present in database
Track 5 not present in database
Track 6 not present in database
Track 7 not present in database

None of the tracks are present in the AccurateRip database

End of status report


01. The Root Of All Evil (8:27)
02. The Answer Lies Within (5:33)
03. These Walls (7:36)
04. I Walk Beside You (4:29)
05. Panic Attack (8:14)
06. Never Enough (6:46)
07. Sacrificed Sons (10:45)
08. Octavarium (23:59)
Exact Audio Copy V0.99 prebeta 4 from 23. January 2008

EAC extraction logfile from 30. June 2009, 17:39

Dream Theater / Octavarium (2009 Japanese SHM-CD)

Used drive : PIONEER DVD-RW DVR-111D Adapter: 1 ID: 0

Read mode : Secure
Utilize accurate stream : Yes
Defeat audio cache : Yes
Make use of C2 pointers : No

Read offset correction : 48
Overread into Lead-In and Lead-Out : No
Fill up missing offset samples with silence : Yes
Delete leading and trailing silent blocks : No
Null samples used in CRC calculations : No
Used interface : Installed external ASPI interface

Used output format : User Defined Encoder
Selected bitrate : 768 kBit/s
Quality : High
Add ID3 tag : No
Command line compressor : F:\Program Files\Exact Audio Copy\FLAC\FLAC.EXE
Additional command line options : -6 -V -T "ARTIST=%a" -T "TITLE=%t" -T "ALBUM=%g" -T "DATE=%y" -T "TRACKNUMBER=%n" -T "GENRE=%m" -T "COMMENT=%e" %s -o %d

TOC of the extracted CD

Track | Start | Length | Start sector | End sector
---------------------------------------------------------
1 | 0:00.00 | 8:26.73 | 0 | 38022
2 | 8:26.73 | 5:32.39 | 38023 | 62961
3 | 13:59.37 | 7:36.03 | 62962 | 97164
4 | 21:35.40 | 4:28.61 | 97165 | 117325
5 | 26:04.26 | 8:13.38 | 117326 | 154338
6 | 34:17.64 | 6:46.07 | 154339 | 184795
7 | 41:03.71 | 10:45.02 | 184796 | 233172
8 | 51:48.73 | 23:59.07 | 233173 | 341104

Range status and errors

Selected range

Filename L:\Music\Dream Theater 2009 Japanese SHM-CDs\2005 - Octavarium\Dream Theater - Octavarium (2009 Japanese SHM-CD).wav

Peak level 100.0 %
Range quality 100.0 %
Copy CRC F481EDE7
Copy OK

No errors occurred

AccurateRip summary

Track 1 not present in database
Track 2 not present in database
Track 3 not present in database
Track 4 not present in database
Track 5 not present in database
Track 6 not present in database
Track 7 not present in database
Track 8 not present in database

None of the tracks are present in the AccurateRip database

End of status report


01. In The Presence Of Enemies Pt. 1 (9:00)
02. Forsaken (5:36)
03. Constant Motion (6:55)
04. The Dark Eternal Night (8:54)
05. Repentance (10:43)
06. Prophets Of War (6:01)
07. The Ministry Of Lost Souls (14:57)
08. In The Presence Of Enemies Pt. 2 (16:38)
Exact Audio Copy V0.99 prebeta 4 from 23. January 2008

EAC extraction logfile from 30. June 2009, 7:49

Dream Theater / Systematic Chaos (2009 Japanese SHM-CD)

Used drive : PIONEER DVD-RW DVR-111D Adapter: 1 ID: 0

Read mode : Secure
Utilize accurate stream : Yes
Defeat audio cache : Yes
Make use of C2 pointers : No

Read offset correction : 48
Overread into Lead-In and Lead-Out : No
Fill up missing offset samples with silence : Yes
Delete leading and trailing silent blocks : No
Null samples used in CRC calculations : No
Used interface : Installed external ASPI interface

Used output format : User Defined Encoder
Selected bitrate : 768 kBit/s
Quality : High
Add ID3 tag : No
Command line compressor : F:\Program Files\Exact Audio Copy\FLAC\FLAC.EXE
Additional command line options : -6 -V -T "ARTIST=%a" -T "TITLE=%t" -T "ALBUM=%g" -T "DATE=%y" -T "TRACKNUMBER=%n" -T "GENRE=%m" -T "COMMENT=%e" %s -o %d

TOC of the extracted CD

Track | Start | Length | Start sector | End sector
---------------------------------------------------------
1 | 0:00.00 | 9:00.05 | 0 | 40504
2 | 9:00.05 | 5:35.42 | 40505 | 65671
3 | 14:35.47 | 6:55.28 | 65672 | 96824
4 | 21:31.00 | 8:53.40 | 96825 | 136839
5 | 30:24.40 | 10:43.32 | 136840 | 185096
6 | 41:07.72 | 6:00.53 | 185097 | 212149
7 | 47:08.50 | 14:57.05 | 212150 | 279429
8 | 62:05.55 | 16:38.32 | 279430 | 354311

Range status and errors

Selected range

Filename L:\Music\Dream Theater 2009 Japanese SHM-CDs\2007 - Systematic Chaos\Dream Theater - Systematic Chaos (2009 Japanese SHM-CD).wav

Peak level 100.0 %
Range quality 100.0 %
Copy CRC C147425C
Copy OK

No errors occurred

AccurateRip summary

Track 1 cannot be verified as accurate (confidence 164) [A92ABD66], AccurateRip returned [6468BC5F]
Track 2 accurately ripped (confidence 2) [371A3F38]
Track 3 accurately ripped (confidence 2) [16BF9B63]
Track 4 accurately ripped (confidence 2) [2DAA156E]
Track 5 accurately ripped (confidence 2) [FAD54043]
Track 6 accurately ripped (confidence 2) [B7FF0116]
Track 7 cannot be verified as accurate (confidence 162) [C4CADEA8], AccurateRip returned [925C494B]
Track 8 accurately ripped (confidence 2) [21805CB8]

6 track(s) accurately ripped
2 track(s) could not be verified as accurate

Some tracks could not be verified as accurate

End of status report

Правила, инструкции, FAQ!!!
Торрент  Добавлен [11 окт 2016, 18:40] Скачать торрент Магнет ссылка
Скачать торрент
25.89 КБ

Статус
Проверен 
 
Размер  4.21 ГБ
Приватный: Нет (DHT включён)
.torrent скачан  1
Как залить торрент? | Как скачать Torrent? | Как смотреть и слушать онлайн?  
Гость
 



Сообщение seaga001 » 09 апр 2019, 19:08

Спасибо!
seaga001
Зарегистрированные пользователи
 
Раздал: 0 байт
Скачал: 7.61 ГБ
Ратио: Leech.
Сообщения: 1
Стаж: 06 апр 2019, 09:52




Вернуться в Heavy, Power, Progressive (Metal)

Кто сейчас на конференции

Сейчас этот форум просматривают: нет зарегистрированных пользователей и гости: 0