(Progressive/Folk Metal) [CD] Týr (Tyr) - Collection - 2002-2019, (9 CDs), FLAC (image+.cue), lossless


Статистика раздачи
Размер: 4.34 ГБ | Добавлен: 09 мар 2019, 19:21 | Скачали: 0
Сидеров: 30  [0 байт/сек]    Личеров: 11  [0 байт/сек]

Сообщение Гость » 09 мар 2019, 19:21


Collection

Жанр: Progressive/Folk Metal Носитель: CD
Страна-производитель диска (релиза): Austria, Germany Год издания: 2002-2019
Страна исполнителя (группы): Faroe Islands Аудиокодек: FLAC (*.flac)
Тип рипа: image+.cue Битрейт аудио: lossless
Источник (релизер): собственные рипы Наличие сканов в содержимом раздачи: да
Издатель (лейбл): Napalm Records Handels GmbH
Номер по каталогу: NPR 267 CD
Продолжительность: 01:18:15
01. Hail To The Hammer 04:37
02. Excavation 06:43
03. The Rune 06:44
04 Ten Wild Dogs 06:53
05. God Of War 07:11
06. Sand In The Wind 06:24
07. Ormurin Langi 05:53
08. How Far To Asgaard 9:00
Bonus Tracks taken from the "Ólavur Riddararós" Single:
09. Ólavur Riddararós 04:36
10. Stýrisvølurin/Nornagest Ríma 20:14
Код: Выделить всё
Exact Audio Copy V1.1 from 23. June 2015
EAC extraction logfile from 19. June 2017, 23:02
Tyr / How Far To Asgaard (Reissue)
Used drive  : HP      DVD Writer 1170d   Adapter: 1  ID: 1
Read mode               : Secure
Utilize accurate stream : Yes
Defeat audio cache      : Yes
Make use of C2 pointers : No
Read offset correction                      : 6
Overread into Lead-In and Lead-Out          : No
Fill up missing offset samples with silence : Yes
Delete leading and trailing silent blocks   : No
Null samples used in CRC calculations       : Yes
Used interface                              : Native Win32 interface for Win NT & 2000
Used output format              : User Defined Encoder
Selected bitrate                : 1024 kBit/s
Quality                         : High
Add ID3 tag                     : No
Command line compressor         : C:\Program Files (x86)\Exact Audio Copy\Flac\flac.exe
Additional command line options : -V -8 -T "Date=%year%" -T "Genre=%genre%" %source%
TOC of the extracted CD
     Track |   Start  |  Length  | Start sector | End sector
    ---------------------------------------------------------
        1  |  0:00.00 |  4:36.73 |         0    |    20772
        2  |  4:36.73 |  6:43.33 |     20773    |    51030
        3  | 11:20.31 |  6:44.16 |     51031    |    81346
        4  | 18:04.47 |  6:53.19 |     81347    |   112340
        5  | 24:57.66 |  7:11.00 |    112341    |   144665
        6  | 32:08.66 |  6:23.42 |    144666    |   173432
        7  | 38:32.33 |  5:53.15 |    173433    |   199922
        8  | 44:25.48 |  8:59.71 |    199923    |   240418
        9  | 53:25.44 |  4:36.05 |    240419    |   261123
       10  | 58:01.49 | 20:14.16 |    261124    |   352189
Range status and errors
Selected range
     Filename C:\EAC\Ungern666\Tyr - How Far To Asgaard (Reissue).wav
     Peak level 100.0 %
     Extraction speed 6.6 X
     Range quality 99.9 %
     Test CRC 012CFA90
     Copy CRC 012CFA90
     Copy OK
No errors occurred
AccurateRip summary
Track  1  accurately ripped (confidence 4)  [453991B9]  (AR v2)
Track  2  accurately ripped (confidence 4)  [E027BDE6]  (AR v2)
Track  3  accurately ripped (confidence 4)  [C19D4E39]  (AR v2)
Track  4  accurately ripped (confidence 4)  [39BBDB61]  (AR v2)
Track  5  accurately ripped (confidence 4)  [DDB33D19]  (AR v2)
Track  6  accurately ripped (confidence 4)  [DDD6DA36]  (AR v2)
Track  7  accurately ripped (confidence 4)  [B4F41CC2]  (AR v2)
Track  8  accurately ripped (confidence 4)  [842E1A39]  (AR v2)
Track  9  accurately ripped (confidence 4)  [1F83E36D]  (AR v2)
Track 10  accurately ripped (confidence 4)  [A7230D70]  (AR v2)
All tracks accurately ripped
End of status report
---- CUETools DB Plugin V2.1.6
[CTDB TOCID: 0NCw6VVTEmyqOVEsskGI4RYu23c-] found
Submit result: already submitted
Track | CTDB Status
  1   | (32/32) Accurately ripped
  2   | (32/32) Accurately ripped
  3   | (32/32) Accurately ripped
  4   | (32/32) Accurately ripped
  5   | (32/32) Accurately ripped
  6   | (32/32) Accurately ripped
  7   | (32/32) Accurately ripped
  8   | (32/32) Accurately ripped
  9   | (32/32) Accurately ripped
 10   | (32/32) Accurately ripped
==== Log checksum 287262D69EC5B229695F4F4DE30C4A568F39A3345F4F36F9EC154E26E0AB42D6 ====
#777Издатель (лейбл): Napalm Records Handels GmbH
Номер по каталогу: NPR 183 CD
Продолжительность: 01:10:38
01. The Edge 07:44
02. Regin Smiður 06:09
03. Dreams 05:35
04. The Wild Rover 04:13
05. Stýrisvølurin 06:58
06. Ólavur Riddararós 04:37
07. Rainbow Warrior 05:29
08. Ramund Hin Unge 04:32
09. Alive 07:28
10. Eric The Red 07:42
Bonus Tracks:
11. God Of War 06:24
12. Hail To The Hammer 03:49
Код: Выделить всё
Exact Audio Copy V1.1 from 23. June 2015
EAC extraction logfile from 19. June 2017, 22:36
Tyr / Eric The Red (Reissue)
Used drive  : HP      DVD Writer 1170d   Adapter: 1  ID: 1
Read mode               : Secure
Utilize accurate stream : Yes
Defeat audio cache      : Yes
Make use of C2 pointers : No
Read offset correction                      : 6
Overread into Lead-In and Lead-Out          : No
Fill up missing offset samples with silence : Yes
Delete leading and trailing silent blocks   : No
Null samples used in CRC calculations       : Yes
Used interface                              : Native Win32 interface for Win NT & 2000
Used output format              : User Defined Encoder
Selected bitrate                : 1024 kBit/s
Quality                         : High
Add ID3 tag                     : No
Command line compressor         : C:\Program Files (x86)\Exact Audio Copy\Flac\flac.exe
Additional command line options : -V -8 -T "Date=%year%" -T "Genre=%genre%" %source%
TOC of the extracted CD
     Track |   Start  |  Length  | Start sector | End sector
    ---------------------------------------------------------
        1  |  0:00.00 |  7:44.33 |         0    |    34832
        2  |  7:44.33 |  6:08.50 |     34833    |    62482
        3  | 13:53.08 |  5:34.48 |     62483    |    87580
        4  | 19:27.56 |  4:12.64 |     87581    |   106544
        5  | 23:40.45 |  6:57.70 |    106545    |   137889
        6  | 30:38.40 |  4:37.19 |    137890    |   158683
        7  | 35:15.59 |  5:28.71 |    158684    |   183354
        8  | 40:44.55 |  4:31.41 |    183355    |   203720
        9  | 45:16.21 |  7:27.69 |    203721    |   237314
       10  | 52:44.15 |  7:41.40 |    237315    |   271929
       11  | 60:25.55 |  6:23.60 |    271930    |   300714
       12  | 66:49.40 |  3:49.26 |    300715    |   317915
Range status and errors
Selected range
     Filename C:\EAC\Ungern666\Tyr - Eric The Red (Reissue).wav
     Peak level 100.0 %
     Extraction speed 6.5 X
     Range quality 100.0 %
     Test CRC 322C9D7F
     Copy CRC 322C9D7F
     Copy OK
No errors occurred
AccurateRip summary
Track  1  accurately ripped (confidence 12)  [576D3727]  (AR v2)
Track  2  accurately ripped (confidence 12)  [B3E8764C]  (AR v2)
Track  3  accurately ripped (confidence 12)  [233358E1]  (AR v2)
Track  4  accurately ripped (confidence 12)  [8B61AD36]  (AR v2)
Track  5  accurately ripped (confidence 12)  [56DD991A]  (AR v2)
Track  6  accurately ripped (confidence 12)  [B2E61108]  (AR v2)
Track  7  accurately ripped (confidence 12)  [447E52ED]  (AR v2)
Track  8  accurately ripped (confidence 12)  [A78CCAA9]  (AR v2)
Track  9  accurately ripped (confidence 12)  [2B0336D9]  (AR v2)
Track 10  accurately ripped (confidence 12)  [6BD50D62]  (AR v2)
Track 11  accurately ripped (confidence 12)  [580F1EB4]  (AR v2)
Track 12  accurately ripped (confidence 12)  [86A79A8E]  (AR v2)
All tracks accurately ripped
End of status report
---- CUETools DB Plugin V2.1.6
[CTDB TOCID: f2B5DCkZOrcbEWg1WXqeqQn6gv8-] found
Submit result: f2B5DCkZOrcbEWg1WXqeqQn6gv8- has been confirmed
Track | CTDB Status
  1   | (62/63) Accurately ripped
  2   | (63/63) Accurately ripped
  3   | (63/63) Accurately ripped
  4   | (63/63) Accurately ripped
  5   | (62/63) Accurately ripped
  6   | (62/63) Accurately ripped
  7   | (62/63) Accurately ripped
  8   | (62/63) Accurately ripped
  9   | (62/63) Accurately ripped
 10   | (62/63) Accurately ripped
 11   | (62/63) Accurately ripped
 12   | (61/63) Accurately ripped
==== Log checksum E92491C3624CAEF07CE5FC059D2634197D1C7C1EABAF8404B2005656D000688F ====
#777Издатель (лейбл): Napalm Records Handels GmbH
Номер по каталогу: NPR 199 CD
Продолжительность: 01:08:01
01. The Beginning 05:07
02. The Hammer Of Thor 06:39
03. Envy 01:10
04. Brother's Bane 05:00
05. The Burning 01:56
06. The Ride To Hel 06:12
07. Torsteins Kvæði 04:55
08. Grímur Á Miðalnesi 00:56
09. Wings Of Time 06:25
10. The Rage Of The Skullgaffer 02:01
11. The Hunt 05:47
12. Victory 00:58
13 Lord Of Lies 06:03
14 Gjallarhornið 00:27
15. Ragnarok 06:32
16 The End 00:40
Bonus Tracks:
17. Valkyries Flight 02:03
18. Valhalla 05:03
Код: Выделить всё
Exact Audio Copy V1.1 from 23. June 2015
EAC extraction logfile from 21. June 2017, 22:06
Tyr / Ragnarok
Used drive  : HP      DVD Writer 1170d   Adapter: 1  ID: 1
Read mode               : Secure
Utilize accurate stream : Yes
Defeat audio cache      : Yes
Make use of C2 pointers : No
Read offset correction                      : 6
Overread into Lead-In and Lead-Out          : No
Fill up missing offset samples with silence : Yes
Delete leading and trailing silent blocks   : No
Null samples used in CRC calculations       : Yes
Used interface                              : Native Win32 interface for Win NT & 2000
Used output format              : User Defined Encoder
Selected bitrate                : 1024 kBit/s
Quality                         : High
Add ID3 tag                     : No
Command line compressor         : C:\Program Files (x86)\Exact Audio Copy\Flac\flac.exe
Additional command line options : -V -8 -T "Date=%year%" -T "Genre=%genre%" %source%
TOC of the extracted CD
     Track |   Start  |  Length  | Start sector | End sector
    ---------------------------------------------------------
        1  |  0:00.00 |  5:07.22 |         0    |    23046
        2  |  5:07.22 |  6:39.20 |     23047    |    52991
        3  | 11:46.42 |  1:10.11 |     52992    |    58252
        4  | 12:56.53 |  5:00.51 |     58253    |    80803
        5  | 17:57.29 |  1:56.37 |     80804    |    89540
        6  | 19:53.66 |  6:12.40 |     89541    |   117480
        7  | 26:06.31 |  4:55.26 |    117481    |   139631
        8  | 31:01.57 |  0:56.32 |    139632    |   143863
        9  | 31:58.14 |  6:25.43 |    143864    |   172781
       10  | 38:23.57 |  2:01.60 |    172782    |   181916
       11  | 40:25.42 |  5:47.46 |    181917    |   207987
       12  | 46:13.13 |  0:58.45 |    207988    |   212382
       13  | 47:11.58 |  6:03.06 |    212383    |   239613
       14  | 53:14.64 |  0:27.21 |    239614    |   241659
       15  | 53:42.10 |  6:32.00 |    241660    |   271059
       16  | 60:14.10 |  0:40.50 |    271060    |   274109
       17  | 60:54.60 |  2:03.65 |    274110    |   283399
       18  | 62:58.50 |  5:03.13 |    283400    |   306137
Range status and errors
Selected range
     Filename C:\EAC\Ungern666\Tyr - Ragnarok.wav
     Peak level 100.0 %
     Extraction speed 6.4 X
     Range quality 99.9 %
     Test CRC F580CCBC
     Copy CRC F580CCBC
     Copy OK
No errors occurred
AccurateRip summary
Track  1  accurately ripped (confidence 16)  [CE997923]  (AR v2)
Track  2  accurately ripped (confidence 16)  [828C8B95]  (AR v2)
Track  3  accurately ripped (confidence 16)  [BA29A403]  (AR v2)
Track  4  accurately ripped (confidence 16)  [9104DEA7]  (AR v2)
Track  5  accurately ripped (confidence 16)  [834B7D20]  (AR v2)
Track  6  accurately ripped (confidence 16)  [B6840E89]  (AR v2)
Track  7  accurately ripped (confidence 16)  [1B83717F]  (AR v2)
Track  8  accurately ripped (confidence 16)  [73C885CF]  (AR v2)
Track  9  accurately ripped (confidence 16)  [D0DF09CF]  (AR v2)
Track 10  accurately ripped (confidence 16)  [656223A4]  (AR v2)
Track 11  accurately ripped (confidence 16)  [C3436A29]  (AR v2)
Track 12  accurately ripped (confidence 16)  [19ED571D]  (AR v2)
Track 13  accurately ripped (confidence 16)  [1448C12D]  (AR v2)
Track 14  accurately ripped (confidence 16)  [7323A6A0]  (AR v2)
Track 15  accurately ripped (confidence 16)  [5C7FDBF1]  (AR v2)
Track 16  accurately ripped (confidence 16)  [597356A7]  (AR v2)
Track 17  accurately ripped (confidence 16)  [6D9E87AD]  (AR v2)
Track 18  accurately ripped (confidence 16)  [667B50C6]  (AR v2)
All tracks accurately ripped
End of status report
---- CUETools DB Plugin V2.1.6
[CTDB TOCID: K9GilFpr61PMiNalrxK.LHri55Q-] found
Submit result: K9GilFpr61PMiNalrxK.LHri55Q- has been confirmed
Track | CTDB Status
  1   | (17/17) Accurately ripped
  2   | (17/17) Accurately ripped
  3   | (17/17) Accurately ripped
  4   | (17/17) Accurately ripped
  5   | (17/17) Accurately ripped
  6   | (17/17) Accurately ripped
  7   | (17/17) Accurately ripped
  8   | (17/17) Accurately ripped
  9   | (17/17) Accurately ripped
 10   | (17/17) Accurately ripped
 11   | (17/17) Accurately ripped
 12   | (17/17) Accurately ripped
 13   | (17/17) Accurately ripped
 14   | (17/17) Accurately ripped
 15   | (17/17) Accurately ripped
 16   | (17/17) Accurately ripped
 17   | (17/17) Accurately ripped
 18   | (17/17) Accurately ripped
==== Log checksum A6935684DED5B62A1C131A096E679ABA6D0AD998168817F3D9CC2E725C1B7A9A ====
#777Издатель (лейбл): Napalm Records Handels GmbH
Номер по каталогу: NPR 247 CD + DVD
Продолжительность: 01:08:26
01 Gandkvæði Tróndar 04:10
02. Sinklars Vísa 04:55
03. Ocean 10:07
04. Gátu Ríma 05:38
05. Brennivín 04:58
06. Fípan Fagra 05:49
07. Valkyrjan 05:05
08. Lokka Táttur 06:04
09. Land 16:17
10 Hail To The Hammer 05:19
Код: Выделить всё
Exact Audio Copy V1.1 from 23. June 2015
EAC extraction logfile from 22. June 2017, 23:22
Tyr / Land (Limited Edition)
Used drive  : HP      DVD Writer 1170d   Adapter: 1  ID: 1
Read mode               : Secure
Utilize accurate stream : Yes
Defeat audio cache      : Yes
Make use of C2 pointers : No
Read offset correction                      : 6
Overread into Lead-In and Lead-Out          : No
Fill up missing offset samples with silence : Yes
Delete leading and trailing silent blocks   : No
Null samples used in CRC calculations       : Yes
Used interface                              : Native Win32 interface for Win NT & 2000
Used output format              : User Defined Encoder
Selected bitrate                : 1024 kBit/s
Quality                         : High
Add ID3 tag                     : No
Command line compressor         : C:\Program Files (x86)\Exact Audio Copy\Flac\flac.exe
Additional command line options : -V -8 -T "Date=%year%" -T "Genre=%genre%" %source%
TOC of the extracted CD
     Track |   Start  |  Length  | Start sector | End sector
    ---------------------------------------------------------
        1  |  0:00.00 |  4:10.57 |         0    |    18806
        2  |  4:10.57 |  4:54.72 |     18807    |    40928
        3  |  9:05.54 | 10:07.23 |     40929    |    86476
        4  | 19:13.02 |  5:38.38 |     86477    |   111864
        5  | 24:51.40 |  4:58.36 |    111865    |   134250
        6  | 29:50.01 |  5:49.21 |    134251    |   160446
        7  | 35:39.22 |  5:05.32 |    160447    |   183353
        8  | 40:44.54 |  6:04.59 |    183354    |   210712
        9  | 46:49.38 | 16:17.33 |    210713    |   284020
       10  | 63:06.71 |  5:19.53 |    284021    |   307998
Range status and errors
Selected range
     Filename C:\EAC\Ungern666\Tyr - Land (Limited Edition).wav
     Peak level 100.0 %
     Extraction speed 6.4 X
     Range quality 99.9 %
     Test CRC C495979A
     Copy CRC C495979A
     Copy OK
No errors occurred
AccurateRip summary
Track  1  accurately ripped (confidence 28)  [AB23C2E4]  (AR v2)
Track  2  accurately ripped (confidence 28)  [91978D98]  (AR v2)
Track  3  accurately ripped (confidence 28)  [5D768F68]  (AR v2)
Track  4  accurately ripped (confidence 27)  [8AAB13C1]  (AR v2)
Track  5  accurately ripped (confidence 28)  [CA79EDD2]  (AR v2)
Track  6  accurately ripped (confidence 28)  [74F0F952]  (AR v2)
Track  7  accurately ripped (confidence 28)  [F180678E]  (AR v2)
Track  8  accurately ripped (confidence 28)  [BFBC5129]  (AR v2)
Track  9  accurately ripped (confidence 27)  [C2B71281]  (AR v2)
Track 10  accurately ripped (confidence 28)  [18378144]  (AR v2)
All tracks accurately ripped
End of status report
---- CUETools DB Plugin V2.1.6
[CTDB TOCID: Dvt2htBgrkx9aPlmSuRX9jjVrec-] found
Submit result: Dvt2htBgrkx9aPlmSuRX9jjVrec- has been confirmed
Track | CTDB Status
  1   | (65/65) Accurately ripped
  2   | (64/65) Accurately ripped
  3   | (65/65) Accurately ripped
  4   | (65/65) Accurately ripped
  5   | (65/65) Accurately ripped
  6   | (65/65) Accurately ripped
  7   | (65/65) Accurately ripped
  8   | (65/65) Accurately ripped
  9   | (65/65) Accurately ripped
 10   | (64/65) Accurately ripped
==== Log checksum 424E8CF578DD7665F87C49CA8957B5476DBB5ECE70678846557EE6CE95E994CE ====
#777Издатель (лейбл): Napalm Records Handels GmbH
Номер по каталогу: NPR 294 CD
Продолжительность: 00:47:00
01. Hold The Heathen Hammer High 04:50
02. Tróndur Í Gøtu 04:01
03. Into The Storm 05:04
04. Northern Gate 04:42
05. Turið Torkilsdóttir 04:18
06. By The Sword In My Hand 04:48
07. Ride 04:59
08. Hear The Heathen Call 04:40
09. By The Light Of The Northern Star 05:55
Bonus Tracks:
10. The Northern Lights 01:48
11. Anthem 01:36
Код: Выделить всё
Exact Audio Copy V1.1 from 23. June 2015
EAC extraction logfile from 22. June 2017, 23:55
Tyr / By The Light Of The Northern Star
Used drive  : HP      DVD Writer 1170d   Adapter: 1  ID: 1
Read mode               : Secure
Utilize accurate stream : Yes
Defeat audio cache      : Yes
Make use of C2 pointers : No
Read offset correction                      : 6
Overread into Lead-In and Lead-Out          : No
Fill up missing offset samples with silence : Yes
Delete leading and trailing silent blocks   : No
Null samples used in CRC calculations       : Yes
Used interface                              : Native Win32 interface for Win NT & 2000
Used output format              : User Defined Encoder
Selected bitrate                : 1024 kBit/s
Quality                         : High
Add ID3 tag                     : No
Command line compressor         : C:\Program Files (x86)\Exact Audio Copy\Flac\flac.exe
Additional command line options : -V -8 -T "Date=%year%" -T "Genre=%genre%" %source%
TOC of the extracted CD
     Track |   Start  |  Length  | Start sector | End sector
    ---------------------------------------------------------
        1  |  0:00.00 |  4:49.25 |         0    |    21699
        2  |  4:49.25 |  4:02.13 |     21700    |    39862
        3  |  8:51.38 |  5:05.74 |     39863    |    62811
        4  | 13:57.37 |  4:45.53 |     62812    |    84239
        5  | 18:43.15 |  4:19.44 |     84240    |   103708
        6  | 23:02.59 |  4:49.32 |    103709    |   125415
        7  | 27:52.16 |  5:00.16 |    125416    |   147931
        8  | 32:52.32 |  4:41.28 |    147932    |   169034
        9  | 37:33.60 |  6:00.62 |    169035    |   196096
       10  | 43:34.47 |  1:48.61 |    196097    |   204257
       11  | 45:23.33 |  1:36.67 |    204258    |   211524
Range status and errors
Selected range
     Filename C:\EAC\Ungern666\Tyr - By The Light Of The Northern Star.wav
     Peak level 100.0 %
     Extraction speed 5.5 X
     Range quality 99.9 %
     Test CRC E9C2FAC5
     Copy CRC E9C2FAC5
     Copy OK
No errors occurred
AccurateRip summary
Track  1  accurately ripped (confidence 14)  [BB5B91BE]  (AR v2)
Track  2  accurately ripped (confidence 14)  [BC12B44E]  (AR v2)
Track  3  accurately ripped (confidence 14)  [9AF9DC60]  (AR v2)
Track  4  accurately ripped (confidence 14)  [2FDAC366]  (AR v2)
Track  5  accurately ripped (confidence 14)  [321619CF]  (AR v2)
Track  6  accurately ripped (confidence 14)  [D5854783]  (AR v2)
Track  7  accurately ripped (confidence 14)  [8322F53E]  (AR v2)
Track  8  accurately ripped (confidence 14)  [36B7AD15]  (AR v2)
Track  9  accurately ripped (confidence 14)  [75629504]  (AR v2)
Track 10  accurately ripped (confidence 14)  [AF5F970D]  (AR v2)
Track 11  accurately ripped (confidence 14)  [23AA464F]  (AR v2)
All tracks accurately ripped
End of status report
---- CUETools DB Plugin V2.1.6
[CTDB TOCID: xxqOtf6kjqOzIEljrhJ5AnYrSjk-] found
Submit result: xxqOtf6kjqOzIEljrhJ5AnYrSjk- has been confirmed
Track | CTDB Status
  1   | (20/20) Accurately ripped
  2   | (20/20) Accurately ripped
  3   | (20/20) Accurately ripped
  4   | (20/20) Accurately ripped
  5   | (20/20) Accurately ripped
  6   | (20/20) Accurately ripped
  7   | (20/20) Accurately ripped
  8   | (20/20) Accurately ripped
  9   | (20/20) Accurately ripped
 10   | (20/20) Accurately ripped
 11   | (20/20) Accurately ripped
==== Log checksum 26509BD5C835ACD3C59387880E88CA687AD2349389D52ACFF63A346706554525 ====
#777Издатель (лейбл): Napalm Records Handels GmbH
Номер по каталогу: NPR 380 CD
Продолжительность: 00:57:01
01. Flames Of The Free 04:17
02. Shadow Of The Swastika 04:23
03. Take Your Tyrant 03:55
04. Evening Star 05:04
05. Hall Of Freedom 04:06
06. Fields Of The Fallen 04:59
07. Konning Hans 04:27
08. Ellindur Bóndi Á Jaðri 03:55
09. Nine Worlds Of Lore 04:04
10. The Lay Of Thrym 06:48
bonus tracks:
11. I 04:42
12. Stargazer 06:19
Код: Выделить всё
Exact Audio Copy V1.1 from 23. June 2015
EAC extraction logfile from 23. June 2017, 14:08
Tyr / The Lay Of Thrym (Limited Edition)
Used drive  : TSSTcorpBDDVDW SE-506CB   Adapter: 1  ID: 1
Read mode               : Secure
Utilize accurate stream : Yes
Defeat audio cache      : Yes
Make use of C2 pointers : No
Read offset correction                      : 6
Overread into Lead-In and Lead-Out          : No
Fill up missing offset samples with silence : Yes
Delete leading and trailing silent blocks   : No
Null samples used in CRC calculations       : Yes
Used interface                              : Native Win32 interface for Win NT & 2000
Used output format              : User Defined Encoder
Selected bitrate                : 1024 kBit/s
Quality                         : High
Add ID3 tag                     : No
Command line compressor         : C:\Program Files (x86)\Exact Audio Copy\Flac\flac.exe
Additional command line options : -V -8 -T "Date=%year%" -T "Genre=%genre%" %source%
TOC of the extracted CD
     Track |   Start  |  Length  | Start sector | End sector
    ---------------------------------------------------------
        1  |  0:00.00 |  4:17.00 |         0    |    19274
        2  |  4:17.00 |  4:23.33 |     19275    |    39032
        3  |  8:40.33 |  3:53.17 |     39033    |    56524
        4  | 12:33.50 |  5:04.60 |     56525    |    79384
        5  | 17:38.35 |  4:06.55 |     79385    |    97889
        6  | 21:45.15 |  4:58.70 |     97890    |   120309
        7  | 26:44.10 |  4:27.54 |    120310    |   140388
        8  | 31:11.64 |  3:55.14 |    140389    |   158027
        9  | 35:07.03 |  4:04.31 |    158028    |   176358
       10  | 39:11.34 |  6:48.05 |    176359    |   206963
       11  | 45:59.39 |  4:43.07 |    206964    |   228195
       12  | 50:42.46 |  6:19.26 |    228196    |   256646
Range status and errors
Selected range
     Filename C:\EAC\Ungern666\Tyr - The Lay Of Thrym (Limited Edition).wav
     Peak level 98.9 %
     Extraction speed 3.7 X
     Range quality 99.9 %
     Test CRC 9CD475C6
     Copy CRC 9CD475C6
     Copy OK
No errors occurred
AccurateRip summary
Track  1  accurately ripped (confidence 48)  [9D9834DD]  (AR v2)
Track  2  accurately ripped (confidence 47)  [81D543A7]  (AR v2)
Track  3  accurately ripped (confidence 48)  [99A87D3E]  (AR v2)
Track  4  accurately ripped (confidence 48)  [3F8C73DC]  (AR v2)
Track  5  accurately ripped (confidence 49)  [4AF65676]  (AR v2)
Track  6  accurately ripped (confidence 49)  [CDAE71E8]  (AR v2)
Track  7  accurately ripped (confidence 49)  [17026BAA]  (AR v2)
Track  8  accurately ripped (confidence 49)  [0595EB06]  (AR v2)
Track  9  accurately ripped (confidence 48)  [76350913]  (AR v2)
Track 10  accurately ripped (confidence 47)  [F213942E]  (AR v2)
Track 11  accurately ripped (confidence 49)  [D1EBD2F7]  (AR v2)
Track 12  accurately ripped (confidence 49)  [11095992]  (AR v2)
All tracks accurately ripped
End of status report
---- CUETools DB Plugin V2.1.6
[CTDB TOCID: NxYaaeEGblRgvNwFq_KxNd5EmQQ-] found
Submit result: NxYaaeEGblRgvNwFq_KxNd5EmQQ- has been confirmed
Track | CTDB Status
  1   | (63/64) Accurately ripped
  2   | (64/64) Accurately ripped
  3   | (62/64) Accurately ripped
  4   | (63/64) Accurately ripped
  5   | (64/64) Accurately ripped
  6   | (64/64) Accurately ripped
  7   | (64/64) Accurately ripped
  8   | (63/64) Accurately ripped
  9   | (64/64) Accurately ripped
 10   | (64/64) Accurately ripped
 11   | (64/64) Accurately ripped
 12   | (64/64) Accurately ripped
==== Log checksum 8A01F8763D12D2A0ACBBE69FAF7824F50DC7E0D1CEE33B434A6865F89898755F ====
#777Издатель (лейбл): Metal Blade Records GmbH
Номер по каталогу: 3984-15238-0
Продолжительность: 00:59:40/00:46:06
#77701. Blood Of Heroes 03:41
02. Mare Of My Night 03:55
03. Hel Hath No Fury 03:26
04. The Lay Of Our Love (feat. Liv Kristine) 03:47
05. Nation 04:04
06. Another Fallen Brother 04:04
07. Grindavísan 04:10
08. Into The Sky 02:10
09. Fánar Burtur Brandaljóð 03:38
10. Lady Of The Slain 04:32
11. Valkyrja 07:31
Bonus:
12. Where Eagles Dare 06:26
13. Cemetery Gates 07:25
Код: Выделить всё
Exact Audio Copy V1.1 from 23. June 2015
EAC extraction logfile from 23. June 2017, 14:33
Tyr / Valkyrja
Used drive  : HP      DVD Writer 1170d   Adapter: 1  ID: 1
Read mode               : Secure
Utilize accurate stream : Yes
Defeat audio cache      : Yes
Make use of C2 pointers : No
Read offset correction                      : 6
Overread into Lead-In and Lead-Out          : No
Fill up missing offset samples with silence : Yes
Delete leading and trailing silent blocks   : No
Null samples used in CRC calculations       : Yes
Used interface                              : Native Win32 interface for Win NT & 2000
Used output format              : User Defined Encoder
Selected bitrate                : 1024 kBit/s
Quality                         : High
Add ID3 tag                     : No
Command line compressor         : C:\Program Files (x86)\Exact Audio Copy\Flac\flac.exe
Additional command line options : -V -8 -T "Date=%year%" -T "Genre=%genre%" %source%
TOC of the extracted CD
     Track |   Start  |  Length  | Start sector | End sector
    ---------------------------------------------------------
        1  |  0:00.00 |  3:41.38 |         0    |    16612
        2  |  3:41.38 |  3:55.22 |     16613    |    34259
        3  |  7:36.60 |  3:26.58 |     34260    |    49767
        4  | 11:03.43 |  3:47.63 |     49768    |    66855
        5  | 14:51.31 |  4:04.67 |     66856    |    85222
        6  | 18:56.23 |  4:04.43 |     85223    |   103565
        7  | 23:00.66 |  4:10.52 |    103566    |   122367
        8  | 27:11.43 |  2:56.14 |    122368    |   135581
        9  | 30:07.57 |  3:38.18 |    135582    |   151949
       10  | 33:46.00 |  4:32.34 |    151950    |   172383
       11  | 38:18.34 |  7:31.17 |    172384    |   206225
       12  | 45:49.51 |  6:26.15 |    206226    |   235190
       13  | 52:15.66 |  7:25.04 |    235191    |   268569
Range status and errors
Selected range
     Filename C:\EAC\Ungern666\Tyr - Valkyrja.wav
     Peak level 98.9 %
     Extraction speed 6.3 X
     Range quality 99.9 %
     Test CRC 8CF3CA28
     Copy CRC 8CF3CA28
     Copy OK
No errors occurred
AccurateRip summary
Track  1  accurately ripped (confidence 28)  [9A1DAADB]  (AR v2)
Track  2  accurately ripped (confidence 28)  [CC4CCA02]  (AR v2)
Track  3  accurately ripped (confidence 28)  [FC369834]  (AR v2)
Track  4  accurately ripped (confidence 28)  [1C892743]  (AR v2)
Track  5  accurately ripped (confidence 28)  [FC853C7E]  (AR v2)
Track  6  accurately ripped (confidence 28)  [2A0E67FE]  (AR v2)
Track  7  accurately ripped (confidence 28)  [06C7D102]  (AR v2)
Track  8  accurately ripped (confidence 28)  [0F73F47E]  (AR v2)
Track  9  accurately ripped (confidence 28)  [91BFE21F]  (AR v2)
Track 10  accurately ripped (confidence 28)  [78158396]  (AR v2)
Track 11  accurately ripped (confidence 28)  [82B0FD78]  (AR v2)
Track 12  accurately ripped (confidence 29)  [35FF1B7E]  (AR v2)
Track 13  accurately ripped (confidence 29)  [C0D653C9]  (AR v2)
All tracks accurately ripped
End of status report
---- CUETools DB Plugin V2.1.6
[CTDB TOCID: A5ibceqruLnTrd6nJb8FiLob03k-] found
Submit result: A5ibceqruLnTrd6nJb8FiLob03k- has been confirmed
Track | CTDB Status
  1   | (111/115) Accurately ripped
  2   | (111/115) Accurately ripped
  3   | (111/115) Accurately ripped
  4   | (111/115) Accurately ripped
  5   | (111/115) Accurately ripped
  6   | (111/115) Accurately ripped
  7   | (111/115) Accurately ripped
  8   | (111/115) Accurately ripped
  9   | (111/115) Accurately ripped
 10   | (111/115) Accurately ripped
 11   | (110/115) Accurately ripped
 12   | (111/115) Accurately ripped
 13   | (110/115) Accurately ripped
==== Log checksum 841CCE1B5C808492A6905CEEFF766ADE99233628E23B553B4D19FD2C9F13F88A ====
#77701. Blood Of Heroes - Commentary 03:42
02. Mare Of My Night - Commentary 03:57
03. Hel Hath No Fury - Commentary 03:28
04. The Lay Of Our Love - Commentary 03:49
05. Nation - Commentary 04:06
06. Another Fallen Brother - Commentary 04:06
07. Grindavísan - Commentary 04:12
08. Into The Sky - Commentary 02:58
09. Fánar Burtur Brandaljóð - Commentary 03:40
10. Lady Of The Slain - Commentary 04:34
11. Valkyrja - Commentary 07:29
Код: Выделить всё
Exact Audio Copy V1.1 from 23. June 2015
EAC extraction logfile from 23. June 2017, 15:16
Tyr / Valkyrja Bonus Commentary CD
Used drive  : HP      DVD Writer 1170d   Adapter: 1  ID: 1
Read mode               : Secure
Utilize accurate stream : Yes
Defeat audio cache      : Yes
Make use of C2 pointers : No
Read offset correction                      : 6
Overread into Lead-In and Lead-Out          : No
Fill up missing offset samples with silence : Yes
Delete leading and trailing silent blocks   : No
Null samples used in CRC calculations       : Yes
Used interface                              : Native Win32 interface for Win NT & 2000
Used output format              : User Defined Encoder
Selected bitrate                : 1024 kBit/s
Quality                         : High
Add ID3 tag                     : No
Command line compressor         : C:\Program Files (x86)\Exact Audio Copy\Flac\flac.exe
Additional command line options : -V -8 -T "Date=%year%" -T "Genre=%genre%" %source%
TOC of the extracted CD
     Track |   Start  |  Length  | Start sector | End sector
    ---------------------------------------------------------
        1  |  0:00.00 |  3:42.24 |         0    |    16673
        2  |  3:42.24 |  3:57.22 |     16674    |    34470
        3  |  7:39.46 |  3:28.58 |     34471    |    50128
        4  | 11:08.29 |  3:49.63 |     50129    |    67366
        5  | 14:58.17 |  4:06.50 |     67367    |    85866
        6  | 19:04.67 |  4:06.43 |     85867    |   104359
        7  | 23:11.35 |  4:12.52 |    104360    |   123311
        8  | 27:24.12 |  2:58.14 |    123312    |   136675
        9  | 30:22.26 |  3:40.18 |    136676    |   153193
       10  | 34:02.44 |  4:34.34 |    153194    |   173777
       11  | 38:37.03 |  7:29.61 |    173778    |   207513
Range status and errors
Selected range
     Filename C:\EAC\Ungern666\Tyr - Valkyrja Bonus Commentary CD.wav
     Peak level 96.6 %
     Extraction speed 5.5 X
     Range quality 100.0 %
     Test CRC D46DAEB0
     Copy CRC D46DAEB0
     Copy OK
No errors occurred
AccurateRip summary
Track  1  accurately ripped (confidence 4)  [519A8E14]  (AR v2)
Track  2  accurately ripped (confidence 4)  [596CA6EB]  (AR v2)
Track  3  accurately ripped (confidence 4)  [71E9AB59]  (AR v2)
Track  4  accurately ripped (confidence 4)  [3968B839]  (AR v2)
Track  5  accurately ripped (confidence 4)  [81FB6F73]  (AR v2)
Track  6  accurately ripped (confidence 4)  [75DCD9A8]  (AR v2)
Track  7  accurately ripped (confidence 4)  [E7847C3B]  (AR v2)
Track  8  accurately ripped (confidence 4)  [5C12BD49]  (AR v2)
Track  9  accurately ripped (confidence 4)  [3A2C4310]  (AR v2)
Track 10  accurately ripped (confidence 4)  [2E3C334C]  (AR v2)
Track 11  accurately ripped (confidence 4)  [9FE66E35]  (AR v2)
All tracks accurately ripped
End of status report
---- CUETools DB Plugin V2.1.6
[CTDB TOCID: .M9ED6CeuUNaN5PkhGWtf4fyHtk-] found
Submit result: .M9ED6CeuUNaN5PkhGWtf4fyHtk- has been confirmed
Track | CTDB Status
  1   | (6/6) Accurately ripped
  2   | (6/6) Accurately ripped
  3   | (6/6) Accurately ripped
  4   | (6/6) Accurately ripped
  5   | (6/6) Accurately ripped
  6   | (6/6) Accurately ripped
  7   | (6/6) Accurately ripped
  8   | (6/6) Accurately ripped
  9   | (6/6) Accurately ripped
 10   | (6/6) Accurately ripped
 11   | (6/6) Accurately ripped
==== Log checksum FBED33106D463706A768FCD5458760AFACF4F8143E32EE0F96468AD89D39A661 ====
#777Издатель (лейбл): Metal Blade Records GmbH
Номер по каталогу: 3984-15633-2
Продолжительность: 01:09:59
01. Gates of Hel 06:43
02. All Heroes Fall 05:16
03. Ragnars kvæði 04:08
04. Garmr 04:53
05. Sunset Shore 04:43
06. Downhill Drunk 04:27
07. Empire of the North 05:12
08. Far from the Worries of the World 05:35
09. King of Time 04:57
10. Fire and Flame 05:39
11. Against the Gods 05:44
12. Songs of War 05:17
13. Álvur kongur 07:25
Код: Выделить всё
Exact Audio Copy V1.3 from 2. September 2016
EAC extraction logfile from 8. March 2019, 11:13
Tyr / Hel (Limited Edition)
Used drive  : HP      DVD Writer 1170d   Adapter: 1  ID: 1
Read mode               : Secure
Utilize accurate stream : Yes
Defeat audio cache      : Yes
Make use of C2 pointers : No
Read offset correction                      : 6
Overread into Lead-In and Lead-Out          : No
Fill up missing offset samples with silence : Yes
Delete leading and trailing silent blocks   : No
Null samples used in CRC calculations       : Yes
Used interface                              : Native Win32 interface for Win NT & 2000
Used output format              : User Defined Encoder
Selected bitrate                : 1024 kBit/s
Quality                         : High
Add ID3 tag                     : No
Command line compressor         : C:\Program Files (x86)\Exact Audio Copy\Flac\flac.exe
Additional command line options : -V -8 -T "Date=%year%" -T "Genre=%genre%" %source%
TOC of the extracted CD
     Track |   Start  |  Length  | Start sector | End sector
    ---------------------------------------------------------
        1  |  0:00.00 |  6:42.44 |         0    |    30193
        2  |  6:42.44 |  5:16.14 |     30194    |    53907
        3  | 11:58.58 |  4:08.14 |     53908    |    72521
        4  | 16:06.72 |  4:53.37 |     72522    |    94533
        5  | 21:00.34 |  4:42.53 |     94534    |   115736
        6  | 25:43.12 |  4:27.06 |    115737    |   135767
        7  | 30:10.18 |  5:11.61 |    135768    |   159153
        8  | 35:22.04 |  5:35.23 |    159154    |   184301
        9  | 40:57.27 |  4:57.32 |    184302    |   206608
       10  | 45:54.59 |  5:39.31 |    206609    |   232064
       11  | 51:34.15 |  5:43.38 |    232065    |   257827
       12  | 57:17.53 |  5:16.72 |    257828    |   281599
       13  | 62:34.50 |  7:24.60 |    281600    |   314959
Range status and errors
Selected range
     Filename C:\EAC\ungern666\Tyr - Hel (Limited Edition).wav
     Peak level 95.1 %
     Extraction speed 8.2 X
     Range quality 99.9 %
     Test CRC 8878D165
     Copy CRC 8878D165
     Copy OK
No errors occurred
AccurateRip summary
Track  1  not present in database
Track  2  not present in database
Track  3  not present in database
Track  4  not present in database
Track  5  not present in database
Track  6  not present in database
Track  7  not present in database
Track  8  not present in database
Track  9  not present in database
Track 10  not present in database
Track 11  not present in database
Track 12  not present in database
Track 13  not present in database
None of the tracks are present in the AccurateRip database
End of status report
---- CUETools DB Plugin V2.1.6
[CTDB TOCID: KdVCXtACHTYR6_T9ZabXvOxAhkI-] found
Submit result: KdVCXtACHTYR6_T9ZabXvOxAhkI- has been confirmed
Track | CTDB Status
  1   | (2/2) Accurately ripped
  2   | (2/2) Accurately ripped
  3   | (2/2) Accurately ripped
  4   | (2/2) Accurately ripped
  5   | (2/2) Accurately ripped
  6   | (2/2) Accurately ripped
  7   | (2/2) Accurately ripped
  8   | (2/2) Accurately ripped
  9   | (2/2) Accurately ripped
 10   | (2/2) Accurately ripped
 11   | (2/2) Accurately ripped
 12   | (2/2) Accurately ripped
 13   | (2/2) Accurately ripped
==== Log checksum 157CBAFFC8B05DF5119BF15765D3A6684CC8547B9263296777C3D679151191E0 ====

2011: The Lay Of Thrym (Japan Edition) http://rutracker.org/forum/viewtopic.php?t=4534716
Heljareyga (side project)
2010: Heljareyga http://rutracker.org/forum/viewtopic.php?t=3314245


Материал предназначен для ознакомления!
Правила, инструкции, FAQ!!!
Торрент  Добавлен [09 мар 2019, 19:21] Скачать торрент Магнет ссылка
Скачать торрент
35.05 КБ

Статус
Проверен 
 
Размер  4.34 ГБ
Приватный: Нет (DHT включён)
.torrent скачан  0
Как залить торрент? | Как скачать Torrent? | Как смотреть и слушать онлайн?  
Гость
 



Вернуться в Heavy, Power, Progressive (Metal)

Кто сейчас на конференции

Сейчас этот форум просматривают: нет зарегистрированных пользователей и гости: 1