Привет от «Катюши» [01-04 из 04] (2013) HDTV (1080i)

Статистика раздачи
Размер: 15.98 ГБ | Добавлен: 10 май 2013, 14:54 | Скачали: 31
Сидеров: 10  [0 байт/сек]    Личеров: 9  [0 байт/сек]

Сообщение Гость » 10 май 2013, 14:54

Название: Привет от «Катюши»
Год выхода: 2013
Жанр: Драма, военный
Режиссер: Константин Статский

В фильме снимались: Александр Устюгов, Анатолий Гущин, Тимофей Трибунцев, Азамат Нигманов, Поля Полякова, Евгений Антропов, Александр Ефремов (II), Надежда Анципович, Сергей Ефремов (II), Антон Жуков, Виталий Котовицкий, Михаил Клименко, Юрий Вутто, Денис Паршин, Игорь Денисов, Вероника Пляшкевич

Вкратце:
Ремейк фильма "Отряд особого назначения". Великая Отечественная война. Во время отступления частей Красной Армии, шла переброска секретного оружия – "гвардейских миномётов БМ-13", впоследствии названных "Катюшами". В ходе операции одна машина затонула. Чтобы не допустить ее попадания в руки врага, срочно формируется и забрасывается за линию фронта отряд из нескольких мастеров спорта под командованием Александра Ермакова. Их цель – найти и уничтожить орудие.

Страна: Россия, Mars Media Intertaiment
Продолжительность: 00:43:50
Перевод: Не требуется

Формат: mkv
Кодек: h.264
Качество: HDTV (1080i)
Видео: AVC, 1920х1080, 11.6 Mbps
Звук: MP2, 2 ch, 192 Кбит/с

General
ID : 1 (0x1)
Complete name : D:запись с твPrivet.ot.Katyushi.04.seriya.2013.h264.HDTV.Files-x.ts
Format : MPEG-TS
File size : 4.11 GiB
Duration : 47mn 20s
Overall bit rate mode : Variable
Overall bit rate : 12.4 Mbps

Video
ID : 69 (0x45)
Menu ID : 1 (0x1)
Format : AVC
Format/Info : Advanced Video Codec
Format profile : Main@L4.0
Format settings, CABAC : Yes
Format settings, ReFrames : 3 frames
Codec ID : 27
Duration : 47mn 20s
Bit rate : 11.6 Mbps
Width : 1 920 pixels
Height : 1 080 pixels
Display aspect ratio : 16:9
Frame rate : 25.000 fps
Standard : Component
Color space : YUV
Chroma subsampling : 4:2:0
Bit depth : 8 bits
Scan type : Interlaced
Scan order : Top Field First
Bits/(Pixel*Frame) : 0.224
Stream size : 3.84 GiB (93%)
Color primaries : BT.709
Transfer characteristics : BT.709
Matrix coefficients : BT.709

Audio
ID : 68 (0x44)
Menu ID : 1 (0x1)
Format : MPEG Audio
Format version : Version 1
Format profile : Layer 2
Codec ID : 3
Duration : 47mn 20s
Bit rate mode : Constant
Bit rate : 192 Kbps
Channel(s) : 2 channels
Sampling rate : 48.0 KHz
Compression mode : Lossy
Stream size : 65.0 MiB (2%)
Language : Russian




Релиз от:
Правила, инструкции, FAQ!!!
Торрент  Добавлен [10 май 2013, 14:54] Скачать торрент Магнет ссылка
Скачать торрент
[ Размер 40.79 КБ / Просмотров 33 ]

Статус
Проверен 
 
Размер  15.98 ГБ
Приватный: Нет (DHT включён)
.torrent скачан  31
Как залить торрент? | Как скачать Torrent? | Как смотреть и слушать онлайн?  
Гость
 


  • Похожие торренты
    Ответы
    Просмотры
    Последнее сообщение

Вернуться в Новинки

Кто сейчас на конференции

Сейчас этот форум просматривают: нет зарегистрированных пользователей и гости: 0