Приключения Тинтина: Тайна Единорога в 3Д / The Adventures of Tintin 3D (Стивен Спилберг / Steven Spielberg) [2011, мультфильм, боевик, детектив, приключения, семейн, HDrip, 1080p] Anaglyph / Анаглиф


Статистика раздачи
Размер: 7.99 ГБ | Добавлен: 02 ноя 2014, 09:48 | Скачали: 0
Сидеров: 10  [0 байт/сек]    Личеров: 2  [0 байт/сек]

Сообщение Гость » 02 ноя 2014, 09:48

Приключения Тинтина: Тайна Единорога 3D / The Adventures of Tintin 3D

Год выпуска: 2011
Страна: США, Новая Зеландия
Студия: Paramount Pictures
Жанр: Мультфильм, Боевик, Детектив, Приключения, Семейны
Продолжительность: 01:46:50

Перевод: Профессиональный (многоголосый закадровый)
Русские субтитры: нет
Режиссер на русском: Стивен Спилберг
Режиссер на английском: Steven Spielberg
Роли озвучивали: Тинтин - Джейми Белл / Филипп Бледный
Капитан Хаддок - Энди Серкис / Сергей Чихачев
Сакхарин - Дэниэл Крэйг / Никита Прозоровский
Томпсон - Саймон Пегг / Александр Новиков
Томсон - Ник Фрост / Андрей Чубченко
Пилот - Кэри Элвис / Пётр Иващенко
Силк - Тоби Джонс /- Олег Форостенко
Барнаби Доус - Джо Старр / Михаил Георгиу
Том - Маккензи Крук / Даниил Щебланов
Лейтенант Делькур - Тони Карран / Илья Исаев
Аллан - Дэниэл Мейс / Вадим Медведев
Описание: Отважный репортёр Тинтин и его верный пёс путешествуют по миру, оказываясь втянутыми в вереницу увлекательных и опасных приключений.

Качество: HDrip
Контейнер: MKV
Формат 3D: Анаглиф red-cyan
Видео кодек: AVC
Аудио кодек: AC3
Видео: AVC, 1920х816, 23.976 кадр/сек, 9.407 Мбит/сек
Аудио: Русский / AC3 / 48 KHz / 5.1 ch / 448 Kbps
Аудио 2: Английский / AC3 / 48 KHz / 5.1 ch / 640 Kbps
General
Unique ID : 195132392363872764906264325933855719881 (0x92CD21BAD986037BB53D8E2F7DCCC1C9)
Complete name : E:\Видео\Приключения Тинтина\Tintin.mkv
Format : Matroska
File size : 7.99 GiB
Duration : 1h 46mn
Overall bit rate : 10.7 Mbps
Encoded date : UTC 2012-05-05 20:46:07
Writing application : mkvmerge v5.4.0 ('Piper') built on Mar 10 2012 13:34:39
Writing library : libebml v1.2.3 + libmatroska v1.3.0

Video
ID : 1
Format : AVC
Format/Info : Advanced Video Codec
Format profile : High@L4.1
Format settings, CABAC : Yes
Format settings, ReFrames : 5 frames
Codec ID : V_MPEG4/ISO/AVC
Duration : 1h 46mn
Bit rate : 9 407 Kbps
Nominal bit rate : 10 000 Kbps
Width : 1 920 pixels
Height : 816 pixels
Display aspect ratio : 2.35:1
Original display aspect ratio : 2.35:1
Frame rate : 23.976 fps
Color space : YUV
Chroma subsampling : 4:2:0
Bit depth : 8 bits
Scan type : Progressive
Bits/(Pixel*Frame) : 0.250
Stream size : 7.02 GiB (88%)
Writing library : x264 core 120 r2120bm 0c7dab9
Encoding settings : cabac=1 / ref=5 / deblock=1:1:1 / analyse=0x3:0x113 / me=umh / subme=8 / psy=1 / psy_rd=0.40:0.00 / mixed_ref=1 / me_range=16 / chroma_me=1 / trellis=1 / 8x8dct=1 / cqm=0 / deadzone=21,11 / fast_pskip=1 / chroma_qp_offset=-2 / threads=6 / sliced_threads=0 / nr=0 / decimate=1 / interlaced=0 / bluray_compat=0 / constrained_intra=0 / bframes=5 / b_pyramid=2 / b_adapt=2 / b_bias=0 / direct=3 / weightb=1 / open_gop=0 / weightp=2 / keyint=250 / keyint_min=23 / scenecut=40 / intra_refresh=0 / rc_lookahead=50 / rc=abr / mbtree=1 / bitrate=10000 / ratetol=1.0 / qcomp=0.60 / qpmin=0 / qpmax=69 / qpstep=4 / ip_ratio=1.40 / aq=1:0.60

Audio #1
ID : 2
Format : AC-3
Format/Info : Audio Coding 3
Mode extension : CM (complete main)
Codec ID : A_AC3
Duration : 1h 46mn
Bit rate mode : Constant
Bit rate : 448 Kbps
Channel(s) : 6 channels
Channel positions : Front: L C R, Side: L R, LFE
Sampling rate : 48.0 KHz
Bit depth : 16 bits
Compression mode : Lossy
Stream size : 342 MiB (4%)
Language : Russian

Audio #2
ID : 3
Format : AC-3
Format/Info : Audio Coding 3
Mode extension : CM (complete main)
Codec ID : A_AC3
Duration : 1h 46mn
Bit rate mode : Constant
Bit rate : 640 Kbps
Channel(s) : 6 channels
Channel positions : Front: L C R, Side: L R, LFE
Sampling rate : 48.0 KHz
Bit depth : 16 bits
Compression mode : Lossy
Stream size : 489 MiB (6%)
Language : English



Правила, инструкции, FAQ!!!
Торрент  Добавлен [02 ноя 2014, 09:48] Скачать торрент Магнет ссылка
Скачать торрент
20.57 КБ

Статус
Проверен 
 
Размер  7.99 ГБ
Приватный: Нет (DHT включён)
.torrent скачан  0
Как залить торрент? | Как скачать Torrent? | Как смотреть и слушать онлайн?  
Гость
 



Вернуться в HD-Video в 3D

Кто сейчас на конференции

Сейчас этот форум просматривают: нет зарегистрированных пользователей и гости: 1