Последний риф 3D / The Last Reef 3D (2012) BDRip 1080p от Ash61 | 3D-Video | halfOU | L1


Статистика раздачи
Размер: 5.66 ГБ | Добавлен: 28 дек 2017, 20:28 | Скачали: 129
Сидеров: 97  [0 байт/сек]    Личеров: 53  [0 байт/сек]

Сообщение Гость » 28 дек 2017, 20:28

[font=Georgia]
Последний риф 3D
The Last Reef 3D



Год выпуска: 2012
Страна: США, Канада, Мексика, Палау, Французская Полинезия, Багамы (Giant Screen Films, D3D Cinema, Liquid Pictures, Yes/No Productions)
Жанр: Документальный, Видовой
Продолжительность: 00:39:54

Озвучка: Любительская одноголосая закадровая (Noname)

Режиссеры: Люк Крессвелл, Стив МакНиколас / Luke Cresswell, Steve McNicholas

Рассказчик по-английски: Jamie Lee



Описание: Потрясающе красивый объемный фильм в формате Digital 3D от создателей фильма «Дикий океан», призванный показать людям экосистему, напоминающую по своей природе большой мегаполис, где разные животные объединяются и сосуществуют друг с другом. В фильме вас ожидает увлекательное путешествие в подводный мир океана и знакомство с обитателями рифов.



Премьера: 3 февраля 2012 (23 августа 2012)
Бюджет: $4 000 000





Качество: BDRip (by Ash61)
Контейнер: MKV
Формат 3D: Half OverUnder / Вертикальная анаморфная стереопара
Порядок ракурсов: левый ракурс первый



Видео: AVC / 1920х1080p / 23,976 fps / 18.6 Mbps

Аудио:
#1 - Русский / AC3 / 48 KHz / 5.1 ch / 640 Kbps (VO)
#2 - Английский / AC3 / 48 KHz / 5.1 ch / 640 Kbps (Original - BD 3D)

Субтитры (внешние SRT UTF-8):
#1 - Русские Полные [перевод любительский - Ash61]
#2 - English Full
#3 - English SDH

General
Unique ID : 193413128494981487210743196833397536895 (0x9182037A04D43CFEA9884FD28C42F87F)
Complete name : D:TheLastReef(2012)3D-halfOU(Ash61)VOTheLastReef(2012)3D-halfOU(Ash61)VO.mkv
Format : Matroska
Format version : Version 2
File size : 5.66 GiB
Duration : 39mn 54s
Overall bit rate : 20.3 Mbps
Movie name : Последний риф 3D / The Last Reef 3D (2012) в 3Д
Encoded date : UTC 2017-12-18 21:41:44
Writing application : mkvmerge v5.8.0 ('No Sleep / Pillow') built on Sep 2 2012 15:37:04
Writing library : libebml v1.2.3 + libmatroska v1.3.0

Video
ID : 1
Format : AVC
Format/Info : Advanced Video Codec
Format profile : High@L4.1
Format settings, CABAC : Yes
Format settings, ReFrames : 4 frames
Codec ID : V_MPEG4/ISO/AVC
Duration : 39mn 54s
Bit rate : 18.6 Mbps
Width : 1 920 pixels
Height : 1 080 pixels
Display aspect ratio : 16:9
Frame rate mode : Constant
Frame rate : 23.976 (24000/1001) fps
Color space : YUV
Chroma subsampling : 4:2:0
Bit depth : 8 bits
Scan type : Progressive
Bits/(Pixel*Frame) : 0.374
Stream size : 5.19 GiB (92%)
Title : BDRip by Ash61
Writing library : x264 core 146 r2538 121396c
Encoding settings : cabac=1 / ref=4 / deblock=1:-3:-3 / analyse=0x3:0x113 / me=umh / subme=10 / psy=1 / psy_rd=1.00:0.00 / mixed_ref=1 / me_range=32 / chroma_me=1 / trellis=2 / 8x8dct=1 / cqm=0 / deadzone=21,11 / fast_pskip=1 / chroma_qp_offset=-2 / threads=12 / lookahead_threads=3 / sliced_threads=0 / nr=0 / decimate=1 / interlaced=0 / bluray_compat=0 / constrained_intra=0 / bframes=10 / b_pyramid=2 / b_adapt=2 / b_bias=0 / direct=3 / weightb=1 / open_gop=0 / weightp=2 / keyint=250 / keyint_min=23 / scenecut=40 / intra_refresh=0 / rc_lookahead=60 / rc=crf / mbtree=1 / crf=15.5 / qcomp=0.70 / qpmin=0 / qpmax=69 / qpstep=4 / vbv_maxrate=40000 / vbv_bufsize=30000 / crf_max=0.0 / nal_hrd=none / filler=0 / frame-packing=4 / ip_ratio=1.40 / aq=1:0.70
Language : English
Default : Yes
Forced : No

Audio #1
ID : 2
Format : AC-3
Format/Info : Audio Coding 3
Mode extension : CM (complete main)
Format settings, Endianness : Big
Codec ID : A_AC3
Duration : 39mn 54s
Bit rate mode : Constant
Bit rate : 640 Kbps
Channel(s) : 6 channels
Channel positions : Front: L C R, Side: L R, LFE
Sampling rate : 48.0 KHz
Frame rate : 31.250 fps (1536 spf)
Compression mode : Lossy
Stream size : 183 MiB (3%)
Title : Любительский одноголосый закадровый (перевод любительский - Ash61)
Language : Russian
Default : Yes
Forced : No

Audio #2
ID : 3
Format : AC-3
Format/Info : Audio Coding 3
Mode extension : CM (complete main)
Format settings, Endianness : Big
Codec ID : A_AC3
Duration : 39mn 54s
Bit rate mode : Constant
Bit rate : 640 Kbps
Channel(s) : 6 channels
Channel positions : Front: L C R, Side: L R, LFE
Sampling rate : 48.0 KHz
Frame rate : 31.250 fps (1536 spf)
Compression mode : Lossy
Stream size : 183 MiB (3%)
Title : Original - BD 3D
Language : English
Default : No
Forced : No

Menu
00:00:00.000 : :1
00:02:35.364 : :2
00:05:17.108 : :3
00:06:45.864 : :4
00:12:46.766 : :5
00:15:10.284 : :6
00:17:14.450 : :7
00:19:46.477 : :8
00:20:36.735 : :9
00:21:28.537 : :10
00:25:30.112 : :11
00:27:14.633 : :12
00:30:11.101 : :13
00:34:33.905 : :14
00:37:22.449 : :15



















Правила, инструкции, FAQ!!!
Торрент  Добавлен [28 дек 2017, 20:28] Скачать торрент Магнет ссылка
Скачать торрент
29.5 КБ

Статус
Проверен 
 
Размер  5.66 ГБ
Приватный: Нет (DHT включён)
.torrent скачан  129
Как залить торрент? | Как скачать Torrent? | Как смотреть и слушать онлайн?  
Гость
 



Вернуться в HD-Video в 3D

Кто сейчас на конференции

Сейчас этот форум просматривают: нет зарегистрированных пользователей и гости: 5