Pop Evil - 4 Альбома (2004-2013) Дискография [FLAC|Lossless]<Alt. Rock | Hard Rock | Post-Grunge>


Статистика раздачи
Размер: 1.26 ГБ | Добавлен: 16 мар 2014, 00:54 | Скачали: 5
Сидеров: 106  [0 байт/сек]    Личеров: 579  [0 байт/сек]

Сообщение Гость » 16 мар 2014, 00:54


Pop Evil
- Дискография





Год выпуска: 2004-2013
Жанр: Alt. Rock | Hard Rock | Post-Grunge
Продолжительность: 02:55:53
Тип издания: Дискография
Страна: США



Треклист:

01. Off You Go
02. Greetings From California
03. Wake Up
04. Levee
05. Denial
06. Loaded Shotgun& The Silver Spoon
07. Consequences
08. Glory
09. Out Of The Rain
10. Round The World
11. Candy

Продолжительность: 00:39:28

Код:
Код: Выделить всё
X Lossless Decoder version 20100218 (116.4)

XLD extraction logfile from 2010-02-20 16:26:19 -0500

Pop Evil / War Of The Roses

Used drive : MATSHITA DVD-R   UJ-875 (revision DA09)

Use cdparanoia mode     : YES (CDParanoia III 10.2 engine)
Disable audio cache     : OK for the drive with cache less than 2750KB
Make use of C2 pointers : NO
Read offset correction  : 102
Max retry count         : 100

TOC of the extracted CD
     Track |   Start  |  Length  | Start sector | End sector
    ---------------------------------------------------------
        1  | 00:00:00 | 03:44:06 |         0    |    16805
        2  | 03:44:06 | 03:45:26 |     16806    |    33706
        3  | 07:29:32 | 02:44:64 |     33707    |    46070
        4  | 10:14:21 | 04:57:09 |     46071    |    68354
        5  | 15:11:30 | 03:38:47 |     68355    |    84751
        6  | 18:50:02 | 02:45:56 |     84752    |    97182
        7  | 21:35:58 | 03:51:45 |     97183    |   114552
        8  | 25:27:28 | 03:26:26 |    114553    |   130028
        9  | 28:53:54 | 04:39:28 |    130029    |   150981
       10  | 33:33:07 | 02:41:00 |    150982    |   163056
       11  | 36:14:07 | 03:14:14 |    163057    |   177620

Track 01
    Filename : /Users/stealthbt/Desktop/Pop Evil - 2004 - War Of The Roses/01 - Off You Go.flac

    Pre-gap length : 00:02:00

    CRC32 hash (test run)  : D9C3428A
    CRC32 hash             : D9C3428A
    CRC32 hash (skip zero) : 6780A760
    AccurateRip signature  : DC4A5C0E
        ->Track not present in AccurateRip database.
    Statistics
        Read error                           : 0
        Skipped (treated as error)           : 0
        Edge jitter error (maybe fixed)      : 0
        Atom jitter error (maybe fixed)      : 0
        Drift error (maybe fixed)            : 0
        Dropped bytes error (maybe fixed)    : 0
        Duplicated bytes error (maybe fixed) : 0
        Inconsistency in error sectors       : 0

Track 02
    Filename : /Users/stealthbt/Desktop/Pop Evil - 2004 - War Of The Roses/02 - Greetings From California.flac

    Pre-gap length : 00:02:00

    CRC32 hash (test run)  : EFCC9734
    CRC32 hash             : EFCC9734
    CRC32 hash (skip zero) : 73786740
    AccurateRip signature  : 6D21EFB7
        ->Track not present in AccurateRip database.
    Statistics
        Read error                           : 0
        Skipped (treated as error)           : 0
        Edge jitter error (maybe fixed)      : 0
        Atom jitter error (maybe fixed)      : 0
        Drift error (maybe fixed)            : 0
        Dropped bytes error (maybe fixed)    : 0
        Duplicated bytes error (maybe fixed) : 0
        Inconsistency in error sectors       : 0

Track 03
    Filename : /Users/stealthbt/Desktop/Pop Evil - 2004 - War Of The Roses/03 - Wake Up.flac

    Pre-gap length : 00:02:00

    CRC32 hash (test run)  : 0BB1D471
    CRC32 hash             : 0BB1D471
    CRC32 hash (skip zero) : B3195B92
    AccurateRip signature  : 8DDB4559
        ->Track not present in AccurateRip database.
    Statistics
        Read error                           : 0
        Skipped (treated as error)           : 0
        Edge jitter error (maybe fixed)      : 0
        Atom jitter error (maybe fixed)      : 0
        Drift error (maybe fixed)            : 0
        Dropped bytes error (maybe fixed)    : 0
        Duplicated bytes error (maybe fixed) : 0
        Inconsistency in error sectors       : 0

Track 04
    Filename : /Users/stealthbt/Desktop/Pop Evil - 2004 - War Of The Roses/04 - Levee.flac

    Pre-gap length : 00:02:00

    CRC32 hash (test run)  : A9E781BF
    CRC32 hash             : A9E781BF
    CRC32 hash (skip zero) : 2F8EA307
    AccurateRip signature  : 8066FFDD
        ->Track not present in AccurateRip database.
    Statistics
        Read error                           : 0
        Skipped (treated as error)           : 0
        Edge jitter error (maybe fixed)      : 0
        Atom jitter error (maybe fixed)      : 0
        Drift error (maybe fixed)            : 0
        Dropped bytes error (maybe fixed)    : 0
        Duplicated bytes error (maybe fixed) : 0
        Inconsistency in error sectors       : 0

Track 05
    Filename : /Users/stealthbt/Desktop/Pop Evil - 2004 - War Of The Roses/05 - Denial.flac

    Pre-gap length : 00:02:00

    CRC32 hash (test run)  : FBBE38E9
    CRC32 hash             : FBBE38E9
    CRC32 hash (skip zero) : D6F631EC
    AccurateRip signature  : BDC7D74E
        ->Track not present in AccurateRip database.
    Statistics
        Read error                           : 0
        Skipped (treated as error)           : 0
        Edge jitter error (maybe fixed)      : 0
        Atom jitter error (maybe fixed)      : 0
        Drift error (maybe fixed)            : 0
        Dropped bytes error (maybe fixed)    : 0
        Duplicated bytes error (maybe fixed) : 0
        Inconsistency in error sectors       : 0

Track 06
    Filename : /Users/stealthbt/Desktop/Pop Evil - 2004 - War Of The Roses/06 - Loaded Shotgun& The Silver Spoon.flac

    Pre-gap length : 00:02:00

    CRC32 hash (test run)  : CE515C90
    CRC32 hash             : CE515C90
    CRC32 hash (skip zero) : 87C6DEA3
    AccurateRip signature  : 0CF9DD7A
        ->Track not present in AccurateRip database.
    Statistics
        Read error                           : 0
        Skipped (treated as error)           : 0
        Edge jitter error (maybe fixed)      : 0
        Atom jitter error (maybe fixed)      : 0
        Drift error (maybe fixed)            : 0
        Dropped bytes error (maybe fixed)    : 0
        Duplicated bytes error (maybe fixed) : 0
        Inconsistency in error sectors       : 0

Track 07
    Filename : /Users/stealthbt/Desktop/Pop Evil - 2004 - War Of The Roses/07 - Consequences.flac

    Pre-gap length : 00:02:00

    CRC32 hash (test run)  : 61A6FEB4
    CRC32 hash             : 61A6FEB4
    CRC32 hash (skip zero) : B846E2A8
    AccurateRip signature  : 944A39EA
        ->Track not present in AccurateRip database.
    Statistics
        Read error                           : 0
        Skipped (treated as error)           : 0
        Edge jitter error (maybe fixed)      : 0
        Atom jitter error (maybe fixed)      : 0
        Drift error (maybe fixed)            : 0
        Dropped bytes error (maybe fixed)    : 0
        Duplicated bytes error (maybe fixed) : 0
        Inconsistency in error sectors       : 0

Track 08
    Filename : /Users/stealthbt/Desktop/Pop Evil - 2004 - War Of The Roses/08 - Glory.flac

    Pre-gap length : 00:02:00

    CRC32 hash (test run)  : 313DD1A4
    CRC32 hash             : 313DD1A4
    CRC32 hash (skip zero) : 70FD246D
    AccurateRip signature  : A275BA3E
        ->Track not present in AccurateRip database.
    Statistics
        Read error                           : 0
        Skipped (treated as error)           : 0
        Edge jitter error (maybe fixed)      : 0
        Atom jitter error (maybe fixed)      : 0
        Drift error (maybe fixed)            : 0
        Dropped bytes error (maybe fixed)    : 0
        Duplicated bytes error (maybe fixed) : 0
        Inconsistency in error sectors       : 0

Track 09
    Filename : /Users/stealthbt/Desktop/Pop Evil - 2004 - War Of The Roses/09 - Out Of The Rain.flac

    Pre-gap length : 00:02:00

    CRC32 hash (test run)  : F4DF5AF2
    CRC32 hash             : F4DF5AF2
    CRC32 hash (skip zero) : 5E2FA914
    AccurateRip signature  : B66214F8
        ->Track not present in AccurateRip database.
    Statistics
        Read error                           : 0
        Skipped (treated as error)           : 0
        Edge jitter error (maybe fixed)      : 0
        Atom jitter error (maybe fixed)      : 0
        Drift error (maybe fixed)            : 0
        Dropped bytes error (maybe fixed)    : 0
        Duplicated bytes error (maybe fixed) : 0
        Inconsistency in error sectors       : 0

Track 10
    Filename : /Users/stealthbt/Desktop/Pop Evil - 2004 - War Of The Roses/10 - Round The World.flac

    Pre-gap length : 00:02:00

    CRC32 hash (test run)  : 970881BE
    CRC32 hash             : 970881BE
    CRC32 hash (skip zero) : 95972159
    AccurateRip signature  : 700178CE
        ->Track not present in AccurateRip database.
    Statistics
        Read error                           : 0
        Skipped (treated as error)           : 0
        Edge jitter error (maybe fixed)      : 0
        Atom jitter error (maybe fixed)      : 0
        Drift error (maybe fixed)            : 0
        Dropped bytes error (maybe fixed)    : 0
        Duplicated bytes error (maybe fixed) : 0
        Inconsistency in error sectors       : 0

Track 11
    Filename : /Users/stealthbt/Desktop/Pop Evil - 2004 - War Of The Roses/11 - Candy.flac

    Pre-gap length : 00:02:00

    CRC32 hash (test run)  : 3D3D38AD
    CRC32 hash             : 3D3D38AD
    CRC32 hash (skip zero) : 73CC8B26
    AccurateRip signature  : 5733B2AA
        ->Track not present in AccurateRip database.
    Statistics
        Read error                           : 0
        Skipped (treated as error)           : 0
        Edge jitter error (maybe fixed)      : 0
        Atom jitter error (maybe fixed)      : 0
        Drift error (maybe fixed)            : 0
        Dropped bytes error (maybe fixed)    : 0
        Duplicated bytes error (maybe fixed) : 0
        Inconsistency in error sectors       : 0

No errors occurred

End of status report

Код:
Код: Выделить всё
-----------------------

DON'T MODIFY THIS FILE

-----------------------

PERFORMER: auCDtect Task Manager, ver. 1.5.1RC6 build 1.5.1.7
Copyright (c) 2008-2010 y-soft. All rights reserved
http:/y-soft.org

ANALYZER: auCDtect: CD records authenticity detector, version 0.8.2
Copyright (c) 2004 Oleg Berngardt. All rights reserved.
Copyright (c) 2004 Alexander Djourik. All rights reserved.

FILE: 11. Pop Evil - Candy.flac
  Size: 24239280 Hash: 373E92E67B9ECF8C92530C5A16F5F079 Accuracy: -m0
  Conclusion: CDDA 100%
  Signature: 91457B9B8E22088D905093EDF2024A30CEC31616
FILE: 10. Pop Evil - Round The World.flac
  Size: 17615560 Hash: A9157041D012E8EB0F9EDE10ACCBDEF1 Accuracy: -m0
  Conclusion: CDDA 100%
  Signature: B29121D8BC827D4BB29EA48CC9804275BEED532F
FILE: 09. Pop Evil - Out Of The Rain.flac
  Size: 32511896 Hash: C0DBDA6C4029D97549CCC9C704513FB1 Accuracy: -m0
  Conclusion: CDDA 100%
  Signature: 05E7A82097895ABA2F3513FA46D5855497BFEC46
FILE: 08. Pop Evil - Glory.flac
  Size: 22622048 Hash: 3C1E3681B95AEF1D06CD5AC7EFAECB63 Accuracy: -m0
  Conclusion: CDDA 99%
  Signature: D22048C3EA79D5BDF7D5CC5FDD24346BAECB68A9
FILE: 07. Pop Evil - Consequences.flac
  Size: 26095450 Hash: 5F1C36D8FCAF355A81862247B7D1F53C Accuracy: -m0
  Conclusion: CDDA 100%
  Signature: BA67E85A33D8F46FF5FDB78515D6067DC06A7A37
FILE: 06. Pop Evil - Loaded Shotgun& The Silver Spoon.flac
  Size: 18469575 Hash: 513DF124DE97E650DB7C8C68A938E9FD Accuracy: -m0
  Conclusion: CDDA 100%
  Signature: 23F498EA90FF44E1F9F7D27ADD13C46B7645E246
FILE: 05. Pop Evil - Denial.flac
  Size: 26445228 Hash: 6973495D8F81BAA65FE33395B0D17FC4 Accuracy: -m0
  Conclusion: CDDA 100%
  Signature: 7ACBD928EDE402809A4C8B9915E0AAA2D96615AC
FILE: 04. Pop Evil - Levee.flac
  Size: 30381656 Hash: E915C2121BE847F4DF3979A199E5D34E Accuracy: -m0
  Conclusion: CDDA 99%
  Signature: 84B05FC487B1C4C718F7D62448F88A5AA48618F9
FILE: 03. Pop Evil - Wake Up.flac
  Size: 19326365 Hash: D9F92A2310C3DF57BAD8C7DA92665592 Accuracy: -m0
  Conclusion: CDDA 100%
  Signature: 399850A0EE48EAD3FCAEC42DD1DC6B120ABCC0BB
FILE: 02. Pop Evil - Greetings From California.flac
  Size: 24964979 Hash: 3CE33257113F97D4A512B8CEAFFA3DC9 Accuracy: -m0
  Conclusion: CDDA 87%
  Signature: A0012F74A44ED9932B695F21D36624A15DE88810
FILE: 01. Pop Evil - Off You Go.flac
  Size: 25433706 Hash: 486CBBC837FE6739FB41555D88BC23E3 Accuracy: -m0
  Conclusion: CDDA 100%
  Signature: D1CA31B183EB0BCA2098994EA74A28F9C4225860


#777Треклист:

01. Hero
02. Breathe
03. Shinedown
04. 100 in a 55
05. Somebody Like You
06. 3 Seconds to Freedom
07. Another Romeo & Juliet
08. Stepping Stone
09. Jupiter in June
10. One More Goodbye
11. Ready or Not
12. Hard Highway
13. Hey Mister

Продолжительность: 00:57:42


Код:
Код: Выделить всё
Exact Audio Copy V0.99 prebeta 3 from 28. July 2007

EAC extraction logfile from 18. December 2008, 22:08

Pop Evil / Lipstick on the Mirror

Used drive  : ASUS    DRW-1608P   Adapter: 1  ID: 0

Read mode               : Secure
Utilize accurate stream : Yes
Defeat audio cache      : Yes
Make use of C2 pointers : No

Read offset correction                      : 48
Overread into Lead-In and Lead-Out          : No
Fill up missing offset samples with silence : Yes
Delete leading and trailing silent blocks   : No
Null samples used in CRC calculations       : Yes
Used interface                              : Native Win32 interface for Win NT & 2000
Gap handling                                : Appended to previous track

Used output format              : User Defined Encoder
Selected bitrate                : 128 kBit/s
Quality                         : High
Add ID3 tag                     : No
Command line compressor         : C:\Program Files (x86)\Exact Audio Copy\Flac\flac.exe
Additional command line options : -V -8 -T "artist=%a" -T "title=%t" -T "album=%g" -T "date=%y" -T "tracknumber=%n" -T "genre=%m" %s

TOC of the extracted CD

     Track |   Start  |  Length  | Start sector | End sector
    ---------------------------------------------------------
        1  |  0:00.00 |  3:31.49 |         0    |    15873
        2  |  3:31.49 |  3:23.14 |     15874    |    31112
        3  |  6:54.63 |  3:40.21 |     31113    |    47633
        4  | 10:35.09 |  4:11.47 |     47634    |    66505
        5  | 14:46.56 |  3:42.25 |     66506    |    83180
        6  | 18:29.06 |  3:20.25 |     83181    |    98205
        7  | 21:49.31 |  4:35.64 |     98206    |   118894
        8  | 26:25.20 |  3:38.59 |    118895    |   135303
        9  | 30:04.04 |  3:56.14 |    135304    |   153017
       10  | 34:00.18 |  3:56.41 |    153018    |   170758
       11  | 37:56.59 |  3:33.74 |    170759    |   186807
       12  | 41:30.58 |  3:37.61 |    186808    |   203143
       13  | 45:08.44 | 12:33.67 |    203144    |   259685

Track  1

     Filename F:\EAC Rips\FLAC rips\Pop Evil\Lipstick on the Mirror\01 Hero .wav

     Pre-gap length  0:00:02.00

     Peak level 99.9 %
     Track quality 100.0 %
     Test CRC 3C142477
     Copy CRC 3C142477
     Copy OK

Track  2

     Filename F:\EAC Rips\FLAC rips\Pop Evil\Lipstick on the Mirror\02 Breathe .wav

     Pre-gap length  0:00:00.34

     Peak level 100.0 %
     Track quality 99.9 %
     Test CRC 31FF93D5
     Copy CRC 31FF93D5
     Copy OK

Track  3

     Filename F:\EAC Rips\FLAC rips\Pop Evil\Lipstick on the Mirror\03 Shinedown .wav

     Pre-gap length  0:00:00.08

     Peak level 100.0 %
     Track quality 100.0 %
     Test CRC 3316292F
     Copy CRC 3316292F
     Copy OK

Track  4

     Filename F:\EAC Rips\FLAC rips\Pop Evil\Lipstick on the Mirror\04 100 in a 55 .wav

     Pre-gap length  0:00:00.08

     Peak level 100.0 %
     Track quality 100.0 %
     Test CRC 83FEA44B
     Copy CRC 83FEA44B
     Copy OK

Track  5

     Filename F:\EAC Rips\FLAC rips\Pop Evil\Lipstick on the Mirror\05 Somebody Like You .wav

     Pre-gap length  0:00:00.10

     Peak level 100.0 %
     Track quality 100.0 %
     Test CRC 727C8A28
     Copy CRC 727C8A28
     Copy OK

Track  6

     Filename F:\EAC Rips\FLAC rips\Pop Evil\Lipstick on the Mirror\06 3 Seconds to Freedom .wav

     Pre-gap length  0:00:00.98

     Peak level 100.0 %
     Track quality 100.0 %
     Test CRC EC646ECE
     Copy CRC EC646ECE
     Copy OK

Track  7

     Filename F:\EAC Rips\FLAC rips\Pop Evil\Lipstick on the Mirror\07 Another Romeo & Juliet .wav

     Pre-gap length  0:00:00.09

     Peak level 100.0 %
     Track quality 100.0 %
     Test CRC 13239ACA
     Copy CRC 13239ACA
     Copy OK

Track  8

     Filename F:\EAC Rips\FLAC rips\Pop Evil\Lipstick on the Mirror\08 Stepping Stone .wav

     Pre-gap length  0:00:01.98

     Peak level 100.0 %
     Track quality 100.0 %
     Test CRC E8C89070
     Copy CRC E8C89070
     Copy OK

Track  9

     Filename F:\EAC Rips\FLAC rips\Pop Evil\Lipstick on the Mirror\09 Jupiter in June .wav

     Pre-gap length  0:00:00.68

     Peak level 100.0 %
     Track quality 100.0 %
     Test CRC 9F1ECA0F
     Copy CRC 9F1ECA0F
     Copy OK

Track 10

     Filename F:\EAC Rips\FLAC rips\Pop Evil\Lipstick on the Mirror\10 One More Goodbye .wav

     Pre-gap length  0:00:01.98

     Peak level 94.3 %
     Track quality 100.0 %
     Test CRC 9477ADD5
     Copy CRC 9477ADD5
     Copy OK

Track 11

     Filename F:\EAC Rips\FLAC rips\Pop Evil\Lipstick on the Mirror\11 Ready or Not .wav

     Pre-gap length  0:00:00.70

     Peak level 100.0 %
     Track quality 100.0 %
     Test CRC 71E904A8
     Copy CRC 71E904A8
     Copy OK

Track 12

     Filename F:\EAC Rips\FLAC rips\Pop Evil\Lipstick on the Mirror\12 Hard Highway .wav

     Pre-gap length  0:00:00.72

     Peak level 100.0 %
     Track quality 99.9 %
     Test CRC A8CEA749
     Copy CRC A8CEA749
     Copy OK

Track 13

     Filename F:\EAC Rips\FLAC rips\Pop Evil\Lipstick on the Mirror\13 Hey Mister .wav

     Pre-gap length  0:00:00.98

     Peak level 100.0 %
     Track quality 100.0 %
     Test CRC 46C6429C
     Copy CRC 46C6429C
     Copy OK

No errors occurred

End of status report

Код:
Код: Выделить всё
-----------------------

DON'T MODIFY THIS FILE

-----------------------

PERFORMER: auCDtect Task Manager, ver. 1.5.1RC6 build 1.5.1.7
Copyright (c) 2008-2010 y-soft. All rights reserved
http:/y-soft.org

ANALYZER: auCDtect: CD records authenticity detector, version 0.8.2
Copyright (c) 2004 Oleg Berngardt. All rights reserved.
Copyright (c) 2004 Alexander Djourik. All rights reserved.

FILE: 13. Pop Evil - Hey Mister.flac
  Size: 79021029 Hash: 76A97E01D3501FF2FF417C474A2AB976 Accuracy: -m0
  Conclusion: CDDA 100%
  Signature: B4850DF5F0CC370DE0B0769F8819F7740B8786FA
FILE: 12. Pop Evil - Hard Highway.flac
  Size: 28439240 Hash: 16BDDE54DF293F09FAE16165928CA07E Accuracy: -m0
  Conclusion: CDDA 99%
  Signature: 4F4C9F67D4CF5441931802A7D6418D081E6E2CC1
FILE: 11. Pop Evil - Ready or Not.flac
  Size: 28054560 Hash: E06F593CDE3C1BDEAC0F1CC9CF2A2220 Accuracy: -m0
  Conclusion: CDDA 100%
  Signature: C11F93A8CFEA943D2EABFFEDB0EFDD4DE4F0F38F
FILE: 10. Pop Evil - One More Goodbye.flac
  Size: 31102828 Hash: EC8177F3B46DDF016D954D6A8445A747 Accuracy: -m0
  Conclusion: CDDA 100%
  Signature: DE3F06FE356C2D8200D299790072BEDC4CE4F6F3
FILE: 09. Pop Evil - Jupiter in June.flac
  Size: 30636455 Hash: 81AA79B95AEF84E14D57DC6C6FB0F9BA Accuracy: -m0
  Conclusion: CDDA 100%
  Signature: C52494C24AE9E266FEEEA378202250EA340E1FDA
FILE: 08. Pop Evil - Stepping Stone.flac
  Size: 26663068 Hash: 6D85815818FAF6453FDA26F2B4FBF608 Accuracy: -m0
  Conclusion: CDDA 99%
  Signature: 4DF5F988AFF320D93AFD911D77FD29D183A11764
FILE: 07. Pop Evil - Another Romeo & Juliet.flac
  Size: 37699755 Hash: A289988C26950640F766A34792AC9FE9 Accuracy: -m0
  Conclusion: CDDA 100%
  Signature: F207FEAE52850B70A359AB7BE5FDDC6657E4F5BC
FILE: 06. Pop Evil - 3 Seconds to Freedom.flac
  Size: 26886577 Hash: 1523E83CBC2C9ED65CA34170D18BC754 Accuracy: -m0
  Conclusion: CDDA 100%
  Signature: 98D00C6C1F813EC67FB8D0B0FA63BC7E75B5285B
FILE: 05. Pop Evil - Somebody Like You.flac
  Size: 28820452 Hash: FCE922569AAC40BD83E9EC6CBC0B1594 Accuracy: -m0
  Conclusion: CDDA 100%
  Signature: 86AD428B330175FD3820C9BC7D62DC0BB5C01F17
FILE: 04. Pop Evil - 100 in a 55.flac
  Size: 33116096 Hash: 2F32D82FD47B1B5E6EF19C08E571D21F Accuracy: -m0
  Conclusion: CDDA 100%
  Signature: 830A7BFB921CCD0E5D63E2B66738A870E589AB49
FILE: 03. Pop Evil - Shinedown.flac
  Size: 29443496 Hash: 5D0DE81439F64B363D3E94BF59AF5158 Accuracy: -m0
  Conclusion: CDDA 100%
  Signature: 61D20D00038F7ACAE3BD14C8065A04075A94F5CC
FILE: 02. Pop Evil - Breathe.flac
  Size: 27336750 Hash: 7FFCCD217A5B2812A833388687F5D58F Accuracy: -m0
  Conclusion: CDDA 100%
  Signature: 60220CBBC3BC610329E88C2AD1582A031E1D801A
FILE: 01. Pop Evil - Hero.flac
  Size: 27535386 Hash: 9FECB952493AC610CEA605448940249B Accuracy: -m0
  Conclusion: CDDA 99%
  Signature: 87425FA1BDAE11CDF51309467A4C994324686ED4


#777Треклист:

01. Last Man Standing
02. Epitaph
03. Broken & Betrayed
04. Monster You Made
05. Let It Go
06. Boss's Daughter
07. Daisy Chain
08. Purple
09. Black & Blue
10. Next Life

Продолжительность: 00:37:10


Код:
Код: Выделить всё
Exact Audio Copy V1.0 beta 1 from 15. November 2010

EAC extraction logfile from 5. July 2011, 16:11

Pop Evil / War Of Angels

Used drive  : PLEXTOR CD-R   PX-W2410A   Adapter: 1  ID: 0

Read mode               : Secure
Utilize accurate stream : Yes
Defeat audio cache      : Yes
Make use of C2 pointers : No

Read offset correction                      : 98
Overread into Lead-In and Lead-Out          : Yes
Fill up missing offset samples with silence : Yes
Delete leading and trailing silent blocks   : No
Null samples used in CRC calculations       : Yes
Used interface                              : Installed external ASPI interface
Gap handling                                : Appended to previous track

Used output format              : User Defined Encoder
Selected bitrate                : 128 kBit/s
Quality                         : High
Add ID3 tag                     : No
Command line compressor         : C:\Program Files\Exact Audio Copy\Flac\flac.exe
Additional command line options : -V -8 -T "artist=%a" -T "title=%t" -T "album=%g" -T "date=%y" -T "tracknumber=%n" -T "genre=%m" %s

TOC of the extracted CD

     Track |   Start  |  Length  | Start sector | End sector
    ---------------------------------------------------------
        1  |  0:00.00 |  3:23.48 |         0    |    15272
        2  |  3:23.48 |  3:32.29 |     15273    |    31201
        3  |  6:56.02 |  3:38.62 |     31202    |    47613
        4  | 10:34.64 |  3:41.51 |     47614    |    64239
        5  | 14:16.40 |  4:10.59 |     64240    |    83048
        6  | 18:27.24 |  3:25.15 |     83049    |    98438
        7  | 21:52.39 |  3:34.12 |     98439    |   114500
        8  | 25:26.51 |  4:04.35 |    114501    |   132835
        9  | 29:31.11 |  3:38.60 |    132836    |   149245
       10  | 33:09.71 |  4:00.08 |    149246    |   167253

Track  1

     Filename E:\My Music\Pop Evil - 2011 - War Of Angels [FLAC]\01 - Last Man Standing.wav

     Pre-gap length  0:00:02.00

     Peak level 100.0 %
     Extraction speed 4.6 X
     Track quality 100.0 %
     Test CRC D782E9AE
     Copy CRC D782E9AE
     Track not present in AccurateRip database
     Copy OK

Track  2

     Filename E:\My Music\Pop Evil - 2011 - War Of Angels [FLAC]\02 - Epitaph.wav

     Peak level 100.0 %
     Extraction speed 5.1 X
     Track quality 100.0 %
     Test CRC FEB8273B
     Copy CRC FEB8273B
     Track not present in AccurateRip database
     Copy OK

Track  3

     Filename E:\My Music\Pop Evil - 2011 - War Of Angels [FLAC]\03 - Broken & Betrayed.wav

     Peak level 100.0 %
     Extraction speed 3.5 X
     Track quality 99.9 %
     Test CRC 41D7CB42
     Copy CRC 41D7CB42
     Track not present in AccurateRip database
     Copy OK

Track  4

     Filename E:\My Music\Pop Evil - 2011 - War Of Angels [FLAC]\04 - Monster You Made.wav

     Peak level 100.0 %
     Extraction speed 6.0 X
     Track quality 100.0 %
     Test CRC 1788104A
     Copy CRC 1788104A
     Track not present in AccurateRip database
     Copy OK

Track  5

     Filename E:\My Music\Pop Evil - 2011 - War Of Angels [FLAC]\05 - Let It Go.wav

     Peak level 100.0 %
     Extraction speed 5.5 X
     Track quality 100.0 %
     Test CRC 4484E0D2
     Copy CRC 4484E0D2
     Track not present in AccurateRip database
     Copy OK

Track  6

     Filename E:\My Music\Pop Evil - 2011 - War Of Angels [FLAC]\06 - Boss's Daughter.wav

     Peak level 100.0 %
     Extraction speed 4.9 X
     Track quality 99.9 %
     Test CRC 97F665AD
     Copy CRC 97F665AD
     Track not present in AccurateRip database
     Copy OK

Track  7

     Filename E:\My Music\Pop Evil - 2011 - War Of Angels [FLAC]\07 - Daisy Chain.wav

     Peak level 100.0 %
     Extraction speed 5.0 X
     Track quality 99.9 %
     Test CRC D593BAB0
     Copy CRC D593BAB0
     Track not present in AccurateRip database
     Copy OK

Track  8

     Filename E:\My Music\Pop Evil - 2011 - War Of Angels [FLAC]\08 - Purple.wav

     Peak level 100.0 %
     Extraction speed 4.4 X
     Track quality 100.0 %
     Test CRC BAF8EA8F
     Copy CRC BAF8EA8F
     Track not present in AccurateRip database
     Copy OK

Track  9

     Filename E:\My Music\Pop Evil - 2011 - War Of Angels [FLAC]\09 - Black & Blue.wav

     Peak level 100.0 %
     Extraction speed 4.5 X
     Track quality 99.9 %
     Test CRC 7867962C
     Copy CRC 7867962C
     Track not present in AccurateRip database
     Copy OK

Track 10

     Filename E:\My Music\Pop Evil - 2011 - War Of Angels [FLAC]\10 - Next Life.wav

     Peak level 100.0 %
     Extraction speed 4.8 X
     Track quality 100.0 %
     Test CRC 2EFCD38D
     Copy CRC 2EFCD38D
     Track not present in AccurateRip database
     Copy OK

None of the tracks are present in the AccurateRip database

No errors occurred

End of status report

==== Log checksum 517D27EDB6B9A69F67F8EA0E2237D585A92CAB62CB6D92C596632B3268DE1C24 ====

Код:
Код: Выделить всё
-----------------------

DON'T MODIFY THIS FILE

-----------------------

PERFORMER: auCDtect Task Manager, ver. 1.5.1RC6 build 1.5.1.7
Copyright (c) 2008-2010 y-soft. All rights reserved
http:/y-soft.org

ANALYZER: auCDtect: CD records authenticity detector, version 0.8.2
Copyright (c) 2004 Oleg Berngardt. All rights reserved.
Copyright (c) 2004 Alexander Djourik. All rights reserved.

FILE: 10. Pop Evil - Next Life.flac
  Size: 29921554 Hash: 7FFCF1A624D8B6461F6AD27183E4BA5C Accuracy: -m0
  Conclusion: CDDA 100%
  Signature: D054F7C44CE5A935559C66063930765CA6599F99
FILE: 09. Pop Evil - Black & Blue.flac
  Size: 27550240 Hash: C101BF1D222700CC18F3D7BCAA9380A5 Accuracy: -m0
  Conclusion: CDDA 100%
  Signature: E8BA7C17C72EEF273F4C785D657842B359003BFA
FILE: 08. Pop Evil - Purple.flac
  Size: 31487927 Hash: 7FE2222C4B3B979FFA0DE4CDB9C6119F Accuracy: -m0
  Conclusion: CDDA 99%
  Signature: FE5B8826CB43A3C4A35468E7CAFE4FC2260D1537
FILE: 07. Pop Evil - Daisy Chain.flac
  Size: 28020345 Hash: DAADB838AEF942286A662187DAA0AF8D Accuracy: -m0
  Conclusion: CDDA 100%
  Signature: ABC2D534D312E25A310245884885651C70E48C53
FILE: 06. Pop Evil - Boss's Daughter.flac
  Size: 27971826 Hash: 73B4985F08631105847DD898F98FB8B5 Accuracy: -m0
  Conclusion: CDDA 100%
  Signature: A8828A650694AD27FABA93E2FC03B40DD16F9AF1
FILE: 05. Pop Evil - Let It Go.flac
  Size: 33106536 Hash: 34DE6D45708AE4D516595F1EE04AD610 Accuracy: -m0
  Conclusion: CDDA 100%
  Signature: 60AD915261C76DC937E48C508D3B4093E92A9267
FILE: 04. Pop Evil - Monster You Made.flac
  Size: 27747345 Hash: FDEA28406B9AC5ED24688431B25B3500 Accuracy: -m0
  Conclusion: CDDA 100%
  Signature: 66F928E35A472E6FDC83B14833F974E9C42CB29E
FILE: 03. Pop Evil - Broken & Betrayed.flac
  Size: 28552612 Hash: 1761B0EB94C10B41272FC58901A8FF96 Accuracy: -m0
  Conclusion: CDDA 100%
  Signature: 96B3BB74C4A02130204EF4B3053345D151D3582B
FILE: 02. Pop Evil - Epitaph.flac
  Size: 29413845 Hash: C021D56900B68DB54687CE132D93D296 Accuracy: -m0
  Conclusion: CDDA 100%
  Signature: E550AD08F607F8963AE7E280C5AF6476DC6F9C4C
FILE: 01. Pop Evil - Last Man Standing.flac
  Size: 26773787 Hash: 9F5DFAD083619B53634B902F440FB830 Accuracy: -m0
  Conclusion: CDDA 100%
  Signature: 7BEFB8180BDEFA81B0724370EF21C0F486DE2B25


#777Треклист:

01. Goodbye My Friend
02. Deal With The Devil
03. Trenches
04. Torn To Pieces
05. Divide
06. Beautiful
07. Silence & Scars
08. Sick Sense
09. Fly Away
10. Behind Closed Doors
11. Welcome To Reality
12. Flawed

Продолжительность: 00:44:32


Код:
Код: Выделить всё
Exact Audio Copy V1.0 beta 3 from 29. August 2011

EAC extraction logfile from 14. May 2013, 19:11

Pop Evil / Onyx

Used drive  : PLEXTOR DVDR   PX-L890SA   Adapter: 1  ID: 0

Read mode               : Secure
Utilize accurate stream : Yes
Defeat audio cache      : Yes
Make use of C2 pointers : No

Read offset correction                      : 6
Overread into Lead-In and Lead-Out          : No
Fill up missing offset samples with silence : Yes
Delete leading and trailing silent blocks   : No
Null samples used in CRC calculations       : Yes
Used interface                              : Native Win32 interface for Win NT & 2000
Gap handling                                : Appended to previous track

Used output format              : User Defined Encoder
Selected bitrate                : 1024 kBit/s
Quality                         : High
Add ID3 tag                     : No
Command line compressor         : C:\Program Files (x86)\Exact Audio Copy\Flac\flac.exe
Additional command line options : -8 -V -T "ARTIST=%artist%" -T "TITLE=%title%" -T "ALBUM=%albumtitle%" -T "DATE=%year%" -T "TRACKNUMBER=%tracknr%" -T "GENRE=%genre%" -T "PERFORMER=%albuminterpret%" -T "COMPOSER=%composer%" %haslyrics%--tag-from-file=LYRICS="%lyricsfile%"%haslyrics% -T "ALBUMARTIST=%albumartist%" -T "DISCNUMBER=%cdnumber%" -T "TOTALDISCS=%totalcds%" -T "TOTALTRACKS=%numtracks%" -T "COMMENT=%comment%" %source% -o %dest%

TOC of the extracted CD

     Track |   Start  |  Length  | Start sector | End sector
    ---------------------------------------------------------
        1  |  0:00.00 |  3:51.27 |         0    |    17351
        2  |  3:51.27 |  3:21.32 |     17352    |    32458
        3  |  7:12.59 |  3:37.66 |     32459    |    48799
        4  | 10:50.50 |  3:16.19 |     48800    |    63518
        5  | 14:06.69 |  4:17.28 |     63519    |    82821
        6  | 18:24.22 |  3:23.13 |     82822    |    98059
        7  | 21:47.35 |  3:31.50 |     98060    |   113934
        8  | 25:19.10 |  3:23.32 |    113935    |   129191
        9  | 28:42.42 |  3:26.07 |    129192    |   144648
       10  | 32:08.49 |  4:16.74 |    144649    |   163922
       11  | 36:25.48 |  3:42.45 |    163923    |   180617
       12  | 40:08.18 |  4:24.37 |    180618    |   200454

Track  1

     Filename E:\My Music\Pop Evil - 2013 - Onyx [FLAC]\01 - Goodbye My Friend.wav

     Pre-gap length  0:00:02.00

     Peak level 98.8 %
     Extraction speed 3.3 X
     Track quality 100.0 %
     Test CRC 1DE5FEF6
     Copy CRC 1DE5FEF6
     Track not present in AccurateRip database
     Copy OK

Track  2

     Filename E:\My Music\Pop Evil - 2013 - Onyx [FLAC]\02 - Deal With The Devil.wav

     Peak level 98.8 %
     Extraction speed 3.6 X
     Track quality 100.0 %
     Test CRC 94ABF859
     Copy CRC 94ABF859
     Track not present in AccurateRip database
     Copy OK

Track  3

     Filename E:\My Music\Pop Evil - 2013 - Onyx [FLAC]\03 - Trenches.wav

     Peak level 98.8 %
     Extraction speed 3.9 X
     Track quality 100.0 %
     Test CRC 43A6FDAF
     Copy CRC 43A6FDAF
     Track not present in AccurateRip database
     Copy OK

Track  4

     Filename E:\My Music\Pop Evil - 2013 - Onyx [FLAC]\04 - Torn To Pieces.wav

     Peak level 98.8 %
     Extraction speed 4.1 X
     Track quality 100.0 %
     Test CRC FFE8F163
     Copy CRC FFE8F163
     Track not present in AccurateRip database
     Copy OK

Track  5

     Filename E:\My Music\Pop Evil - 2013 - Onyx [FLAC]\05 - Divide.wav

     Peak level 98.8 %
     Extraction speed 4.6 X
     Track quality 100.0 %
     Test CRC 7692A411
     Copy CRC 7692A411
     Track not present in AccurateRip database
     Copy OK

Track  6

     Filename E:\My Music\Pop Evil - 2013 - Onyx [FLAC]\06 - Beautiful.wav

     Peak level 98.8 %
     Extraction speed 3.7 X
     Track quality 99.9 %
     Test CRC E4ADEE3F
     Copy CRC E4ADEE3F
     Track not present in AccurateRip database
     Copy OK

Track  7

     Filename E:\My Music\Pop Evil - 2013 - Onyx [FLAC]\07 - Silence & Scars.wav

     Peak level 98.8 %
     Extraction speed 4.9 X
     Track quality 100.0 %
     Test CRC 30FB1ED3
     Copy CRC 30FB1ED3
     Track not present in AccurateRip database
     Copy OK

Track  8

     Filename E:\My Music\Pop Evil - 2013 - Onyx [FLAC]\08 - Sick Sense.wav

     Peak level 98.8 %
     Extraction speed 5.1 X
     Track quality 100.0 %
     Test CRC 3127CB21
     Copy CRC 3127CB21
     Track not present in AccurateRip database
     Copy OK

Track  9

     Filename E:\My Music\Pop Evil - 2013 - Onyx [FLAC]\09 - Fly Away.wav

     Peak level 98.8 %
     Extraction speed 5.3 X
     Track quality 100.0 %
     Test CRC 32287F7D
     Copy CRC 32287F7D
     Track not present in AccurateRip database
     Copy OK

Track 10

     Filename E:\My Music\Pop Evil - 2013 - Onyx [FLAC]\10 - Behind Closed Doors.wav

     Peak level 98.8 %
     Extraction speed 4.6 X
     Track quality 99.9 %
     Test CRC 782029B9
     Copy CRC 782029B9
     Track not present in AccurateRip database
     Copy OK

Track 11

     Filename E:\My Music\Pop Evil - 2013 - Onyx [FLAC]\11 - Welcome To Reality.wav

     Peak level 98.8 %
     Extraction speed 5.7 X
     Track quality 100.0 %
     Test CRC 9AA826BD
     Copy CRC 9AA826BD
     Track not present in AccurateRip database
     Copy OK

Track 12

     Filename E:\My Music\Pop Evil - 2013 - Onyx [FLAC]\12 - Flawed.wav

     Peak level 98.8 %
     Extraction speed 6.1 X
     Track quality 100.0 %
     Test CRC E01D8B72
     Copy CRC E01D8B72
     Track not present in AccurateRip database
     Copy OK

None of the tracks are present in the AccurateRip database

No errors occurred

End of status report

---- CUETools DB Plugin V2.1.4

[CTDB TOCID: CV_Cek5I2iVdL0O2u9fTct96JEM-] disk not present in database
Submit result: CV_Cek5I2iVdL0O2u9fTct96JEM- has been uploaded

==== Log checksum A11563D1554109EA5A83B630288043F36177E34E46DA014294D903FD97DF6C65 ====

Код:
Код: Выделить всё
-----------------------

DON'T MODIFY THIS FILE

-----------------------

PERFORMER: auCDtect Task Manager, ver. 1.5.1RC6 build 1.5.1.7
Copyright (c) 2008-2010 y-soft. All rights reserved
http:/y-soft.org

ANALYZER: auCDtect: CD records authenticity detector, version 0.8.2
Copyright (c) 2004 Oleg Berngardt. All rights reserved.
Copyright (c) 2004 Alexander Djourik. All rights reserved.

FILE: 12. Pop Evil - Flawed.flac
  Size: 34646434 Hash: 43058DB71ADA8D231746615D860DF3D3 Accuracy: -m0
  Conclusion: CDDA 100%
  Signature: E52C37186DDCADFBCEBCD89C5C54B7B78A438BB5
FILE: 11. Pop Evil - Welcome To Reality.flac
  Size: 29812585 Hash: 192E6777CC1DE83ADBFBABE4A0EC573A Accuracy: -m0
  Conclusion: CDDA 100%
  Signature: 39A7D38FE6B09766B203F5374B9AD4E0C8157967
FILE: 10. Pop Evil - Behind Closed Doors.flac
  Size: 33273879 Hash: F47DA2A00E98FB25115B581ED5673EAD Accuracy: -m0
  Conclusion: CDDA 100%
  Signature: 7837E0A485BA15D70977A7E2BF549E9A42C42F7A
FILE: 09. Pop Evil - Fly Away.flac
  Size: 27331768 Hash: 8F87B06F84AF1DE59D9AC0389F4B4452 Accuracy: -m0
  Conclusion: CDDA 100%
  Signature: 775A4B76B64B37A178BC5253D69CD9486F65851A
FILE: 08. Pop Evil - Sick Sense.flac
  Size: 26207119 Hash: BE786CFCDBBEC7A734CD82C3B652B8F4 Accuracy: -m0
  Conclusion: CDDA 100%
  Signature: 3A0E28A5AFBBAC407961F3C53732C10C1EA4C30F
FILE: 07. Pop Evil - Silence & Scars.flac
  Size: 24606063 Hash: 349FADB01FD51D264CB008DC71B97D6D Accuracy: -m0
  Conclusion: CDDA 100%
  Signature: 6D79FA2451C91F9C95D8FCA2917D80B4BCABED51
FILE: 06. Pop Evil - Beautiful.flac
  Size: 27385534 Hash: 28DDEA1D7576511B7B3AB21760AE626D Accuracy: -m0
  Conclusion: CDDA 100%
  Signature: 869FA8E9B1239659DC301CE13A08208BF64B5062
FILE: 05. Pop Evil - Divide.flac
  Size: 33236939 Hash: A6C578A193E753EBE9279A48B232EE65 Accuracy: -m0
  Conclusion: CDDA 100%
  Signature: F443FEE86523E100682E4D4627C8E5F952247266
FILE: 04. Pop Evil - Torn To Pieces.flac
  Size: 23320526 Hash: A836B7D4F75B7EE3223E0E49CCC67C27 Accuracy: -m0
  Conclusion: CDDA 100%
  Signature: 66847128E35C5C4BE203A76388DF2BA8D82666F9
FILE: 03. Pop Evil - Trenches.flac
  Size: 30471156 Hash: 1F8C4377D754486C6575698FB8F292EE Accuracy: -m0
  Conclusion: CDDA 99%
  Signature: 1DE78485BF4C23353703AB5BF493FC627B042DAC
FILE: 02. Pop Evil - Deal With The Devil.flac
  Size: 26505581 Hash: 52D581CD26B0C831CBFD9729702D0D02 Accuracy: -m0
  Conclusion: CDDA 100%
  Signature: B6C99F3361BDE2221209141CE97785CF28889EE7
FILE: 01. Pop Evil - Goodbye My Friend.flac
  Size: 29951500 Hash: 8970A8CEE4C8D66DE6F07AEA99A67877 Accuracy: -m0
  Conclusion: CDDA 100%
  Signature: 6F3C6874EDE021D06A8FD1CF6506F6A4ADE58E19




Тип рипа: Tracks+.cue
Аудиокодек: FLAC
Битрейт аудио: lossless
Правила, инструкции, FAQ!!!
Торрент  Добавлен [16 мар 2014, 00:54] Скачать торрент Магнет ссылка
Скачать торрент
18.59 КБ

Статус
Проверен 
 
Размер  1.26 ГБ
Приватный: Нет (DHT включён)
.torrent скачан  5
Как залить торрент? | Как скачать Torrent? | Как смотреть и слушать онлайн?  
Гость
 



Вернуться в Дискографии (Зарубежные)

Кто сейчас на конференции

Сейчас этот форум просматривают: нет зарегистрированных пользователей и гости: 0