Poets Of The Fall - Дискография - 4-е альбома (2005, 2006, 2008, 2010) [FLAC,APE]<Alternative Rock>


Статистика раздачи
Размер: 1.31 ГБ | Добавлен: 16 мар 2014, 00:38 | Скачали: 1
Сидеров: 22  [0 байт/сек]    Личеров: 26  [0 байт/сек]

Сообщение Гость » 16 мар 2014, 00:38

Poets Of The Fall - Дискография - 4-е альбома (2005, 2006, 2008, 2010)

Год: 2005, 2006, 2008, 2010
Жанр: Alternative Rock
#777Дата выхода - 19 января 2005 года
Издание и менеджмент: Sam Agency - Insomniac - Playground
Музыка, слова и запись: Poets of the Fall
Концепция обложки: Марко Сааресто
Кодек: FLAC
Продолжительность: 00:51:36
Трек лист:
[font:fc0d36d21c="Tahoma"]01. Lift (5:11)
[font:fc0d36d21c="Tahoma"]02. Overboard (4:44)
[font:fc0d36d21c="Tahoma"]03. Late Goodbye (Theme from Max Payne 2) (3:46)
[font:fc0d36d21c="Tahoma"]04. Don't Mess With Me (3:59)
[font:fc0d36d21c="Tahoma"]05. 3 AM (4:21)
[font:fc0d36d21c="Tahoma"]06. Stay (3:33)
[font:fc0d36d21c="Tahoma"]07. Seek You Out (3:46)
[font:fc0d36d21c="Tahoma"]08. Shallow (4:24)
[font:fc0d36d21c="Tahoma"]09. Everything Fades (3:08)
[font:fc0d36d21c="Tahoma"]10. Someone Special (4:19)
[font:fc0d36d21c="Tahoma"]11. Illusion & Dream (5:26)
[font:fc0d36d21c="Tahoma"]12. Sleep (4:59)
Код:
Код: Выделить всё
EAC extraction logfile from 23. May 2007, 17:28 for CD
Poets of the Fall / Signs Of Life

Used drive  : HL-DT-STDVDRAM GSA-4160B   Adapter: 5  ID: 0
Read mode   : Secure with NO C2, accurate stream, NO disable cache
Combined read/write offset correction : 0
Overread into Lead-In and Lead-Out : No

Used output format : Internal WAV Routines
                     44.100 Hz; 16 Bit; Stereo

Other options      :
    Fill up missing offset samples with silence : Yes
    Delete leading and trailing silent blocks : No
    Installed external ASPI interface

Range status and errors
Selected range
     Filename E:\temp\Poets of the Fall - Signs Of Life.wav

     Peak level 100.0 %
     Range quality 99.9 %
     CRC BE6575A4
     Copy OK

No errors occured

End of status report

#777Дата выхода - 12 апреля 2006 года
Издание и менеджмент: Sam Agency - Insomniac - Playground
Музыка, слова и запись: Poets of the Fall
Мастеринг: Лайя Честон (Chatmakers)
Концепция обложки: Марк, художественное оформление: Олли Пойкеус и Стобе
Кодек: APE
Продолжительность: 00:48:26
Трек лист:
[font:fc0d36d21c="Tahoma"]01. Fire (3:56)
[font:fc0d36d21c="Tahoma"]02. Sorry Go 'Round (3:38)
[font:fc0d36d21c="Tahoma"]03. Carnival of Rust (4:20)
[font:fc0d36d21c="Tahoma"]04. Locking Up the Sun (3:54)
[font:fc0d36d21c="Tahoma"]05. Gravity (3:57)
[font:fc0d36d21c="Tahoma"]06. King of Fools (4:07)
[font:fc0d36d21c="Tahoma"]07. Roses (4:01)
[font:fc0d36d21c="Tahoma"]08. Desire (4:10)
[font:fc0d36d21c="Tahoma"]09. All the Way / 4U (4:09)
[font:fc0d36d21c="Tahoma"]10. Delicious (3:55)
[font:fc0d36d21c="Tahoma"]11. Maybe Tomorrow Is a Better Day (4:44)
[font:fc0d36d21c="Tahoma"]12. Dawn (3:36)
Код:
Код: Выделить всё
Отчёт EAC об извлечении, выполненном 27. июля 2007, 3:18 для диска:
Poets of the Fall / Carnival of Rust

Дисковод: TSSTcorpCD/DVDW SH-S183A   Adapter: 4  ID: 0
Режим чтения: Достоверный (C2: нет, Точный поток: да, Отключение кэша: нет)
Комбинированное смещение чтения/записи: 0
Способность читать области Lead-in и Lead-out : Нет

Выходной формат: Внутренние WAV-операции
                     44.100 Гц; 16 бит; стерео

Другие параметры:
    Заполнение пропущенных сэмплов тишиной : Да
    Удаление блоков с тишиной в начале и конце : Нет
    Установленный внешний ASPI-интерфейс

Характеристики диапазона извлечения и сообщения об ошибках
Выбранный диапазон
     Имя файла D:\POTF-Carnival Of Rust\Poets of the Fall - Carnival of Rust.wav

     Пиковый уровень 100.0 %
     Качество диапазона 100.0 %
     CRC 001B28E4
     Копирование... OK

Ошибок не произошло

Конец отчёта

#777Дата выхода - 26 марта 2008 года
Издание и менеджмент: Sam Agency - Insomniac - Playground
Музыка, слова и запись: Poets of the Fall
Кодек: FLAC
Продолжительность: 00:50:00
Трек лист:
[font:fc0d36d21c="Tahoma"]01. More (4:19)
[font:fc0d36d21c="Tahoma"]02. The Ultimate Fling (6:46)
[font:fc0d36d21c="Tahoma"]03. Revolution Roulette (6:04)
[font:fc0d36d21c="Tahoma"]04. Psychosis (4:25)
[font:fc0d36d21c="Tahoma"]05. Fragile (4:09)
[font:fc0d36d21c="Tahoma"]06. Clevermind (3:39)
[font:fc0d36d21c="Tahoma"]07. Miss Impossible (3:49)
[font:fc0d36d21c="Tahoma"]08. Diamonds For Tears (4:10)
[font:fc0d36d21c="Tahoma"]09. Passion Colors Everything (3:50)
[font:fc0d36d21c="Tahoma"]10. Save Me (3:36)
[font:fc0d36d21c="Tahoma"]11. Where Do We Draw The Line (5:14)
Код:
Код: Выделить всё
Exact Audio Copy V0.99 prebeta 3 from 28. July 2007

EAC extraction logfile from 3. April 2008, 0:09

Poets Of The Fall / Revolution Roulette

Used drive  : _NEC    DVD+RW ND-2100AD   Adapter: 2  ID: 0

Read mode               : Secure
Utilize accurate stream : Yes
Defeat audio cache      : Yes
Make use of C2 pointers : No

Read offset correction                      : 48
Overread into Lead-In and Lead-Out          : No
Fill up missing offset samples with silence : Yes
Delete leading and trailing silent blocks   : No
Null samples used in CRC calculations       : Yes
Used interface                              : Installed external ASPI interface
Gap handling                                : Appended to previous track

Used output format              : User Defined Encoder
Selected bitrate                : 192 kBit/s
Quality                         : High
Add ID3 tag                     : No
Command line compressor         : C:\Program Files\Exact Audio Copy\Flac\flac.exe
Additional command line options : -V -5 -T "artist=%a" -T "title=%t" -T "album=%g" -T "date=%y" -T "tracknumber=%n" -T "genre=%m" %s

TOC of the extracted CD

     Track |   Start  |  Length  | Start sector | End sector
    ---------------------------------------------------------
        1  |  0:00.00 |  4:18.58 |         0    |    19407
        2  |  4:18.58 |  6:45.53 |     19408    |    49835
        3  | 11:04.36 |  6:04.07 |     49836    |    77142
        4  | 17:08.43 |  4:25.22 |     77143    |    97039
        5  | 21:33.65 |  4:09.36 |     97040    |   115750
        6  | 25:43.26 |  3:38.39 |    115751    |   132139
        7  | 29:21.65 |  3:49.36 |    132140    |   149350
        8  | 33:11.26 |  4:09.39 |    149351    |   168064
        9  | 37:20.65 |  3:49.65 |    168065    |   185304
       10  | 41:10.55 |  3:35.53 |    185305    |   201482
       11  | 44:46.33 |  5:13.55 |    201483    |   225012

Track  1

     Filename J:\Poets Of The Fall - Revolution Roulette [2008]\01. More.wav

     Pre-gap length  0:00:02.00

     Peak level 97.7 %
     Track quality 100.0 %
     Test CRC 3383B257
     Copy CRC 3383B257
     Copy OK

Track  2

     Filename J:\Poets Of The Fall - Revolution Roulette [2008]\02. The Ultimate Fling.wav

     Peak level 97.7 %
     Track quality 100.0 %
     Test CRC 689FD509
     Copy CRC 689FD509
     Copy OK

Track  3

     Filename J:\Poets Of The Fall - Revolution Roulette [2008]\03. Revolution Roulette.wav

     Peak level 97.7 %
     Track quality 100.0 %
     Test CRC C5E9FD69
     Copy CRC C5E9FD69
     Copy OK

Track  4

     Filename J:\Poets Of The Fall - Revolution Roulette [2008]\04. Psychosis.wav

     Peak level 97.7 %
     Track quality 99.9 %
     Test CRC D461E743
     Copy CRC D461E743
     Copy OK

Track  5

     Filename J:\Poets Of The Fall - Revolution Roulette [2008]\05. Fragile.wav

     Peak level 97.7 %
     Track quality 100.0 %
     Test CRC 46118330
     Copy CRC 46118330
     Copy OK

Track  6

     Filename J:\Poets Of The Fall - Revolution Roulette [2008]\06. Clevermind.wav

     Peak level 97.7 %
     Track quality 99.9 %
     Test CRC 6D25876A
     Copy CRC 6D25876A
     Copy OK

Track  7

     Filename J:\Poets Of The Fall - Revolution Roulette [2008]\07. Miss Impossible.wav

     Peak level 97.7 %
     Track quality 99.9 %
     Test CRC 9A6F0DEB
     Copy CRC 9A6F0DEB
     Copy OK

Track  8

     Filename J:\Poets Of The Fall - Revolution Roulette [2008]\08. Diamonds For Tears.wav

     Peak level 97.7 %
     Track quality 100.0 %
     Test CRC A41BB3FA
     Copy CRC A41BB3FA
     Copy OK

Track  9

     Filename J:\Poets Of The Fall - Revolution Roulette [2008]\09. Passion Colors Everything.wav

     Peak level 98.6 %
     Track quality 100.0 %
     Test CRC 7CEE5162
     Copy CRC 7CEE5162
     Copy OK

Track 10

     Filename J:\Poets Of The Fall - Revolution Roulette [2008]\10. Save Me.wav

     Peak level 97.7 %
     Track quality 100.0 %
     Test CRC 3335E261
     Copy CRC 3335E261
     Copy OK

Track 11

     Filename J:\Poets Of The Fall - Revolution Roulette [2008]\11. Where Do We Draw The Line.wav

     Peak level 97.7 %
     Track quality 99.9 %
     Test CRC 882B2FC5
     Copy CRC 882B2FC5
     Copy OK

No errors occurred

End of status report

#777Дата выхода - 17 марта 2010 года
Кодек: FLAC
Продолжительность: 00:46:22
Трек лист:

[font:fc0d36d21c="Tahoma"]01. Dreaming Wide Awake (4:24)
[font:fc0d36d21c="Tahoma"]02. War (5:05)
[font:fc0d36d21c="Tahoma"]03. Change (4:45)
[font:fc0d36d21c="Tahoma"]04. 15 Min Flame (5:00)
[font:fc0d36d21c="Tahoma"]05. Given and Denied (4:17)
[font:fc0d36d21c="Tahoma"]06. Rewind (4:22)
[font:fc0d36d21c="Tahoma"]07. Dying to Live (3:47)
[font:fc0d36d21c="Tahoma"]08. You're Still Here (3:27)
[font:fc0d36d21c="Tahoma"]09. Smoke and Mirrors (5:18)
[font:fc0d36d21c="Tahoma"]10. Heal My Wounds (5:55)
Код:
Код: Выделить всё
Exact Audio Copy V0.99 prebeta 4 from 23. January 2008

EAC extraction logfile from 1. April 2010, 19:59

Poets of the Fall / Twilight Theater

Used drive  : MATSHITADVD-RAM UJ-852S   Adapter: 0  ID: 0

Read mode               : Secure
Utilize accurate stream : Yes
Defeat audio cache      : Yes
Make use of C2 pointers : No

Read offset correction                      : 102
Overread into Lead-In and Lead-Out          : No
Fill up missing offset samples with silence : Yes
Delete leading and trailing silent blocks   : No
Null samples used in CRC calculations       : Yes
Used interface                              : Native Win32 interface for Win NT & 2000
Gap handling                                : Appended to previous track

Used output format              : User Defined Encoder
Selected bitrate                : 1024 kBit/s
Quality                         : High
Add ID3 tag                     : No
Command line compressor         : C:\Program Files\Exact Audio Copy\Flac\flac.exe
Additional command line options : -V -8 -T "artist=%a" -T "title=%t" -T "album=%g" -T "date=%y" -T "tracknumber=%n" -T "genre=%m" %s

TOC of the extracted CD

     Track |   Start  |  Length  | Start sector | End sector
    ---------------------------------------------------------
        1  |  0:00.00 |  4:23.74 |         0    |    19798
        2  |  4:23.74 |  5:05.19 |     19799    |    42692
        3  |  9:29.18 |  4:45.19 |     42693    |    64086
        4  | 14:14.37 |  5:00.34 |     64087    |    86620
        5  | 19:14.71 |  4:17.12 |     86621    |   105907
        6  | 23:32.08 |  4:22.14 |    105908    |   125571
        7  | 27:54.22 |  3:46.72 |    125572    |   142593
        8  | 31:41.19 |  3:27.22 |    142594    |   158140
        9  | 35:08.41 |  5:17.64 |    158141    |   181979
       10  | 40:26.30 |  5:55.18 |    181980    |   208622

Track  1

     Filename C:\Poets of the Fall-Twilight Theater\01-Dreaming_Wide_Awake.wav

     Pre-gap length  0:00:02.00

     Peak level 97.7 %
     Track quality 99.9 %
     Test CRC 4BD9FE1C
     Copy CRC 4BD9FE1C
     Copy OK

Track  2

     Filename C:\Poets of the Fall-Twilight Theater\02-War.wav

     Peak level 97.7 %
     Track quality 100.0 %
     Test CRC 78087E41
     Copy CRC 78087E41
     Copy OK

Track  3

     Filename C:\Poets of the Fall-Twilight Theater\03-Change.wav

     Peak level 97.7 %
     Track quality 99.9 %
     Test CRC 7975147B
     Copy CRC 7975147B
     Copy OK

Track  4

     Filename C:\Poets of the Fall-Twilight Theater\04-15_Min_Flame.wav

     Peak level 97.7 %
     Track quality 100.0 %
     Test CRC 9BC117A0
     Copy CRC 9BC117A0
     Copy OK

Track  5

     Filename C:\Poets of the Fall-Twilight Theater\05-Given_and_Denied.wav

     Peak level 97.7 %
     Track quality 100.0 %
     Test CRC AD786A7E
     Copy CRC AD786A7E
     Copy OK

Track  6

     Filename C:\Poets of the Fall-Twilight Theater\06-Rewind.wav

     Peak level 97.7 %
     Track quality 100.0 %
     Test CRC 4C3DC3EE
     Copy CRC 4C3DC3EE
     Copy OK

Track  7

     Filename C:\Poets of the Fall-Twilight Theater\07-Dying_to_Live.wav

     Peak level 97.7 %
     Track quality 100.0 %
     Test CRC 186D51F4
     Copy CRC 186D51F4
     Copy OK

Track  8

     Filename C:\Poets of the Fall-Twilight Theater\08-You're_Still_Here.wav

     Peak level 97.4 %
     Track quality 100.0 %
     Test CRC 27699AE4
     Copy CRC 27699AE4
     Copy OK

Track  9

     Filename C:\Poets of the Fall-Twilight Theater\09-Smoke_and_Mirrors.wav

     Peak level 97.7 %
     Track quality 100.0 %
     Test CRC 454D017C
     Copy CRC 454D017C
     Copy OK

Track 10

     Filename C:\Poets of the Fall-Twilight Theater\10-Heal_My_Wounds.wav

     Peak level 97.7 %
     Track quality 100.0 %
     Test CRC D76FDDD6
     Copy CRC D76FDDD6
     Copy OK

No errors occurred

End of status report

AUDIOCHECKER v2.0 beta (build 457) - by Dester -
~~~~~~~~~~~~~~~~~~~~~~~~~~~~~~~~~~

Начато: понедельник, 02. 06. 2008. - 15:34.49
Найдено файлов: 13

01 -===- D:\PROJECT MUSIC\Good\Poets of the Fall\Torrent\2005 - POTF - Signs Of Life\Poets of the Fall - Signs Of Life.flac
Извлечение успешно выполнено
Заключение: этот трек - CDDA с вероятностью 99%
Временный файл удалён.

02 -===- D:\PROJECT MUSIC\Good\Poets of the Fall\Torrent\2006 - POTF - Carnival Of Rust\Poets of the Fall - Carnival of Rust.ape
Извлечение успешно выполнено
Заключение: этот трек - CDDA с вероятностью 100%
Временный файл удалён.

03 -===- D:\PROJECT MUSIC\Good\Poets of the Fall\Torrent\2008 - POTF - Revolution Roulette\11 - Where Do We Draw The Line.flac
Извлечение успешно выполнено
Заключение: этот трек - CDDA с вероятностью 100%
Временный файл удалён.

04 -===- D:\PROJECT MUSIC\Good\Poets of the Fall\Torrent\2008 - POTF - Revolution Roulette\01 - More.flac
Извлечение успешно выполнено
Заключение: этот трек - CDDA с вероятностью 100%
Временный файл удалён.

05 -===- D:\PROJECT MUSIC\Good\Poets of the Fall\Torrent\2008 - POTF - Revolution Roulette\02 - The Ultimate Fling.flac
Извлечение успешно выполнено
Заключение: этот трек - CDDA с вероятностью 100%
Временный файл удалён.

06 -===- D:\PROJECT MUSIC\Good\Poets of the Fall\Torrent\2008 - POTF - Revolution Roulette\03 - Revolution Roulette.flac
Извлечение успешно выполнено
Заключение: этот трек - CDDA с вероятностью 100%
Временный файл удалён.

07 -===- D:\PROJECT MUSIC\Good\Poets of the Fall\Torrent\2008 - POTF - Revolution Roulette\04 - Psychosis.flac
Извлечение успешно выполнено
Заключение: этот трек - CDDA с вероятностью 100%
Временный файл удалён.

08 -===- D:\PROJECT MUSIC\Good\Poets of the Fall\Torrent\2008 - POTF - Revolution Roulette\05 - Fragile.flac
Извлечение успешно выполнено
Заключение: этот трек - CDDA с вероятностью 100%
Временный файл удалён.

09 -===- D:\PROJECT MUSIC\Good\Poets of the Fall\Torrent\2008 - POTF - Revolution Roulette\06 - Clevermind.flac
Извлечение успешно выполнено
Заключение: этот трек - CDDA с вероятностью 100%
Временный файл удалён.

10 -===- D:\PROJECT MUSIC\Good\Poets of the Fall\Torrent\2008 - POTF - Revolution Roulette\07 - Miss Impossible.flac
Извлечение успешно выполнено
Заключение: этот трек - CDDA с вероятностью 100%
Временный файл удалён.

11 -===- D:\PROJECT MUSIC\Good\Poets of the Fall\Torrent\2008 - POTF - Revolution Roulette\08 - Diamonds For Tears.flac
Извлечение успешно выполнено
Заключение: этот трек - CDDA с вероятностью 100%
Временный файл удалён.

12 -===- D:\PROJECT MUSIC\Good\Poets of the Fall\Torrent\2008 - POTF - Revolution Roulette\09 - Passion Colors Everything.flac
Извлечение успешно выполнено
Заключение: этот трек - CDDA с вероятностью 99%
Временный файл удалён.

13 -===- D:\PROJECT MUSIC\Good\Poets of the Fall\Torrent\2008 - POTF - Revolution Roulette\10 - Save Me.flac
Извлечение успешно выполнено
Заключение: этот трек - CDDA с вероятностью 100%
Временный файл удалён.

Завершено: понедельник, 02. 06. 2008. - 16:32.51 (Время операции: 0:58.02)

Начато: понедельник, 05. 04. 2010. - 16:13.59
Найдено файлов: 10

01 -===- F:\1_Torrents_Files\Poets of the Fall - Twilight Theater (2010) NNM\10 - Heal My Wounds.flac
Извлечение успешно выполнено

Заключение: этот трек - CDDA с вероятностью 100%
Временный файл удалён.

02 -===- F:\1_Torrents_Files\Poets of the Fall - Twilight Theater (2010) NNM\01 - Dreaming Wide Awake.flac
Извлечение успешно выполнено
Заключение: этот трек - CDDA с вероятностью 100%
Временный файл удалён.

03 -===- F:\1_Torrents_Files\Poets of the Fall - Twilight Theater (2010) NNM\02 - War.flac
Извлечение успешно выполнено
Заключение: этот трек - CDDA с вероятностью 100%
Временный файл удалён.

04 -===- F:\1_Torrents_Files\Poets of the Fall - Twilight Theater (2010) NNM\03 - Change.flac
Извлечение успешно выполнено
Заключение: этот трек - CDDA с вероятностью 100%
Временный файл удалён.

05 -===- F:\1_Torrents_Files\Poets of the Fall - Twilight Theater (2010) NNM\04 - 15 Min Flame.flac
Извлечение успешно выполнено
Заключение: этот трек - CDDA с вероятностью 100%
Временный файл удалён.

06 -===- F:\1_Torrents_Files\Poets of the Fall - Twilight Theater (2010) NNM\05 - Given and Denied.flac
Извлечение успешно выполнено
Заключение: этот трек - CDDA с вероятностью 100%
Временный файл удалён.

07 -===- F:\1_Torrents_Files\Poets of the Fall - Twilight Theater (2010) NNM\06 - Rewind.flac
Извлечение успешно выполнено
Заключение: этот трек - CDDA с вероятностью 100%
Временный файл удалён.

08 -===- F:\1_Torrents_Files\Poets of the Fall - Twilight Theater (2010) NNM\07 - Dying to Live.flac
Извлечение успешно выполнено
Заключение: этот трек - CDDA с вероятностью 100%
Временный файл удалён.

09 -===- F:\1_Torrents_Files\Poets of the Fall - Twilight Theater (2010) NNM\08 - You're Still Here.flac
Извлечение успешно выполнено
Заключение: этот трек - CDDA с вероятностью 100%
Временный файл удалён.

10 -===- F:\1_Torrents_Files\Poets of the Fall - Twilight Theater (2010) NNM\09 - Smoke and Mirrors.flac
Извлечение успешно выполнено
Заключение: этот трек - CDDA с вероятностью 100%
Временный файл удалён.

Завершено: понедельник, 05. 04. 2010. - 16:39.22 (Время операции: 0:25.23)
Правила, инструкции, FAQ!!!
Торрент  Добавлен [16 мар 2014, 00:38] Скачать торрент Магнет ссылка
Скачать торрент
17.63 КБ

Статус
Проверен 
 
Размер  1.31 ГБ
Приватный: Нет (DHT включён)
.torrent скачан  1
Как залить торрент? | Как скачать Torrent? | Как смотреть и слушать онлайн?  
Гость
 



Вернуться в Дискографии (Зарубежные)

Кто сейчас на конференции

Сейчас этот форум просматривают: нет зарегистрированных пользователей и гости: 0