Планета обезьян: Революция / Dawn of the Planet of the Apes (2014) WEB-DL 720p | Чистый звук

Статистика раздачи
Размер: 4.54 ГБ | Добавлен: 29 окт 2014, 14:42 | Скачали: 1
Сидеров: 1  [0 байт/сек]    Личеров: 0  [0 байт/сек]

Сообщение Гость » 29 окт 2014, 14:42

Название: Планета обезьян: Революция
Оригинальное название: Dawn of the Planet of the Apes
Год выхода: 2014
Жанр: фантастика, боевик, драма
Режиссер: Мэтт Ривз
В ролях: Энди Серкис, Джейсон Кларк, Гари Олдман, Кери Рассел, Тоби Кеббелл, Коди, Смит-МакФи, Кирк Асеведо, Ник Тёрстон, Терри Нотари, Карин Коновал

О фильме: Численность генетически модифицированных обезьян, возглавляемых Цезарем, продолжает увеличиваться, но обезьянам угрожают люди, которым удалось выжить во время ужасной эпидемии десятилетней давности. Поначалу между соперниками устанавливается хрупкий мир, но он оказывается недолговечным. Обезьяны и люди находятся на грани войны, в ходе которой станет понятно, кто из них в будущем станет безраздельно править планетой.



Выпущено: США / Chernin Entertainment
Продолжительность: 02:10:42
Озвучивание: Дублированное [Чистый звук] Официальный


Формат: MKV
Качество: WEB-DL 720p
Видео: 4111 kb/s, 1280x690
Аудио: Russian: AC3, 384 kb/s (2 ch) / English: AC3, 384 kb/s (6 ch)
Субтитры: Russian (на речь обезьян), English





Format : Matroska
Format version : Version 4 / Version 2
File size : 4.54 GiB
Duration : 2h 10mn
Overall bit rate : 4 978 Kbps
Encoded date : UTC 2014-10-29 10:16:30
Writing application : mkvmerge v6.1.0 ('Old Devil') built on Mar 4 2013 09:10:42
Writing library : libebml v1.3.0 + libmatroska v1.4.0
_STATISTICS_WRITING_APP : mkvmerge v7.0.0 ('Where We Going') 64bit built on Jun 9 2014 15:16:27
_STATISTICS_WRITING_DATE_UTC : 2014-10-28 07:48:12
_STATISTICS_TAGS : BPS DURATION NUMBER_OF_FRAMES NUMBER_OF_BYTES
DURATION : 01:57:29.966000000
NUMBER_OF_FRAMES : 865
NUMBER_OF_BYTES : 21084

Video
ID : 1
Format : AVC
Format/Info : Advanced Video Codec
Format profile : High@L3.1
Format settings, CABAC : No
Format settings, ReFrames : 2 frames
Codec ID : V_MPEG4/ISO/AVC
Duration : 2h 10mn
Bit rate : 4 111 Kbps
Width : 1 280 pixels
Height : 690 pixels
Display aspect ratio : 1.85:1
Frame rate : 23.976 fps
Color space : YUV
Chroma subsampling : 4:2:0
Bit depth : 8 bits
Scan type : Progressive
Bits/(Pixel*Frame) : 0.194
Stream size : 3.75 GiB (83%)
Language : English
Default : Yes
Forced : No
Color primaries : BT.709-5, BT.1361, IEC 61966-2-4, SMPTE RP177
Transfer characteristics : BT.709-5, BT.1361
Matrix coefficients : BT.709-5, BT.1361, IEC 61966-2-4 709, SMPTE RP177

Audio #1
ID : 2
Format : AC-3
Format/Info : Audio Coding 3
Mode extension : CM (complete main)
Format settings, Endianness : Big
Codec ID : A_AC3
Duration : 2h 10mn
Bit rate mode : Constant
Bit rate : 384 Kbps
Channel(s) : 2 channels
Channel positions : Front: L R
Sampling rate : 48.0 KHz
Bit depth : 16 bits
Compression mode : Lossy
Stream size : 359 MiB (8%)
Language : Russian
Default : Yes
Forced : No

Audio #2
ID : 3
Format : AC-3
Format/Info : Audio Coding 3
Mode extension : CM (complete main)
Format settings, Endianness : Big
Codec ID : A_AC3
Duration : 2h 10mn
Bit rate mode : Constant
Bit rate : 384 Kbps
Channel(s) : 6 channels
Channel positions : Front: L C R, Side: L R, LFE
Sampling rate : 48.0 KHz
Bit depth : 16 bits
Compression mode : Lossy
Stream size : 359 MiB (8%)
Language : English
Default : No
Forced : No

Text #1
ID : 4
Format : UTF-8
Codec ID : S_TEXT/UTF8
Codec ID/Info : UTF-8 Plain Text
Language : Russian
Default : Yes
Forced : No

Text #2
ID : 5
Format : UTF-8
Codec ID : S_TEXT/UTF8
Codec ID/Info : UTF-8 Plain Text
Title : English for Sign Parts ONLY
Language : English
Default : No
Forced : No

Text #3
ID : 6
Format : UTF-8
Codec ID : S_TEXT/UTF8
Codec ID/Info : UTF-8 Plain Text
Title : English Full
Language : English
Default : No
Forced : No

Menu
00:00:00.000 : en:1
00:03:19.000 : en:2
00:07:32.000 : en:3
00:12:33.000 : en:4
00:16:20.000 : en:5
00:18:43.000 : en:6
00:21:49.000 : en:7
00:25:23.000 : en:8
00:29:42.000 : en:9
00:31:46.000 : en:10
00:36:39.000 : en:11
00:39:03.000 : en:12
00:40:52.000 : en:13
00:44:07.000 : en:14
00:48:06.000 : en:15
00:50:26.000 : en:16
00:53:42.000 : en:17
00:57:19.000 : en:18
01:01:12.000 : en:19
01:02:29.000 : en:20
01:04:18.000 : en:21
01:06:15.000 : en:22
01:09:25.000 : en:23
01:13:50.000 : en:24
01:17:15.000 : en:25
01:20:46.000 : en:26
01:23:21.000 : en:27
01:26:01.000 : en:28
01:28:12.000 : en:29
01:33:16.000 : en:30
01:35:45.000 : en:31
01:38:30.000 : en:32
01:40:34.000 : en:33
01:43:59.000 : en:34
01:45:57.000 : en:35
01:47:46.000 : en:36
01:52:05.000 : en:37
01:56:18.000 : en:38
02:00:21.000 : en:39
02:01:25.000 : en:40
Правила, инструкции, FAQ!!!
Торрент  Добавлен [29 окт 2014, 14:42]

Статус
Проверен 
 
Размер  4.54 ГБ
Приватный: Нет (DHT включён)
.torrent скачан  1
Как залить торрент? | Как скачать Torrent? | Как смотреть и слушать онлайн?  
Гость
 


  • Похожие торренты
    Ответы
    Просмотры
    Последнее сообщение

Вернуться в Новинки кино

Кто сейчас на конференции

Сейчас этот форум просматривают: нет зарегистрированных пользователей и гости: 0