Patti Smith - 14 альбомов (1975-2012) Дискография [WAVPack/FLAC|Lossless]<Post-Punk>


Статистика раздачи
Размер: 6.58 ГБ | Добавлен: 16 мар 2014, 01:04 | Скачали: 0
Сидеров: 4  [0 байт/сек]    Личеров: 72  [0 байт/сек]

Сообщение Гость » 16 мар 2014, 01:04

Patti Smith - Дискография (1975-2012) (14 альбомов / 17`CD)

Год: 1975-2012
Жанр: Post-Punk
Сканы: В комплекте

Кодек: WAVPack\FLAC
Битрейт: Lossless
Тип Раздачи: image+.cue\tracks+.cue

Патри́ция Ли Смит (30 декабря 1946, Чикаго) — американская певица и поэтесса. Патти Смит принято называть «крёстной мамой панк-рока», отчасти благодаря её дебютному альбому «Horses», который сыграл существенную роль в образовании этого жанра. Первые шаги в музыке Смит сделала в 70-х годах на сцене нью-йоркского клуба CBGB, наряду с другими музыкантами новой волны. Наиболее известная песня Патти Смит, «Because the Night», была написана совместно с Брюсом Спрингстином, и поднялась в двадцатку чарта Billboard Hot 100. В 2005 году Смит наградили французским орденом искусств и литературы, а в 2007 её имя было включено в Зал славы рок-н-ролла.
#777Лейбл: Arista, Columbia, Legacy
Каталог#: 82876 71198 2
Производитель диска: USA
#777Продолжительность: 00:46:39
Трек лист:
01. Gloria (5:54)
02. Redondo Beach (3:26)
03. Birdland (9:15)
04. Free Money (3:54)
05. Kimberly (4:27)
06. Break It Up (4:05)
07. Land-Horses + Land Of A Thousand Dances.La Mer (de) (9:25)
08. Elegie (2:44)
09. My Generation (3:26)
Код:
Код: Выделить всё
EAC extraction logfile from 26. July 2007, 23:24 for CD
Patti Smith / Horses (30th Anniversary Legacy Edition) - Disc 1 of 2

Used drive  : PIONEER DVD-RW  DVR-K16M   Adapter: 0  ID: 0
Read mode   : Secure with NO C2, accurate stream, disable cache
Read offset correction : 48
Overread into Lead-In and Lead-Out : No

Used output format : Internal WAV Routines
                     44.100 Hz; 16 Bit; Stereo

Other options      :
    Fill up missing offset samples with silence : Yes
    Delete leading and trailing silent blocks : No
    Installed external ASPI interface

Range status and errors
Selected range
     Filename E:\Prerelease\Patti Smith - Horses (30th Anniversary Legacy Edition) - Disc 1 of 2.wav

     Peak level 96.0 %
     Range quality 100.0 %
     CRC 0895A0EE
     Copy OK

No errors occured

End of status report
Код:
Код: Выделить всё
REM GENRE Rock
REM DATE 1975
REM DISCID 600AEF09
REM COMMENT "ExactAudioCopy v0.95b4"
PERFORMER "Patti Smith"
TITLE "Horses (30th Anniversary Legacy Edition) - Disc 1 of 2"
FILE "Patti Smith - Horses CD1.wv" WAVE
  TRACK 01 AUDIO
    TITLE "Gloria"
    PERFORMER "Patti Smith"
    ISRC USAR19600008
    INDEX 01 00:00:00
  TRACK 02 AUDIO
    TITLE "Redondo Beach"
    PERFORMER "Patti Smith"
    ISRC USAR17500202
    INDEX 00 05:54:24
    INDEX 01 05:55:44
  TRACK 03 AUDIO
    TITLE "Birdland"
    PERFORMER "Patti Smith"
    ISRC USAR17500206
    INDEX 00 09:20:57
    INDEX 01 09:22:09
  TRACK 04 AUDIO
    TITLE "Free Money"
    PERFORMER "Patti Smith"
    ISRC USAR17500203
    INDEX 00 18:35:58
    INDEX 01 18:38:07
  TRACK 05 AUDIO
    TITLE "Kimberly"
    PERFORMER "Patti Smith"
    ISRC USAR17500005
    INDEX 00 22:30:10
    INDEX 01 22:32:10
  TRACK 06 AUDIO
    TITLE "Break It Up"
    PERFORMER "Patti Smith"
    ISRC USAR17500205
    INDEX 00 26:57:45
    INDEX 01 26:58:68
  TRACK 07 AUDIO
    TITLE "Land: Horses + Land Of A Thousand Dances + La Mer (de)"
    PERFORMER "Patti Smith"
    ISRC USAR17500207
    INDEX 00 31:00:13
    INDEX 01 31:03:70
  TRACK 08 AUDIO
    TITLE "Elegie"
    PERFORMER "Patti Smith"
    ISRC USAR17500204
    INDEX 01 40:29:29
  TRACK 09 AUDIO
    TITLE "My Generation (Bonus Track)"
    PERFORMER "Patti Smith"
    ISRC USAR10500658
    INDEX 00 43:13:08
    INDEX 01 43:18:74
Код:
Код: Выделить всё
-----------------------

DON'T MODIFY THIS FILE

-----------------------

PERFORMER: auCDtect Task Manager, ver. 1.5.1RC6 build 1.5.1.7
Copyright (c) 2008-2010 y-soft. All rights reserved
http:/y-soft.org

ANALYZER: auCDtect: CD records authenticity detector, version 0.8.2
Copyright (c) 2004 Oleg Berngardt. All rights reserved.
Copyright (c) 2004 Alexander Djourik. All rights reserved.

FILE: Patti Smith - Horses CD1.wv
  Size: 286992903 Hash: D7F27745B17C92BCFAF9F058AA4F673E Accuracy: -m0
  Conclusion: CDDA 100%
  Signature: C8ACACCABEDF552F64BF57C30E8F5F2F61FC79AE
#777Продолжительность: 01:07:29
Трек лист:
01. Gloria (7:01)
02. Redondo Beach (4:29)
03. Birdland (9:53)
04. Free Money (5:29)
05. Kimberly (5:29)
06. Break It Up (5:25)
07. Land-Horses + Land Of A Thousand Dances.La Mer (de) (17:35)
08. Elegie (5:00)
09. My Generation (7:08)
Код:
Код: Выделить всё
EAC extraction logfile from 27. July 2007, 0:03 for CD
Patti Smith / Horses (2 of 2) Live at Royal Festival Hall London

Used drive  : PIONEER DVD-RW  DVR-K16M   Adapter: 0  ID: 0
Read mode   : Secure with NO C2, accurate stream, disable cache
Read offset correction : 48
Overread into Lead-In and Lead-Out : No

Used output format : Internal WAV Routines
                     44.100 Hz; 16 Bit; Stereo

Other options      :
    Fill up missing offset samples with silence : Yes
    Delete leading and trailing silent blocks : No
    Installed external ASPI interface

Range status and errors
Selected range
     Filename E:\Prerelease\Patti Smith - Horses (30th Anniversary Legacy Edition) - Disc 2 of 2.wav

     Peak level 99.8 %
     Range quality 99.9 %
     CRC 2F7E6FE5
     Copy OK

No errors occured

End of status report
Код:
Код: Выделить всё
REM GENRE Rock
REM DATE 2005
REM DISCID 730FD109
REM COMMENT "ExactAudioCopy v0.95b4"
PERFORMER "Patti Smith"
TITLE "Horses (30th Anniversary Legacy Edition) - Disc 2 of 2"
FILE "Patti Smith - Horses CD2 Live 2005.wv" WAVE
  TRACK 01 AUDIO
    TITLE "Gloria"
    PERFORMER "Patti Smith"
    ISRC USSM10505380
    INDEX 01 00:00:00
  TRACK 02 AUDIO
    TITLE "Redondo Beach"
    PERFORMER "Patti Smith"
    ISRC USSM10505381
    INDEX 01 07:01:00
  TRACK 03 AUDIO
    TITLE "Birdland"
    PERFORMER "Patti Smith"
    ISRC USSM10505382
    INDEX 01 11:30:53
  TRACK 04 AUDIO
    TITLE "Free Money"
    PERFORMER "Patti Smith"
    ISRC USSM10505383
    INDEX 01 21:23:00
  TRACK 05 AUDIO
    TITLE "Kimberly"
    PERFORMER "Patti Smith"
    ISRC USSM10505384
    INDEX 01 26:52:66
  TRACK 06 AUDIO
    TITLE "Break It Up"
    PERFORMER "Patti Smith"
    ISRC USSM10505385
    INDEX 01 32:21:45
  TRACK 07 AUDIO
    TITLE "Land: Horses + Land Of A Thousand Dances + La Mer (de)"
    PERFORMER "Patti Smith"
    ISRC USSM10505386
    INDEX 01 37:46:02
  TRACK 08 AUDIO
    TITLE "Elegie"
    PERFORMER "Patti Smith"
    ISRC USSM10505387
    INDEX 01 55:21:28
  TRACK 09 AUDIO
    TITLE "My Generation"
    PERFORMER "Patti Smith"
    ISRC USSM10505388
    INDEX 00 60:21:30
    INDEX 01 60:29:64
Код:
Код: Выделить всё
-----------------------

DON'T MODIFY THIS FILE

-----------------------

PERFORMER: auCDtect Task Manager, ver. 1.5.1RC6 build 1.5.1.7
Copyright (c) 2008-2010 y-soft. All rights reserved
http:/y-soft.org

ANALYZER: auCDtect: CD records authenticity detector, version 0.8.2
Copyright (c) 2004 Oleg Berngardt. All rights reserved.
Copyright (c) 2004 Alexander Djourik. All rights reserved.

FILE: Patti Smith - Horses CD2 Live 2005.wv
  Size: 439389121 Hash: 6D2370E4788F8C3CAF3BA60F743CAFC9 Accuracy: -m0
  Conclusion: CDDA 100%
  Signature: E8E2C5CDD3EED7D1E23622D0653BB293013A0F67
#777Лейбл: Arista, BMG, BMG Japan
Каталог#: BVCM-37928
Производитель диска: Japan
Продолжительность: 00:48:10

Трек лист:
01. Ask The Angels (3:09)
02. Ain't It Strange (6:36)
03. Poppies (7:06)
04. Pissing In A River (4:52)
05. Pumping (My Heart) (3:21)
06. Distant Fingers (4:20)
07. Radio Ethiopia (10:03)
08. Abyssinia (2:15)
09. Chicklets (6:22)
Код:
Код: Выделить всё
EAC extraction logfile from 29. July 2007, 19:46 for CD
Patti Smith / Radio Ethiopia

Used drive  : PIONEER DVD-RW  DVR-K16M   Adapter: 0  ID: 0
Read mode   : Secure with NO C2, accurate stream, disable cache
Read offset correction : 48
Overread into Lead-In and Lead-Out : No

Used output format : Internal WAV Routines
                     44.100 Hz; 16 Bit; Stereo

Other options      :
    Fill up missing offset samples with silence : Yes
    Delete leading and trailing silent blocks : No
    Installed external ASPI interface

Range status and errors
Selected range
     Filename E:\Prerelease\Patti Smith - Radio Ethiopia.wav

     Peak level 98.8 %
     Range quality 100.0 %
     CRC 33688E9B
     Copy OK

No errors occured

End of status report
Код:
Код: Выделить всё
REM GENRE Rock
REM DATE 1976
REM DISCID 740B4A09
REM COMMENT "ExactAudioCopy v0.95b4"
PERFORMER "Patti Smith"
TITLE "Radio Ethiopia"
FILE "Patti Smith - Radio Ethiopia.wv" WAVE
  TRACK 01 AUDIO
    TITLE "Ask The Angels"
    PERFORMER "Patti Smith"
    INDEX 01 00:00:00
  TRACK 02 AUDIO
    TITLE "Ain't It Strange"
    PERFORMER "Patti Smith"
    INDEX 01 03:09:12
  TRACK 03 AUDIO
    TITLE "Poppies"
    PERFORMER "Patti Smith"
    INDEX 01 09:45:42
  TRACK 04 AUDIO
    TITLE "Pissing In A River"
    PERFORMER "Patti Smith"
    INDEX 01 16:51:72
  TRACK 05 AUDIO
    TITLE "Pumping (My Heart)"
    PERFORMER "Patti Smith"
    INDEX 01 21:44:62
  TRACK 06 AUDIO
    TITLE "Distant Fingers"
    PERFORMER "Patti Smith"
    INDEX 01 25:06:40
  TRACK 07 AUDIO
    TITLE "Radio Ethiopia"
    PERFORMER "Patti Smith"
    INDEX 00 29:26:05
    INDEX 01 29:27:32
  TRACK 08 AUDIO
    TITLE "Abyssinia"
    PERFORMER "Patti Smith"
    INDEX 01 39:31:17
  TRACK 09 AUDIO
    TITLE "Chicklets [Bonus Track]"
    PERFORMER "Patti Smith"
    INDEX 00 41:32:37
    INDEX 01 41:47:05
Код:
Код: Выделить всё
-----------------------

DON'T MODIFY THIS FILE

-----------------------

PERFORMER: auCDtect Task Manager, ver. 1.5.1RC6 build 1.5.1.7
Copyright (c) 2008-2010 y-soft. All rights reserved
http:/y-soft.org

ANALYZER: auCDtect: CD records authenticity detector, version 0.8.2
Copyright (c) 2004 Oleg Berngardt. All rights reserved.
Copyright (c) 2004 Alexander Djourik. All rights reserved.

FILE: Patti Smith - Radio Ethiopia.wv
  Size: 298673211 Hash: ACD2739A0754DDE2E607D6D86D7B4925 Accuracy: -m0
  Conclusion: CDDA 100%
  Signature: DB603B2B04351E9789436330BC0138FFBCD49AE5
#777Лейбл: Arista, BMG, BMG Japan
Каталог#: BVCM-37929
Производитель диска: Japan
Продолжительность: 00:46:58

Трек лист:
01. Till Victory (2:50)
02. Space Monkey (4:06)
03. Because The Night (3:25)
04. Ghost Dance (4:44)
05. Babelogue (1:30)
06. Rock n Roll Nigger (3:25)
07. Privilege (Set Me Free) (3:29)
08. We Three (4:18)
09. 25th Floor (4:03)
10. High On Rebellion (2:37)
11. Easter (6:15)
12. Godspeed (6:09)
Код:
Код: Выделить всё
EAC extraction logfile from 4. August 2007, 22:38 for CD
Patti Smith Group / Easter

Used drive  : PIONEER DVD-RW  DVR-K16M   Adapter: 0  ID: 0
Read mode   : Secure with NO C2, accurate stream, disable cache
Read offset correction : 48
Overread into Lead-In and Lead-Out : No

Used output format : Internal WAV Routines
                     44.100 Hz; 16 Bit; Stereo

Other options      :
    Fill up missing offset samples with silence : Yes
    Delete leading and trailing silent blocks : No
    Installed external ASPI interface

Range status and errors
Selected range
     Filename E:\Prerelease\Easter.wav

     Peak level 98.8 %
     Range quality 100.0 %
     CRC 1C087FD3
     Copy OK

No errors occured

End of status report
Код:
Код: Выделить всё
REM GENRE Rock
REM DATE 1978
REM DISCID 9F0B020C
REM COMMENT "ExactAudioCopy v0.95b4"
PERFORMER "Patti Smith Group"
TITLE "Easter"
FILE "Patti Smith - Easter.wv" WAVE
  TRACK 01 AUDIO
    TITLE "Till Victory"
    PERFORMER "Patti Smith Group"
    INDEX 01 00:00:00
  TRACK 02 AUDIO
    TITLE "Space Monkey"
    PERFORMER "Patti Smith Group"
    INDEX 00 02:47:01
    INDEX 01 02:50:50
  TRACK 03 AUDIO
    TITLE "Because The Night"
    PERFORMER "Patti Smith Group"
    INDEX 00 06:55:28
    INDEX 01 06:57:37
  TRACK 04 AUDIO
    TITLE "Ghost Dance"
    PERFORMER "Patti Smith Group"
    INDEX 00 10:20:26
    INDEX 01 10:22:65
  TRACK 05 AUDIO
    TITLE "Babelogue"
    PERFORMER "Patti Smith Group"
    INDEX 00 15:04:01
    INDEX 01 15:07:35
  TRACK 06 AUDIO
    TITLE "Rock n Roll Nigger"
    PERFORMER "Patti Smith Group"
    INDEX 01 16:37:42
  TRACK 07 AUDIO
    TITLE "Privilege (Set Me Free)"
    PERFORMER "Patti Smith Group"
    INDEX 00 20:00:26
    INDEX 01 20:03:35
  TRACK 08 AUDIO
    TITLE "We Three"
    PERFORMER "Patti Smith Group"
    INDEX 01 23:32:60
  TRACK 09 AUDIO
    TITLE "25th Floor"
    PERFORMER "Patti Smith Group"
    INDEX 01 27:51:02
  TRACK 10 AUDIO
    TITLE "High On Rebellion"
    PERFORMER "Patti Smith Group"
    INDEX 01 31:54:72
  TRACK 11 AUDIO
    TITLE "Easter"
    PERFORMER "Patti Smith Group"
    INDEX 00 34:31:38
    INDEX 01 34:32:42
  TRACK 12 AUDIO
    TITLE "Godspeed (Bonus Track)"
    PERFORMER "Patti Smith Group"
    INDEX 00 40:33:38
    INDEX 01 40:48:05
Код:
Код: Выделить всё
-----------------------

DON'T MODIFY THIS FILE

-----------------------

PERFORMER: auCDtect Task Manager, ver. 1.5.1RC6 build 1.5.1.7
Copyright (c) 2008-2010 y-soft. All rights reserved
http:/y-soft.org

ANALYZER: auCDtect: CD records authenticity detector, version 0.8.2
Copyright (c) 2004 Oleg Berngardt. All rights reserved.
Copyright (c) 2004 Alexander Djourik. All rights reserved.

FILE: Patti Smith - Easter.wv
  Size: 301648049 Hash: 51FCE0FA39D4B5EED7E5E25F0AE74D0E Accuracy: -m0
  Conclusion: CDDA 100%
  Signature: AC7DCB8D811E266D4C2E390A348F125BDC099DC6
#777Лейбл: Arista, BMG, BMG Japan
Каталог#: BVCM-37930
Производитель диска: Japan
Продолжительность: 0043:24

Трек лист:
01. Frederick (3:05)
02. Dancing Barefoot (4:16)
03. So You Want To Be (A Rock 'N' Roll Star) (4:21)
04. Hymn (1:12)
05. Revenge (5:06)
06. Citizen Ship (5:13)
07. Seven Ways Of Going (5:21)
08. Broken Flag (4:59)
09. Wave (4:56)
10. Fire Of Unknown Origin (2:09)
11. 54321,Wave (2:43)
Код:
Код: Выделить всё
EAC extraction logfile from 11. August 2007, 20:20 for CD
Patti Smith Group / Wave

Used drive  : PIONEER DVD-RW  DVR-K16M   Adapter: 0  ID: 0
Read mode   : Secure with NO C2, accurate stream, disable cache
Read offset correction : 48
Overread into Lead-In and Lead-Out : No

Used output format : Internal WAV Routines
                     44.100 Hz; 16 Bit; Stereo

Other options      :
    Fill up missing offset samples with silence : Yes
    Delete leading and trailing silent blocks : No
    Installed external ASPI interface

Range status and errors
Selected range
     Filename E:\Prerelease\Wave.wav

     Peak level 98.8 %
     Range quality 99.9 %
     CRC F73D73AB
     Copy OK

No errors occured

End of status report
Код:
Код: Выделить всё
REM GENRE Rock
REM DATE 1979
REM DISCID 8C0A2C0B
REM COMMENT "ExactAudioCopy v0.95b4"
PERFORMER "Patti Smith Group"
TITLE "Wave"
FILE "Patti Smith - Wave.wv" WAVE
  TRACK 01 AUDIO
    TITLE "Frederick"
    PERFORMER "Patti Smith Group"
    INDEX 01 00:00:00
  TRACK 02 AUDIO
    TITLE "Dancing Barefoot"
    PERFORMER "Patti Smith Group"
    INDEX 00 03:04:01
    INDEX 01 03:05:42
  TRACK 03 AUDIO
    TITLE "So You Want To Be  (A Rock 'N' Roll Star)"
    PERFORMER "Patti Smith Group"
    INDEX 01 07:21:67
  TRACK 04 AUDIO
    TITLE "Hymn"
    PERFORMER "Patti Smith Group"
    INDEX 01 11:43:05
  TRACK 05 AUDIO
    TITLE "Revenge"
    PERFORMER "Patti Smith Group"
    INDEX 01 12:55:10
  TRACK 06 AUDIO
    TITLE "Citizen Ship"
    PERFORMER "Patti Smith Group"
    INDEX 00 18:00:18
    INDEX 01 18:01:32
  TRACK 07 AUDIO
    TITLE "Seven Ways Of Going"
    PERFORMER "Patti Smith Group"
    INDEX 01 23:14:45
  TRACK 08 AUDIO
    TITLE "Broken Flag"
    PERFORMER "Patti Smith Group"
    INDEX 00 28:33:26
    INDEX 01 28:35:62
  TRACK 09 AUDIO
    TITLE "Wave"
    PERFORMER "Patti Smith Group"
    INDEX 00 33:32:38
    INDEX 01 33:35:27
  TRACK 10 AUDIO
    TITLE "Fire Of Unknown Origin (Bonus)"
    PERFORMER "Patti Smith Group"
    INDEX 00 38:17:11
    INDEX 01 38:31:25
  TRACK 11 AUDIO
    TITLE "54321/Wave (Bonus)"
    PERFORMER "Patti Smith Group"
    INDEX 01 40:40:45
Код:
Код: Выделить всё
-----------------------

DON'T MODIFY THIS FILE

-----------------------

PERFORMER: auCDtect Task Manager, ver. 1.5.1RC6 build 1.5.1.7
Copyright (c) 2008-2010 y-soft. All rights reserved
http:/y-soft.org

ANALYZER: auCDtect: CD records authenticity detector, version 0.8.2
Copyright (c) 2004 Oleg Berngardt. All rights reserved.
Copyright (c) 2004 Alexander Djourik. All rights reserved.

FILE: Patti Smith - Wave.wv
  Size: 274146244 Hash: FB1BBB7A5AE0D8833C11DD2C7F7F10DA Accuracy: -m0
  Conclusion: CDDA 100%
  Signature: E0F7077D793C25704354C245F8414FE189FE9D97
#777Лейбл: Arista, BMG, BMG Japan
Каталог#: BVCM-37931
Производитель диска: Japan
Продолжительность: 00:51:45

Трек лист:
01. People Have The Power (5:09)
02. Up There Down There (4:50)
03. Paths That Cross (4:20)
04. Dream Of Life (4:39)
05. Where Duty Calls (7:48)
06. Going Under (5:59)
07. Looking For You (I Was) (4:07)
08. The Jackson Song (5:40)
09. As The Night Goes By (5:04)
10. Wild Leaves (4:04)
Код:
Код: Выделить всё
EAC extraction logfile from 12. August 2007, 15:33 for CD
Patti Smith / Dream Of Life

Used drive  : PIONEER DVD-RW  DVR-K16M   Adapter: 0  ID: 0
Read mode   : Secure with NO C2, accurate stream, disable cache
Read offset correction : 48
Overread into Lead-In and Lead-Out : No

Used output format : Internal WAV Routines
                     44.100 Hz; 16 Bit; Stereo

Other options      :
    Fill up missing offset samples with silence : Yes
    Delete leading and trailing silent blocks : No
    Installed external ASPI interface

Range status and errors
Selected range
     Filename E:\Prerelease\Dream Of Life.wav

     Peak level 98.8 %
     Range quality 100.0 %
     CRC E8CE8048
     Copy OK

No errors occured

End of status report
Код:
Код: Выделить всё
REM GENRE Rock
REM DATE 1988
REM DISCID 760C210A
REM COMMENT "ExactAudioCopy v0.95b4"
PERFORMER "Patti Smith"
TITLE "Dream Of Life"
FILE "Patti Smith - Dream Of Life.wv" WAVE
  TRACK 01 AUDIO
    TITLE "People Have The Power"
    PERFORMER "Patti Smith"
    INDEX 00 00:00:00
    INDEX 01 00:00:37
  TRACK 02 AUDIO
    TITLE "Up There Down There"
    PERFORMER "Patti Smith"
    INDEX 01 05:10:12
  TRACK 03 AUDIO
    TITLE "Paths That Cross"
    PERFORMER "Patti Smith"
    INDEX 00 09:59:71
    INDEX 01 10:00:42
  TRACK 04 AUDIO
    TITLE "Dream Of Life"
    PERFORMER "Patti Smith"
    INDEX 01 14:20:72
  TRACK 05 AUDIO
    TITLE "Where Duty Calls"
    PERFORMER "Patti Smith"
    INDEX 01 19:00:00
  TRACK 06 AUDIO
    TITLE "Going Under"
    PERFORMER "Patti Smith"
    INDEX 01 26:48:62
  TRACK 07 AUDIO
    TITLE "Looking For You (I Was)"
    PERFORMER "Patti Smith"
    INDEX 01 32:48:55
  TRACK 08 AUDIO
    TITLE "The Jackson Song"
    PERFORMER "Patti Smith"
    INDEX 00 36:55:31
    INDEX 01 36:56:30
  TRACK 09 AUDIO
    TITLE "As The Night Goes By (Bonus Track)"
    PERFORMER "Patti Smith"
    INDEX 00 42:22:38
    INDEX 01 42:37:00
  TRACK 10 AUDIO
    TITLE "Wild Leaves (Bonus Track)"
    PERFORMER "Patti Smith"
    INDEX 01 47:41:40
Код:
Код: Выделить всё
-----------------------

DON'T MODIFY THIS FILE

-----------------------

PERFORMER: auCDtect Task Manager, ver. 1.5.1RC6 build 1.5.1.7
Copyright (c) 2008-2010 y-soft. All rights reserved
http:/y-soft.org

ANALYZER: auCDtect: CD records authenticity detector, version 0.8.2
Copyright (c) 2004 Oleg Berngardt. All rights reserved.
Copyright (c) 2004 Alexander Djourik. All rights reserved.

FILE: Patti Smith - Dream Of Life.wv
  Size: 331693621 Hash: DAF052D4A563551DAF987E1BED855B57 Accuracy: -m0
  Conclusion: CDDA 100%
  Signature: A1A32F3E5AB3F6F04B3AA4C39C1814DE25CD501C
#777Лейбл: Arista, BMG, BMG Japan
Каталог#: BVCM-37932
Производитель диска: Japan
Продолжительность: 00:55:58

Трек лист:
01. Gone Again (3:17)
02. Beneath The Southern Cross (4:35)
03. About A Boy (8:16)
04. My Madrigal (5:09)
05. Summer Cannibals (4:10)
06. Dead To The World (4:17)
07. Wing (4:52)
08. Ravens (3:59)
09. Wicked Messenger (3:47)
10. Fireflies (9:35)
11. Farewell Reel (3:57)
Код:
Код: Выделить всё
Exact Audio Copy V0.99 prebeta 2 from 28. July 2007

EAC extraction logfile from 17. August 2007, 13:16

Patti Smith / Gone Again

Used drive  : PIONEER DVD-RW  DVR-K16M   Adapter: 0  ID: 0

Read mode               : Secure
Utilize accurate stream : Yes
Defeat audio cache      : Yes
Make use of C2 pointers : No

Read offset correction                      : 48
Overread into Lead-In and Lead-Out          : No
Fill up missing offset samples with silence : Yes
Delete leading and trailing silent blocks   : No
Null samples used in CRC calculations       : Yes
Used interface                              : Installed external ASPI interface

Used output format : Internal WAV Routines
Sample format      : 44.100 Hz; 16 Bit; Stereo

TOC of the extracted CD

     Track |   Start  |  Length  | Start sector | End sector
    ---------------------------------------------------------
        1  |  0:00.00 |  3:17.25 |         0    |    14799
        2  |  3:17.25 |  4:35.25 |     14800    |    35449
        3  |  7:52.50 |  8:16.25 |     35450    |    72674
        4  | 16:09.00 |  5:09.25 |     72675    |    95874
        5  | 21:18.25 |  4:10.62 |     95875    |   114686
        6  | 25:29.12 |  4:17.63 |    114687    |   134024
        7  | 29:47.00 |  4:52.25 |    134025    |   155949
        8  | 34:39.25 |  3:59.12 |    155950    |   173886
        9  | 38:38.37 |  3:47.13 |    173887    |   190924
       10  | 42:25.50 |  9:35.12 |    190925    |   234061
       11  | 52:00.62 |  3:57.38 |    234062    |   251874

Range status and errors

Selected range

     Filename E:\Prerelease\Gone Again.wav

     Peak level 100.0 %
     Range quality 100.0 %
     Copy CRC 1744EA6A
     Copy OK

No errors occurred

End of status report
Код:
Код: Выделить всё
REM GENRE Rock
REM DATE 1996
REM DISCID 8F0D1E0B
REM COMMENT "ExactAudioCopy v0.99pb2"
PERFORMER "Patti Smith"
TITLE "Gone Again"
FILE "Patti Smith - Gone Again.wv" WAVE
  TRACK 01 AUDIO
    TITLE "Gone Again"
    PERFORMER "Patti Smith"
    INDEX 01 00:00:00
  TRACK 02 AUDIO
    TITLE "Beneath The Southern Cross"
    PERFORMER "Patti Smith"
    INDEX 01 03:17:25
  TRACK 03 AUDIO
    TITLE "About A Boy"
    PERFORMER "Patti Smith"
    INDEX 01 07:52:50
  TRACK 04 AUDIO
    TITLE "My Madrigal"
    PERFORMER "Patti Smith"
    INDEX 01 16:09:00
  TRACK 05 AUDIO
    TITLE "Summer Cannibals"
    PERFORMER "Patti Smith"
    INDEX 01 21:18:25
  TRACK 06 AUDIO
    TITLE "Dead To The World"
    PERFORMER "Patti Smith"
    INDEX 01 25:29:12
  TRACK 07 AUDIO
    TITLE "Wing"
    PERFORMER "Patti Smith"
    INDEX 00 29:46:74
    INDEX 01 29:47:00
  TRACK 08 AUDIO
    TITLE "Ravens"
    PERFORMER "Patti Smith"
    INDEX 01 34:39:25
  TRACK 09 AUDIO
    TITLE "Wicked Messenger"
    PERFORMER "Patti Smith"
    INDEX 01 38:38:37
  TRACK 10 AUDIO
    TITLE "Fireflies"
    PERFORMER "Patti Smith"
    INDEX 00 42:25:49
    INDEX 01 42:25:50
  TRACK 11 AUDIO
    TITLE "Farewell Reel"
    PERFORMER "Patti Smith"
    INDEX 01 52:00:62
Код:
Код: Выделить всё
-----------------------

DON'T MODIFY THIS FILE

-----------------------

PERFORMER: auCDtect Task Manager, ver. 1.5.1RC6 build 1.5.1.7
Copyright (c) 2008-2010 y-soft. All rights reserved
http:/y-soft.org

ANALYZER: auCDtect: CD records authenticity detector, version 0.8.2
Copyright (c) 2004 Oleg Berngardt. All rights reserved.
Copyright (c) 2004 Alexander Djourik. All rights reserved.

FILE: Patti Smith - Gone Again.wv
  Size: 346546782 Hash: 7C181B37495EF7ECF6DF1B392A10B394 Accuracy: -m0
  Conclusion: CDDA 100%
  Signature: B366B4B5E58ABDE3056E7B146D507FE431316979
#777Лейбл: Arista, BMG, BMG Japan
Каталог#: BVCM-37933
Производитель диска: Japan
Продолжительность: 00:52:33

Трек лист:
01. Waiting Underground (5:20)
02. Whirl Away (5:01)
03. 1959 (3:58)
04. Spell (3:17)
05. Don't Say Nothing (5:52)
06. Dead City (4:13)
07. Blue Poles (5:19)
08. Death Singing (3:44)
09. Memento Mori (10:34)
10. Last Call (5:09)
Код:
Код: Выделить всё
Exact Audio Copy V0.99 prebeta 2 from 28. July 2007

EAC extraction logfile from 17. August 2007, 20:07

Patti Smith / Peace And Noise

Used drive  : PIONEER DVD-RW  DVR-K16M   Adapter: 0  ID: 0

Read mode               : Secure
Utilize accurate stream : Yes
Defeat audio cache      : Yes
Make use of C2 pointers : No

Read offset correction                      : 48
Overread into Lead-In and Lead-Out          : No
Fill up missing offset samples with silence : Yes
Delete leading and trailing silent blocks   : No
Null samples used in CRC calculations       : Yes
Used interface                              : Installed external ASPI interface

Used output format : Internal WAV Routines
Sample format      : 44.100 Hz; 16 Bit; Stereo

TOC of the extracted CD

     Track |   Start  |  Length  | Start sector | End sector
    ---------------------------------------------------------
        1  |  0:00.00 |  5:20.00 |         0    |    23999
        2  |  5:20.00 |  5:01.50 |     24000    |    46624
        3  | 10:21.50 |  3:58.67 |     46625    |    64541
        4  | 14:20.42 |  3:17.63 |     64542    |    79379
        5  | 17:38.30 |  5:52.50 |     79380    |   105829
        6  | 23:31.05 |  4:13.62 |    105830    |   124866
        7  | 27:44.67 |  5:19.53 |    124867    |   148844
        8  | 33:04.45 |  3:44.47 |    148845    |   165691
        9  | 36:49.17 | 10:34.38 |    165692    |   213279
       10  | 47:23.55 |  5:09.20 |    213280    |   236474

Range status and errors

Selected range

     Filename E:\Prerelease\Peace And Noise.wav

     Peak level 100.0 %
     Range quality 100.0 %
     Copy CRC C77AC72B
     Copy OK

No errors occurred

End of status report
Код:
Код: Выделить всё
REM GENRE Rock
REM DATE 1997
REM DISCID 780C510A
REM COMMENT "ExactAudioCopy v0.99pb2"
PERFORMER "Patti Smith"
TITLE "Peace And Noise"
FILE "Patti Smith - Peace And Noise.wv" WAVE
  TRACK 01 AUDIO
    TITLE "Waiting Underground"
    PERFORMER "Patti Smith"
    INDEX 01 00:00:00
  TRACK 02 AUDIO
    TITLE "Whirl Away"
    PERFORMER "Patti Smith"
    INDEX 01 05:20:00
  TRACK 03 AUDIO
    TITLE "1959"
    PERFORMER "Patti Smith"
    INDEX 01 10:21:50
  TRACK 04 AUDIO
    TITLE "Spell"
    PERFORMER "Patti Smith"
    INDEX 01 14:20:42
  TRACK 05 AUDIO
    TITLE "Don't Say Nothing"
    PERFORMER "Patti Smith"
    INDEX 00 17:37:63
    INDEX 01 17:38:30
  TRACK 06 AUDIO
    TITLE "Dead City"
    PERFORMER "Patti Smith"
    INDEX 01 23:31:05
  TRACK 07 AUDIO
    TITLE "Blue Poles"
    PERFORMER "Patti Smith"
    INDEX 00 27:43:36
    INDEX 01 27:44:67
  TRACK 08 AUDIO
    TITLE "Death Singing"
    PERFORMER "Patti Smith"
    INDEX 00 33:03:48
    INDEX 01 33:04:45
  TRACK 09 AUDIO
    TITLE "Memento Mori"
    PERFORMER "Patti Smith"
    INDEX 01 36:49:17
  TRACK 10 AUDIO
    TITLE "Last Call"
    PERFORMER "Patti Smith"
    INDEX 01 47:23:55
Код:
Код: Выделить всё
-----------------------

DON'T MODIFY THIS FILE

-----------------------

PERFORMER: auCDtect Task Manager, ver. 1.5.1RC6 build 1.5.1.7
Copyright (c) 2008-2010 y-soft. All rights reserved
http:/y-soft.org

ANALYZER: auCDtect: CD records authenticity detector, version 0.8.2
Copyright (c) 2004 Oleg Berngardt. All rights reserved.
Copyright (c) 2004 Alexander Djourik. All rights reserved.

FILE: Patti Smith - Peace And Noise.wv
  Size: 344360319 Hash: 58C950AE2F11249CB82F4DE089364123 Accuracy: -m0
  Conclusion: CDDA 100%
  Signature: 79801A8FA194A8CF4B846FF52270D72B1A37C281
#777Лейбл: Arista, BMG, BMG Japan
Каталог#: BVCM-37934
Производитель диска: Japan
Продолжительность: 01:04:37

Трек лист:
01. One Voice (4:05)
02. Lo And Beholden (4:43)
03. Boy Cried Wolf (4:51)
04. Persuasion (4:33)
05. Gone Pie (4:04)
06. China Bird (4:07)
07. Glitter In Their Eyes (3:03)
08. Strange Messengers (8:02)
09. Grateful (4:29)
10. Upright Come (2:58)
11. New Party (4:30)
12. Libbie's Song (3:26)
13. Gung Ho (11:41)
Код:
Код: Выделить всё
Exact Audio Copy V0.99 prebeta 3 from 28. July 2007

EAC extraction logfile from 21. August 2007, 18:19

Patti Smith / Gung Ho

Used drive  : PIONEER DVD-RW  DVR-K16M   Adapter: 0  ID: 0

Read mode               : Secure
Utilize accurate stream : Yes
Defeat audio cache      : Yes
Make use of C2 pointers : No

Read offset correction                      : 48
Overread into Lead-In and Lead-Out          : No
Fill up missing offset samples with silence : Yes
Delete leading and trailing silent blocks   : No
Null samples used in CRC calculations       : Yes
Used interface                              : Installed external ASPI interface

Used output format : Internal WAV Routines
Sample format      : 44.100 Hz; 16 Bit; Stereo

TOC of the extracted CD

     Track |   Start  |  Length  | Start sector | End sector
    ---------------------------------------------------------
        1  |  0:00.00 |  4:05.45 |         0    |    18419
        2  |  4:05.45 |  4:43.12 |     18420    |    39656
        3  |  8:48.57 |  4:51.50 |     39657    |    61531
        4  | 13:40.32 |  4:33.15 |     61532    |    82021
        5  | 18:13.47 |  4:04.03 |     82022    |   100324
        6  | 22:17.50 |  4:07.25 |    100325    |   118874
        7  | 26:25.00 |  3:03.32 |    118875    |   132631
        8  | 29:28.32 |  8:02.55 |    132632    |   168836
        9  | 37:31.12 |  4:29.63 |    168837    |   189074
       10  | 42:01.00 |  2:58.10 |    189075    |   202434
       11  | 44:59.10 |  4:30.22 |    202435    |   222706
       12  | 49:29.32 |  3:26.45 |    222707    |   238201
       13  | 52:56.02 | 11:41.10 |    238202    |   290786

Range status and errors

Selected range

     Filename E:\Prerelease\Gung Ho.wav

     Peak level 99.8 %
     Range quality 100.0 %
     Copy CRC 47B9EE3B
     Copy OK

No errors occurred

AccurateRip summary

Track  1  cannot be verified as accurate (confidence 6)  [BFD4725B], AccurateRip returned [BE3487B3]
Track  2  cannot be verified as accurate (confidence 6)  [D2DF97FD], AccurateRip returned [69838C28]
Track  3  cannot be verified as accurate (confidence 6)  [3D6E1ABF], AccurateRip returned [EF297089]
Track  4  cannot be verified as accurate (confidence 6)  [53CBD030], AccurateRip returned [D44FCF84]
Track  5  cannot be verified as accurate (confidence 6)  [26BA7B78], AccurateRip returned [449054FF]
Track  6  cannot be verified as accurate (confidence 6)  [D9B16A2A], AccurateRip returned [ACA5A4C3]
Track  7  cannot be verified as accurate (confidence 6)  [A9C37234], AccurateRip returned [CBB2B8AC]
Track  8  cannot be verified as accurate (confidence 5)  [4A9C55F2], AccurateRip returned [488866CB]
Track  9  cannot be verified as accurate (confidence 6)  [E7B4B9FA], AccurateRip returned [1DE8DC2B]
Track 10  cannot be verified as accurate (confidence 6)  [BD9305E2], AccurateRip returned [AC27EE71]
Track 11  cannot be verified as accurate (confidence 6)  [D5C82E19], AccurateRip returned [FBE646EA]
Track 12  cannot be verified as accurate (confidence 6)  [A675A7D6], AccurateRip returned [D62FDD3E]
Track 13  cannot be verified as accurate (confidence 7)  [12CC587A], AccurateRip returned [2143BCF8]

No tracks could be verified as accurate
You may have a different pressing from the one(s) in the database

End of status report
Код:
Код: Выделить всё
REM GENRE Rock
REM DATE 2000
REM DISCID AE0F250D
REM COMMENT "ExactAudioCopy v0.99pb3"
PERFORMER "Patti Smith"
TITLE "Gung Ho"
FILE "Patti Smith - Gung Ho.wv" WAVE
  TRACK 01 AUDIO
    TITLE "One Voice"
    PERFORMER "Patti Smith"
    ISRC USAR10000034
    INDEX 01 00:00:00
  TRACK 02 AUDIO
    TITLE "Lo And Beholden"
    PERFORMER "Patti Smith"
    ISRC USAR10000035
    INDEX 01 04:05:45
  TRACK 03 AUDIO
    TITLE "Boy Cried Wolf"
    PERFORMER "Patti Smith"
    ISRC USAR10000036
    INDEX 01 08:48:57
  TRACK 04 AUDIO
    TITLE "Persuasion"
    PERFORMER "Patti Smith"
    ISRC USAR10000037
    INDEX 01 13:40:32
  TRACK 05 AUDIO
    TITLE "Gone Pie"
    PERFORMER "Patti Smith"
    ISRC USAR10000050
    INDEX 01 18:13:47
  TRACK 06 AUDIO
    TITLE "China Bird"
    PERFORMER "Patti Smith"
    ISRC USAR10000051
    INDEX 01 22:17:50
  TRACK 07 AUDIO
    TITLE "Glitter In Their Eyes"
    PERFORMER "Patti Smith"
    ISRC USAR10000052
    INDEX 01 26:25:00
  TRACK 08 AUDIO
    TITLE "Strange Messengers"
    PERFORMER "Patti Smith"
    ISRC USAR10000053
    INDEX 01 29:28:32
  TRACK 09 AUDIO
    TITLE "Grateful"
    PERFORMER "Patti Smith"
    ISRC USAR10000054
    INDEX 01 37:31:12
  TRACK 10 AUDIO
    TITLE "Upright Come"
    PERFORMER "Patti Smith"
    ISRC USAR10000055
    INDEX 01 42:01:00
  TRACK 11 AUDIO
    TITLE "New Party"
    PERFORMER "Patti Smith"
    ISRC USAR10000056
    INDEX 01 44:59:10
  TRACK 12 AUDIO
    TITLE "Libbie's Song"
    PERFORMER "Patti Smith"
    ISRC USAR10000057
    INDEX 01 49:29:32
  TRACK 13 AUDIO
    TITLE "Gung Ho"
    PERFORMER "Patti Smith"
    ISRC USAR10000058
    INDEX 01 52:56:02
Код:
Код: Выделить всё
-----------------------

DON'T MODIFY THIS FILE

-----------------------

PERFORMER: auCDtect Task Manager, ver. 1.5.1RC6 build 1.5.1.7
Copyright (c) 2008-2010 y-soft. All rights reserved
http:/y-soft.org

ANALYZER: auCDtect: CD records authenticity detector, version 0.8.2
Copyright (c) 2004 Oleg Berngardt. All rights reserved.
Copyright (c) 2004 Alexander Djourik. All rights reserved.

FILE: Patti Smith - Gung Ho.wv
  Size: 449476357 Hash: B0D609235DF7DB293312E11374BE27A3 Accuracy: -m0
  Conclusion: CDDA 100%
  Signature: 53B4993278F9B194E70E547FEDE69154ED0EB31A
#777Лейбл: Columbia
Каталог#: CK 90330
Производитель диска: USA
Продолжительность: 01:03:41

Трек лист:
01. (4:44)
02. Mother Rose (4:56)
03. Stride Of The Mind (3:37)
04. Cartwheels (6:01)
05. Gandhi (9:21)
06. Trespasses (5:00)
07. My Blakean Year (5:16)
08. Cash (4:20)
09. Peaceable Kingdom (5:09)
10. Radio Baghdad (12:17)
11. Trampin' (2:56)
Код:
Код: Выделить всё
Exact Audio Copy V0.99 prebeta 3 from 28. July 2007

EAC extraction logfile from 24. August 2007, 23:21

Patti Smith / Trampin'

Used drive  : PIONEER DVD-RW  DVR-K16M   Adapter: 0  ID: 0

Read mode               : Secure
Utilize accurate stream : Yes
Defeat audio cache      : Yes
Make use of C2 pointers : No

Read offset correction                      : 48
Overread into Lead-In and Lead-Out          : No
Fill up missing offset samples with silence : Yes
Delete leading and trailing silent blocks   : No
Null samples used in CRC calculations       : Yes
Used interface                              : Installed external ASPI interface

Used output format : Internal WAV Routines
Sample format      : 44.100 Hz; 16 Bit; Stereo

TOC of the extracted CD

     Track |   Start  |  Length  | Start sector | End sector
    ---------------------------------------------------------
        1  |  0:00.00 |  4:43.73 |         0    |    21297
        2  |  4:43.73 |  4:56.53 |     21298    |    43550
        3  |  9:40.51 |  3:37.26 |     43551    |    59851
        4  | 13:18.02 |  6:01.32 |     59852    |    86958
        5  | 19:19.34 |  9:21.03 |     86959    |   129036
        6  | 28:40.37 |  5:00.46 |    129037    |   151582
        7  | 33:41.08 |  5:16.24 |    151583    |   175306
        8  | 38:57.32 |  4:20.65 |    175307    |   194871
        9  | 43:18.22 |  5:09.37 |    194872    |   218083
       10  | 48:27.59 | 12:17.15 |    218084    |   273373
       11  | 60:44.74 |  2:56.03 |    273374    |   286576

Range status and errors

Selected range

     Filename E:\Prerelease\Trampin'.wav

     Peak level 99.8 %
     Range quality 100.0 %
     Copy CRC 5A603AF1
     Copy OK

No errors occurred

AccurateRip summary

Track  1  cannot be verified as accurate (confidence 8)  [A7884215], AccurateRip returned [E28897DC]
Track  2  cannot be verified as accurate (confidence 8)  [497D86F5], AccurateRip returned [44C41020]
Track  3  cannot be verified as accurate (confidence 8)  [95E1CCE9], AccurateRip returned [67D232DC]
Track  4  cannot be verified as accurate (confidence 8)  [3E871B7F], AccurateRip returned [5C2D9D8E]
Track  5  cannot be verified as accurate (confidence 8)  [09B25F5C], AccurateRip returned [B33FEB9B]
Track  6  cannot be verified as accurate (confidence 8)  [80CCCE20], AccurateRip returned [97DA3EAE]
Track  7  cannot be verified as accurate (confidence 8)  [2E6B624E], AccurateRip returned [FC5F40ED]
Track  8  cannot be verified as accurate (confidence 8)  [CA0B5CC5], AccurateRip returned [AA16A210]
Track  9  cannot be verified as accurate (confidence 7)  [E2C3687D], AccurateRip returned [C477E729]
Track 10  cannot be verified as accurate (confidence 8)  [871462ED], AccurateRip returned [4D1A5F61]
Track 11  cannot be verified as accurate (confidence 8)  [EAC7C08C], AccurateRip returned [51451E0A]

No tracks could be verified as accurate
You may have a different pressing from the one(s) in the database

End of status report
Код:
Код: Выделить всё
REM GENRE Rock
REM DATE 2004
REM DISCID 840EED0B
REM COMMENT "ExactAudioCopy v0.99pb3"
PERFORMER "Patti Smith"
TITLE "Trampin'"
FILE "Patti Smith - Trampin'.wv" WAVE
  TRACK 01 AUDIO
    TITLE "Jubilee"
    PERFORMER "Patti Smith"
    ISRC USSM10400986
    INDEX 01 00:00:00
  TRACK 02 AUDIO
    TITLE "Mother Rose"
    PERFORMER "Patti Smith"
    ISRC USSM10400987
    INDEX 01 04:43:73
  TRACK 03 AUDIO
    TITLE "Stride Of The Mind"
    PERFORMER "Patti Smith"
    ISRC USSM10400988
    INDEX 00 09:39:31
    INDEX 01 09:40:51
  TRACK 04 AUDIO
    TITLE "Cartwheels"
    PERFORMER "Patti Smith"
    ISRC USSM10400989
    INDEX 01 13:18:02
  TRACK 05 AUDIO
    TITLE "Gandhi"
    PERFORMER "Patti Smith"
    ISRC USSM10400990
    INDEX 01 19:19:34
  TRACK 06 AUDIO
    TITLE "Trespasses"
    PERFORMER "Patti Smith"
    ISRC USSM10400991
    INDEX 00 28:38:70
    INDEX 01 28:40:37
  TRACK 07 AUDIO
    TITLE "My Blakean Year"
    PERFORMER "Patti Smith"
    ISRC USSM10400992
    INDEX 01 33:41:08
  TRACK 08 AUDIO
    TITLE "Cash"
    PERFORMER "Patti Smith"
    ISRC USSM10400993
    INDEX 01 38:57:32
  TRACK 09 AUDIO
    TITLE "Peaceable Kingdom"
    PERFORMER "Patti Smith"
    ISRC USSM10400994
    INDEX 01 43:18:22
  TRACK 10 AUDIO
    TITLE "Radio Baghdad"
    PERFORMER "Patti Smith"
    ISRC USSM10400995
    INDEX 01 48:27:59
  TRACK 11 AUDIO
    TITLE "Trampin'"
    PERFORMER "Patti Smith"
    ISRC USSM10400996
    INDEX 00 60:42:74
    INDEX 01 60:44:74
Код:
Код: Выделить всё
-----------------------

DON'T MODIFY THIS FILE

-----------------------

PERFORMER: auCDtect Task Manager, ver. 1.5.1RC6 build 1.5.1.7
Copyright (c) 2008-2010 y-soft. All rights reserved
http:/y-soft.org

ANALYZER: auCDtect: CD records authenticity detector, version 0.8.2
Copyright (c) 2004 Oleg Berngardt. All rights reserved.
Copyright (c) 2004 Alexander Djourik. All rights reserved.

FILE: Patti Smith - Trampin'.wv
  Size: 409877386 Hash: F457FD0A2230A7D77A4FFA62AFF5947B Accuracy: -m0
  Conclusion: CDDA 100%
  Signature: 286BF9CF6DA19871D8D57964E09E1842246EA467
#777Лейбл: Columbia, Sony BMG Music Entertainment
Каталог#: 82876 87251 2
Производитель диска: USA
Продолжительность: 00:56:49

Трек лист:
01. Are You Experienced (4:46)
02. Everybody Wants To Rule The World (4:07)
03. Helpless (4:02)
04. Gimme Shelter (5:01)
05. Within You Without You (4:51)
06. White Rabbit (3:54)
07. Changing Of The Guards (5:48)
08. The Boy In The Bubble (4:30)
09. Soul Kitchen (3:45)
10. Smells Like Teen Spirit (6:31)
11. Midnight Rider (4:02)
12. Pastime Paradise (5:26)
Код:
Код: Выделить всё
Exact Audio Copy V0.99 prebeta 3 from 28. July 2007

EAC extraction logfile from 1. September 2007, 1:48

Patti Smith / Twelve

Used drive  : PIONEER DVD-RW  DVR-K16M   Adapter: 0  ID: 0

Read mode               : Secure
Utilize accurate stream : Yes
Defeat audio cache      : Yes
Make use of C2 pointers : No

Read offset correction                      : 48
Overread into Lead-In and Lead-Out          : No
Fill up missing offset samples with silence : Yes
Delete leading and trailing silent blocks   : No
Null samples used in CRC calculations       : Yes
Used interface                              : Installed external ASPI interface

Used output format : Internal WAV Routines
Sample format      : 44.100 Hz; 16 Bit; Stereo

TOC of the extracted CD

     Track |   Start  |  Length  | Start sector | End sector
    ---------------------------------------------------------
        1  |  0:00.00 |  4:46.31 |         0    |    21480
        2  |  4:46.31 |  4:07.17 |     21481    |    40022
        3  |  8:53.48 |  4:02.48 |     40023    |    58220
        4  | 12:56.21 |  5:00.71 |     58221    |    80791
        5  | 17:57.17 |  4:51.23 |     80792    |   102639
        6  | 22:48.40 |  3:54.61 |    102640    |   120250
        7  | 26:43.26 |  5:47.74 |    120251    |   146349
        8  | 32:31.25 |  4:30.49 |    146350    |   166648
        9  | 37:01.74 |  3:45.41 |    166649    |   183564
       10  | 40:47.40 |  6:31.43 |    183565    |   212932
       11  | 47:19.08 |  4:02.67 |    212933    |   231149
       12  | 51:22.00 |  5:26.38 |    231150    |   255637

Range status and errors

Selected range

     Filename E:\Prerelease\Patti Smith - Twelve.wav

     Peak level 100.0 %
     Range quality 100.0 %
     Copy CRC B4FB44F9
     Copy OK

No errors occurred

AccurateRip summary

Track  1  accurately ripped (confidence 3)  [4021F394]
Track  2  accurately ripped (confidence 3)  [06EB9E27]
Track  3  accurately ripped (confidence 3)  [7271C764]
Track  4  accurately ripped (confidence 3)  [717B78DB]
Track  5  accurately ripped (confidence 3)  [6733B2A4]
Track  6  accurately ripped (confidence 3)  [921C9470]
Track  7  accurately ripped (confidence 3)  [2A386F60]
Track  8  accurately ripped (confidence 3)  [ACE5ECE1]
Track  9  accurately ripped (confidence 3)  [7DE069B3]
Track 10  accurately ripped (confidence 3)  [A8E282E8]
Track 11  accurately ripped (confidence 3)  [05C06F70]
Track 12  accurately ripped (confidence 3)  [94896920]

All tracks accurately ripped

End of status report
Код:
Код: Выделить всё
REM GENRE Rock
REM DATE 2007
REM DISCID AB0D500C
REM COMMENT "ExactAudioCopy v0.99pb3"
PERFORMER "Patti Smith"
TITLE "Twelve"
FILE "Patti Smith - Twelve.wv" WAVE
  TRACK 01 AUDIO
    TITLE "Are You Experienced?"
    PERFORMER "Patti Smith"
    ISRC USSM10700243
    INDEX 01 00:00:00
  TRACK 02 AUDIO
    TITLE "Everybody Wants To Rule The World"
    PERFORMER "Patti Smith"
    ISRC USSM10700246
    INDEX 01 04:46:31
  TRACK 03 AUDIO
    TITLE "Helpless"
    PERFORMER "Patti Smith"
    ISRC USSM10700250
    INDEX 00 08:50:24
    INDEX 01 08:53:48
  TRACK 04 AUDIO
    TITLE "Gimme Shelter"
    PERFORMER "Patti Smith"
    ISRC USSM10700248
    INDEX 01 12:56:21
  TRACK 05 AUDIO
    TITLE "Within You Without You"
    PERFORMER "Patti Smith"
    ISRC USSM10700249
    INDEX 00 17:54:71
    INDEX 01 17:57:17
  TRACK 06 AUDIO
    TITLE "White Rabbit"
    PERFORMER "Patti Smith"
    ISRC USSM10700247
    INDEX 01 22:48:40
  TRACK 07 AUDIO
    TITLE "Changing Of The Guards"
    PERFORMER "Patti Smith"
    ISRC USSM10700242
    INDEX 01 26:43:26
  TRACK 08 AUDIO
    TITLE "The Boy In The Bubble"
    PERFORMER "Patti Smith"
    ISRC USSM10700252
    INDEX 00 32:29:15
    INDEX 01 32:31:25
  TRACK 09 AUDIO
    TITLE "Soul Kitchen"
    PERFORMER "Patti Smith"
    ISRC USSM10700767
    INDEX 00 37:00:68
    INDEX 01 37:01:74
  TRACK 10 AUDIO
    TITLE "Smells Like Teen Spirit"
    PERFORMER "Patti Smith"
    ISRC USSM10700245
    INDEX 01 40:47:40
  TRACK 11 AUDIO
    TITLE "Midnight Rider"
    PERFORMER "Patti Smith"
    ISRC USSM10700251
    INDEX 01 47:19:08
  TRACK 12 AUDIO
    TITLE "Pastime Paradise"
    PERFORMER "Patti Smith"
    ISRC USSM10700253
    INDEX 01 51:22:00
Код:
Код: Выделить всё
-----------------------

DON'T MODIFY THIS FILE

-----------------------

PERFORMER: auCDtect Task Manager, ver. 1.5.1RC6 build 1.5.1.7
Copyright (c) 2008-2010 y-soft. All rights reserved
http:/y-soft.org

ANALYZER: auCDtect: CD records authenticity detector, version 0.8.2
Copyright (c) 2004 Oleg Berngardt. All rights reserved.
Copyright (c) 2004 Alexander Djourik. All rights reserved.

FILE: Patti Smith - Twelve.wv
  Size: 412877860 Hash: F33B5CCFA8CFA7A472540161C95444A4 Accuracy: -m0
  Conclusion: CDDA 100%
  Signature: B19FF52EE1045A87D8C83DA075AE724F91617537
#777Лейбл: Columbia
Каталог#: 88725 41106 2
Производитель диска: EU
Продолжительность: 01:03:19

Трек лист:
01. Amerigo (4:36)
02. Fuji-San (3:47)
03. April Fool (4:13)
04. This Is The Girl (3:49)
05. Banga (2:51)
06. Maria (5:05)
07. Tarkovsky (The Second Stop Is Jupiter) (4:13)
08. Mosaic (4:50)
09. Nine (5:03)
10. Seneca (5:40)
11. Constantine's Dream (10:20)
12. After The Gold Rush (4:23)
13. Just Kids (4:28)
Код:
Код: Выделить всё
Exact Audio Copy V0.99 prebeta 5 from 4. May 2009

EAC extraction logfile from 8. June 2012, 11:26

Patti Smith / Banga

Used drive  : PLEXTOR DVDR   PX-810SA   Adapter: 2  ID: 1

Read mode               : Secure
Utilize accurate stream : Yes
Defeat audio cache      : Yes
Make use of C2 pointers : No

Read offset correction                      : 48
Overread into Lead-In and Lead-Out          : No
Fill up missing offset samples with silence : Yes
Delete leading and trailing silent blocks   : No
Null samples used in CRC calculations       : Yes
Used interface                              : Installed external ASPI interface

Used output format : Internal WAV Routines
Sample format      : 44.100 Hz; 16 Bit; Stereo

TOC of the extracted CD

     Track |   Start  |  Length  | Start sector | End sector
    ---------------------------------------------------------
        1  |  0:00.00 |  4:36.37 |         0    |    20736
        2  |  4:36.37 |  3:46.62 |     20737    |    37748
        3  |  8:23.24 |  4:12.72 |     37749    |    56720
        4  | 12:36.21 |  3:49.19 |     56721    |    73914
        5  | 16:25.40 |  2:51.06 |     73915    |    86745
        6  | 19:16.46 |  5:05.34 |     86746    |   109654
        7  | 24:22.05 |  4:12.69 |    109655    |   128623
        8  | 28:34.74 |  4:50.23 |    128624    |   150396
        9  | 33:25.22 |  5:02.62 |    150397    |   173108
       10  | 38:28.09 |  5:39.68 |    173109    |   198601
       11  | 44:08.02 | 10:19.52 |    198602    |   245078
       12  | 54:27.54 |  4:23.23 |    245079    |   264826
       13  | 58:51.02 |  4:28.14 |    264827    |   284940

Range status and errors

Selected range

     Filename C:\Program Files\BitComet\Downloads\Patti Smith - Banga (2012)\Patti Smith - Banga.wav

     Peak level 100.0 %
     Range quality 100.0 %
     Test CRC DFBEDD28
     Copy CRC DFBEDD28
     Copy OK

No errors occurred

AccurateRip summary

Track  1  not present in database
Track  2  not present in database
Track  3  not present in database
Track  4  not present in database
Track  5  not present in database
Track  6  not present in database
Track  7  not present in database
Track  8  not present in database
Track  9  not present in database
Track 10  not present in database
Track 11  not present in database
Track 12  not present in database
Track 13  not present in database

None of the tracks are present in the AccurateRip database

End of status report
Код:
Код: Выделить всё
REM GENRE "Rock"
REM DATE 2012
REM DISCID B40ED70D
REM COMMENT "ExactAudioCopy v0.99pb5"
CATALOG 0887254110620
PERFORMER "Patti Smith"
TITLE "Banga"
FILE "Patti Smith - Banga.flac" WAVE
  TRACK 01 AUDIO
    TITLE "Amerigo"
    PERFORMER "Patti Smith"
    ISRC USSM11202363
    INDEX 01 00:00:00
  TRACK 02 AUDIO
    TITLE "April Fool"
    PERFORMER "Patti Smith"
    ISRC USSM11202009
    INDEX 01 04:36:37
  TRACK 03 AUDIO
    TITLE "Fuji-san"
    PERFORMER "Patti Smith"
    ISRC USSM11202364
    INDEX 01 08:23:24
  TRACK 04 AUDIO
    TITLE "This Is The Girl"
    PERFORMER "Patti Smith"
    ISRC USSM11202365
    INDEX 01 12:36:21
  TRACK 05 AUDIO
    TITLE "Banga"
    PERFORMER "Patti Smith"
    ISRC USSM11202366
    INDEX 01 16:25:40
  TRACK 06 AUDIO
    TITLE "Maria"
    PERFORMER "Patti Smith"
    ISRC USSM11202367
    INDEX 00 19:15:53
    INDEX 01 19:16:46
  TRACK 07 AUDIO
    TITLE "Mosaic"
    PERFORMER "Patti Smith"
    ISRC USSM11202368
    INDEX 01 24:22:05
  TRACK 08 AUDIO
    TITLE "Tarkovsky (The Second Stop Is Jupiter)"
    PERFORMER "Patti Smith"
    ISRC USSM11202369
    INDEX 01 28:34:74
  TRACK 09 AUDIO
    TITLE "Nine"
    PERFORMER "Patti Smith"
    ISRC USSM11202370
    INDEX 01 33:25:22
  TRACK 10 AUDIO
    TITLE "Seneca"
    PERFORMER "Patti Smith"
    ISRC USSM11202371
    INDEX 01 38:28:09
  TRACK 11 AUDIO
    TITLE "Constantine's Dream"
    PERFORMER "Patti Smith"
    ISRC USSM11202372
    INDEX 01 44:08:02
  TRACK 12 AUDIO
    TITLE "After The Gold Rush"
    PERFORMER "Patti Smith"
    ISRC USSM11202373
    INDEX 01 54:27:54
  TRACK 13 AUDIO
    TITLE "Just Kids"
    PERFORMER "Patti Smith"
    ISRC USSM11202539
    INDEX 00 58:41:02
    INDEX 01 58:51:02
Код:
Код: Выделить всё
-----------------------

DON'T MODIFY THIS FILE

-----------------------

PERFORMER: auCDtect Task Manager, ver. 1.5.1RC6 build 1.5.1.7
Copyright (c) 2008-2010 y-soft. All rights reserved
http:/y-soft.org

ANALYZER: auCDtect: CD records authenticity detector, version 0.8.2
Copyright (c) 2004 Oleg Berngardt. All rights reserved.
Copyright (c) 2004 Alexander Djourik. All rights reserved.

FILE: Patti Smith - Banga.flac
  Size: 395829392 Hash: DD820318FCA5DF3E189CAB4A8A5547A4 Accuracy: -m0
  Conclusion: CDDA 100%
  Signature: 459DF2993AB8B9006203FEFE90A5033FE9F9A9E7
#777Лейбл: Arista
Каталог#: 07822 14708 2
Производитель диска: EU
#777Продолжительность: 01:11:47
Трек лист:
01. Dancing Barefoot (4:16)
02. Babelogue (1:29)
03. Rock N Roll Nigger (3:23)
04. Gloria (5:52)
05. Pissing In A River (4:51)
06. Free Money (3:48)
07. People Have The Power (5:09)
08. Because The Night (3:23)
09. Frederick (3:03)
10. Summer Cannibals (4:09)
11. Ghost Dance (4:41)
12. Ain't It Strange (6:36)
13. 1959 (4:00)
14. Beneath The Southern Cross (4:36)
15. Glitter In Their Eyes (3:04)
16. Paths That Cross (4:20)
17. When Doves Cry (4:59)
Код:
Код: Выделить всё
Exact Audio Copy V0.99 prebeta 5 from 4. May 2009

EAC extraction logfile from 3. April 2010, 21:15

Patti Smith / Land (1975-2002) CD1

Used drive  : PIONEER DVD-RW  DVR-111D   Adapter: 1  ID: 0

Read mode               : Secure
Utilize accurate stream : Yes
Defeat audio cache      : Yes
Make use of C2 pointers : No

Read offset correction                      : 48
Overread into Lead-In and Lead-Out          : No
Fill up missing offset samples with silence : Yes
Delete leading and trailing silent blocks   : No
Null samples used in CRC calculations       : Yes
Used interface                              : Native Win32 interface for Win NT & 2000

Used output format              : User Defined Encoder
Selected bitrate                : 768 kBit/s
Quality                         : High
Add ID3 tag                     : No
Command line compressor         : C:\Program Files\Exact Audio Copy\FLAC\FLAC.EXE
Additional command line options : -6 -V -T "ARTIST=%a" -T "TITLE=%t" -T "ALBUM=%g" -T "DATE=%y" -T "TRACKNUMBER=%n" -T "GENRE=%m" -T "COMMENT=%e" %s -o %d

TOC of the extracted CD

     Track |   Start  |  Length  | Start sector | End sector
    ---------------------------------------------------------
        1  |  0:00.00 |  4:16.02 |         0    |    19201
        2  |  4:16.02 |  1:29.63 |     19202    |    25939
        3  |  5:45.65 |  3:23.27 |     25940    |    41191
        4  |  9:09.17 |  5:52.63 |     41192    |    67654
        5  | 15:02.05 |  4:51.20 |     67655    |    89499
        6  | 19:53.25 |  3:48.30 |     89500    |   106629
        7  | 23:41.55 |  5:09.60 |    106630    |   129864
        8  | 28:51.40 |  3:23.20 |    129865    |   145109
        9  | 32:14.60 |  3:03.32 |    145110    |   158866
       10  | 35:18.17 |  4:09.33 |    158867    |   177574
       11  | 39:27.50 |  4:41.02 |    177575    |   198651
       12  | 44:08.52 |  6:36.50 |    198652    |   228401
       13  | 50:45.27 |  4:00.55 |    228402    |   246456
       14  | 54:46.07 |  4:36.38 |    246457    |   267194
       15  | 59:22.45 |  3:04.70 |    267195    |   281064
       16  | 62:27.40 |  4:20.02 |    281065    |   300566
       17  | 66:47.42 |  4:59.63 |    300567    |   323054

Range status and errors

Selected range

     Filename C:\AVI\TRPAJ\Patti Smith FLAC\2002 Land (1975 - 2002)\Cd1\Patti Smith - Land (1975-2002) CD1.wav

     Peak level 99.8 %
     Range quality 100.0 %
     Test CRC 3FFAEFFB
     Copy CRC 3FFAEFFB
     Copy OK

No errors occurred

AccurateRip summary

Track  1  accurately ripped (confidence 67)  [6299ADBF]
Track  2  accurately ripped (confidence 67)  [BA80D1B2]
Track  3  accurately ripped (confidence 67)  [FE045584]
Track  4  accurately ripped (confidence 66)  [6B3E2845]
Track  5  accurately ripped (confidence 68)  [629B27FC]
Track  6  accurately ripped (confidence 67)  [BE3B28D9]
Track  7  accurately ripped (confidence 67)  [4F5D6E87]
Track  8  accurately ripped (confidence 67)  [1217C519]
Track  9  accurately ripped (confidence 65)  [E6DAB28A]
Track 10  accurately ripped (confidence 67)  [CBF82A10]
Track 11  accurately ripped (confidence 67)  [0926C1E6]
Track 12  accurately ripped (confidence 66)  [DA32E778]
Track 13  accurately ripped (confidence 67)  [52C508C5]
Track 14  accurately ripped (confidence 66)  [5CB94E0C]
Track 15  accurately ripped (confidence 66)  [9087B08C]
Track 16  accurately ripped (confidence 66)  [38212022]
Track 17  accurately ripped (confidence 60)  [383D40D1]

All tracks accurately ripped

End of status report
Код:
Код: Выделить всё
REM GENRE Rock
REM DATE 2002
REM DISCID F110D311
REM COMMENT "ExactAudioCopy v0.99pb5"
PERFORMER "Patti Smith"
TITLE "Land (1975-2002) CD1"
FILE "Patti Smith - Land (1975-2002) CD1.flac" WAVE
  TRACK 01 AUDIO
    TITLE "Dancing Barefoot"
    PERFORMER "Patti Smith"
    INDEX 01 00:00:00
  TRACK 02 AUDIO
    TITLE "Babelogue"
    PERFORMER "Patti Smith"
    INDEX 01 04:16:02
  TRACK 03 AUDIO
    TITLE "Rock N Roll Nigger"
    PERFORMER "Patti Smith"
    INDEX 01 05:45:65
  TRACK 04 AUDIO
    TITLE "Gloria"
    PERFORMER "Patti Smith"
    INDEX 00 09:07:52
    INDEX 01 09:09:17
  TRACK 05 AUDIO
    TITLE "Pissing in a River"
    PERFORMER "Patti Smith"
    INDEX 01 15:02:05
  TRACK 06 AUDIO
    TITLE "Free Money"
    PERFORMER "Patti Smith"
    INDEX 01 19:53:25
  TRACK 07 AUDIO
    TITLE "People Have the Power"
    PERFORMER "Patti Smith"
    INDEX 01 23:41:55
  TRACK 08 AUDIO
    TITLE "Because the Night"
    PERFORMER "Patti Smith"
    INDEX 01 28:51:40
  TRACK 09 AUDIO
    TITLE "Frederick"
    PERFORMER "Patti Smith"
    INDEX 01 32:14:60
  TRACK 10 AUDIO
    TITLE "Summer Cannibals"
    PERFORMER "Patti Smith"
    INDEX 01 35:18:17
  TRACK 11 AUDIO
    TITLE "Ghost Dance"
    PERFORMER "Patti Smith"
    INDEX 01 39:27:50
  TRACK 12 AUDIO
    TITLE "Ain't It Strange"
    PERFORMER "Patti Smith"
    INDEX 01 44:08:52
  TRACK 13 AUDIO
    TITLE "1959"
    PERFORMER "Patti Smith"
    INDEX 01 50:45:27
  TRACK 14 AUDIO
    TITLE "Beneath the Southern Cross"
    PERFORMER "Patti Smith"
    INDEX 00 54:43:71
    INDEX 01 54:46:07
  TRACK 15 AUDIO
    TITLE "Glitter in Their Eyes"
    PERFORMER "Patti Smith"
    INDEX 01 59:22:45
  TRACK 16 AUDIO
    TITLE "Paths That Cross"
    PERFORMER "Patti Smith"
    INDEX 01 62:27:40
  TRACK 17 AUDIO
    TITLE "When Doves Cry"
    PERFORMER "Patti Smith"
    INDEX 01 66:47:42
Код:
Код: Выделить всё
-----------------------

DON'T MODIFY THIS FILE

-----------------------

PERFORMER: auCDtect Task Manager, ver. 1.5.1RC6 build 1.5.1.7
Copyright (c) 2008-2010 y-soft. All rights reserved
http:/y-soft.org

ANALYZER: auCDtect: CD records authenticity detector, version 0.8.2
Copyright (c) 2004 Oleg Berngardt. All rights reserved.
Copyright (c) 2004 Alexander Djourik. All rights reserved.

FILE: Patti Smith - Land (1975-2002) CD1.flac
  Size: 506322190 Hash: DF729E44A5336F11044145FC1D0DF63E Accuracy: -m0
  Conclusion: CDDA 100%
  Signature: 521CA6FFCF3334A8A9D4A2B715E666F1C1BD037E
#777Продолжительность: 01:12:19
Трек лист:
01. Piss Factory 5:03
02. Redondo Beach 3:45
03. Distant Fingers 4:57
04. 25th Floor 5:43
05. Come Back Little Sheba 2:36
06. Wander I Go 4:56
07. Dead City 4:35
08. Spell 6:41
09. Wing 5:05
10. Boy Cried Wolf 5:49
11. Birdland 9:43
12. Higher Learning 7:21
13. Notes to the Future 6:05
Код:
Код: Выделить всё
Exact Audio Copy V0.99 prebeta 5 from 4. May 2009

EAC extraction logfile from 3. April 2010, 21:55

Patti Smith / Land (1975-2002) CD2

Used drive  : PIONEER DVD-RW  DVR-111D   Adapter: 1  ID: 0

Read mode               : Secure
Utilize accurate stream : Yes
Defeat audio cache      : Yes
Make use of C2 pointers : No

Read offset correction                      : 48
Overread into Lead-In and Lead-Out          : No
Fill up missing offset samples with silence : Yes
Delete leading and trailing silent blocks   : No
Null samples used in CRC calculations       : Yes
Used interface                              : Native Win32 interface for Win NT & 2000

Used output format              : User Defined Encoder
Selected bitrate                : 768 kBit/s
Quality                         : High
Add ID3 tag                     : No
Command line compressor         : C:\Program Files\Exact Audio Copy\FLAC\FLAC.EXE
Additional command line options : -6 -V -T "ARTIST=%a" -T "TITLE=%t" -T "ALBUM=%g" -T "DATE=%y" -T "TRACKNUMBER=%n" -T "GENRE=%m" -T "COMMENT=%e" %s -o %d

TOC of the extracted CD

     Track |   Start  |  Length  | Start sector | End sector
    ---------------------------------------------------------
        1  |  0:00.00 |  5:02.72 |         0    |    22721
        2  |  5:02.72 |  3:44.50 |     22722    |    39571
        3  |  8:47.47 |  4:56.48 |     39572    |    61819
        4  | 13:44.20 |  5:43.22 |     61820    |    87566
        5  | 19:27.42 |  2:36.25 |     87567    |    99291
        6  | 22:03.67 |  4:56.33 |     99292    |   121524
        7  | 27:00.25 |  4:34.50 |    121525    |   142124
        8  | 31:35.00 |  6:40.52 |    142125    |   172176
        9  | 38:15.52 |  5:05.25 |    172177    |   195076
       10  | 43:21.02 |  5:48.73 |    195077    |   221249
       11  | 49:10.00 |  9:42.45 |    221250    |   264944
       12  | 58:52.45 |  7:21.10 |    264945    |   298029
       13  | 66:13.55 |  6:05.37 |    298030    |   325441

Range status and errors

Selected range

     Filename C:\AVI\TRPAJ\Patti Smith FLAC\2002 Land (1975 - 2002)\Cd2\Patti Smith - Land (1975-2002) CD2.wav

     Peak level 99.8 %
     Range quality 100.0 %
     Test CRC 47A40ED3
     Copy CRC 47A40ED3
     Copy OK

No errors occurred

AccurateRip summary

Track  1  accurately ripped (confidence 67)  [6BB2D612]
Track  2  accurately ripped (confidence 67)  [78D09D01]
Track  3  accurately ripped (confidence 67)  [99B0DC58]
Track  4  accurately ripped (confidence 67)  [8648CFC6]
Track  5  accurately ripped (confidence 68)  [625B9777]
Track  6  accurately ripped (confidence 67)  [6EF0DCBF]
Track  7  accurately ripped (confidence 66)  [CFF17486]
Track  8  accurately ripped (confidence 66)  [442623E6]
Track  9  accurately ripped (confidence 64)  [F5F2FBAF]
Track 10  accurately ripped (confidence 61)  [4A412DB6]
Track 11  accurately ripped (confidence 64)  [11E0E7CB]
Track 12  accurately ripped (confidence 63)  [346163E2]
Track 13  accurately ripped (confidence 60)  [70DB0B41]

All tracks accurately ripped

End of status report
Код:
Код: Выделить всё
REM GENRE Rock
REM DATE 2002
REM DISCID C110F30D
REM COMMENT "ExactAudioCopy v0.99pb5"
PERFORMER "Patti Smith"
TITLE "Land (1975-2002) CD2"
FILE "Patti Smith - Land (1975-2002) CD2.flac" WAVE
  TRACK 01 AUDIO
    TITLE "Piss Factory [Track, 1974]"
    PERFORMER "Patti Smith"
    INDEX 01 00:00:00
  TRACK 02 AUDIO
    TITLE "Redondo Beach [Demo, 1975]"
    PERFORMER "Patti Smith"
    INDEX 01 05:02:72
  TRACK 03 AUDIO
    TITLE "Distance Fingers [Demo, 1975]"
    PERFORMER "Patti Smith"
    INDEX 01 08:47:47
  TRACK 04 AUDIO
    TITLE "25th Floor [Live: Eugene, Ore., 1978]"
    PERFORMER "Patti Smith"
    INDEX 01 13:44:20
  TRACK 05 AUDIO
    TITLE "Come Back Little Sheba [Studio Outtake, 1996]"
    PERFORMER "Patti Smith"
    INDEX 01 19:27:42
  TRACK 06 AUDIO
    TITLE "Wander I Go [Track, 1996]"
    PERFORMER "Patti Smith"
    INDEX 00 22:02:63
    INDEX 01 22:03:67
  TRACK 07 AUDIO
    TITLE "Dead City [Live: Denmark, 2001]"
    PERFORMER "Patti Smith"
    INDEX 00 26:59:10
    INDEX 01 27:00:25
  TRACK 08 AUDIO
    TITLE "Spell [Live: Portland, Ore., 2001]"
    PERFORMER "Patti Smith"
    INDEX 01 31:35:00
  TRACK 09 AUDIO
    TITLE "Wing [Live: Paris, 2001]"
    PERFORMER "Patti Smith"
    INDEX 01 38:15:52
  TRACK 10 AUDIO
    TITLE "Boy Cried Wolf [Live: Paris, 2001]"
    PERFORMER "Patti Smith"
    INDEX 01 43:21:02
  TRACK 11 AUDIO
    TITLE "Birdland [Live: Los Angeles, Calif., 2001]"
    PERFORMER "Patti Smith"
    INDEX 01 49:10:00
  TRACK 12 AUDIO
    TITLE "Higher Learning/Contemplation [Unreleased Studio Track, 2001]"
    PERFORMER "Patti Smith"
    INDEX 00 58:49:72
    INDEX 01 58:52:45
  TRACK 13 AUDIO
    TITLE "Notes to the Future [Live: St. Mark's Church, New York, N.Y., 2002]"
    PERFORMER "Patti Smith"
    INDEX 00 66:12:05
    INDEX 01 66:13:55
Код:
Код: Выделить всё
-----------------------

DON'T MODIFY THIS FILE

-----------------------

PERFORMER: auCDtect Task Manager, ver. 1.5.1RC6 build 1.5.1.7
Copyright (c) 2008-2010 y-soft. All rights reserved
http:/y-soft.org

ANALYZER: auCDtect: CD records authenticity detector, version 0.8.2
Copyright (c) 2004 Oleg Berngardt. All rights reserved.
Copyright (c) 2004 Alexander Djourik. All rights reserved.

FILE: Patti Smith - Land (1975-2002) CD2.flac
  Size: 453818509 Hash: C6D6089EAB0E100FD1E8F979C5A36413 Accuracy: -m0
  Conclusion: CDDA 100%
  Signature: 01ABC7186CF47984397E2671A6A0220C5D962C55
#777Лейбл: PASK
Каталог#: PASK 001
Производитель диска: -
#777Продолжительность: 01:04:42
Трек лист:
01. Part One 14:33
02. Part Two 12:43
03. Part Three 7:23
04. Part Four 13:02
05. Part Five 7:54
06. Part Six 9:08
Код:
Код: Выделить всё
EAC extraction logfile from 11. July 2008, 15:26 for CD
Patti Smith & Kevin Shields / The Coral Sea (22.06.05) (Disc 1)

Used drive  : _NEC    DVD_RW ND-3550A   Adapter: 1  ID: 0
Read mode   : Secure with NO C2, accurate stream, disable cache
Read offset correction : 48
Overread into Lead-In and Lead-Out : No

Used output format : C:\Program\Exact Audio Copy\flac.exe   (User Defined Encoder)
                     128 kBit/s
                     Additional command line options : -V -8 -T "artist=%a" -T "title=%t" -T "album=%g" -T "date=%y" -T "tracknumber=%n" -T "genre=%m" %s

Other options      :
    Fill up missing offset samples with silence : Yes
    Delete leading and trailing silent blocks : No
    Installed external ASPI interface

Track  1
     Filename E:\++New++\Patti Smith & Kevin Shields - The Coral Sea (2008) [FLAC] {2 CD}\Disc 1\01 - Part One.wav

     Pre-gap length  0:00:02.00

     Peak level 81.2 %
     Track quality 99.9 %
     Test CRC EB2164C4
     Copy CRC EB2164C4
     Copy OK

Track  2
     Filename E:\++New++\Patti Smith & Kevin Shields - The Coral Sea (2008) [FLAC] {2 CD}\Disc 1\02 - Part Two.wav

     Peak level 96.0 %
     Track quality 99.9 %
     Test CRC E1CAC55A
     Copy CRC E1CAC55A
     Copy OK

Track  3
     Filename E:\++New++\Patti Smith & Kevin Shields - The Coral Sea (2008) [FLAC] {2 CD}\Disc 1\03 - Part Three.wav

     Peak level 96.0 %
     Track quality 100.0 %
     Test CRC 7BB02F88
     Copy CRC 7BB02F88
     Copy OK

Track  4
     Filename E:\++New++\Patti Smith & Kevin Shields - The Coral Sea (2008) [FLAC] {2 CD}\Disc 1\04 - Part Four.wav

     Peak level 100.0 %
     Track quality 100.0 %
     Test CRC C9D938A4
     Copy CRC C9D938A4
     Copy OK

Track  5
     Filename E:\++New++\Patti Smith & Kevin Shields - The Coral Sea (2008) [FLAC] {2 CD}\Disc 1\05 - Part Five.wav

     Peak level 99.9 %
     Track quality 100.0 %
     Test CRC 15B9E79B
     Copy CRC 15B9E79B
     Copy OK

Track  6
     Filename E:\++New++\Patti Smith & Kevin Shields - The Coral Sea (2008) [FLAC] {2 CD}\Disc 1\06 - Part Six.wav

     Peak level 100.0 %
     Track quality 100.0 %
     Test CRC 609DA56A
     Copy CRC 609DA56A
     Copy OK

No errors occured

End of status report
Код:
Код: Выделить всё
REM GENRE Rock
REM DATE 2008
REM DISCID 510F2A06
REM COMMENT "ExactAudioCopy v0.95b3"
PERFORMER "Patti Smith & Kevin Shields"
TITLE "The Coral Sea (22.06.05) (Disc 1)"
FILE "01 - Part One.wav" WAVE
  TRACK 01 AUDIO
    TITLE "Part One"
    PERFORMER "Patti Smith & Kevin Shields"
    INDEX 01 00:00:00
FILE "02 - Part Two.wav" WAVE
  TRACK 02 AUDIO
    TITLE "Part Two"
    PERFORMER "Patti Smith & Kevin Shields"
    INDEX 01 00:00:00
FILE "03 - Part Three.wav" WAVE
  TRACK 03 AUDIO
    TITLE "Part Three"
    PERFORMER "Patti Smith & Kevin Shields"
    INDEX 01 00:00:00
FILE "04 - Part Four.wav" WAVE
  TRACK 04 AUDIO
    TITLE "Part Four"
    PERFORMER "Patti Smith & Kevin Shields"
    INDEX 01 00:00:00
FILE "05 - Part Five.wav" WAVE
  TRACK 05 AUDIO
    TITLE "Part Five"
    PERFORMER "Patti Smith & Kevin Shields"
    INDEX 01 00:00:00
FILE "06 - Part Six.wav" WAVE
  TRACK 06 AUDIO
    TITLE "Part Six"
    PERFORMER "Patti Smith & Kevin Shields"
    INDEX 01 00:00:00
Код:
Код: Выделить всё
-----------------------

DON'T MODIFY THIS FILE

-----------------------

PERFORMER: auCDtect Task Manager, ver. 1.5.1RC6 build 1.5.1.7
Copyright (c) 2008-2010 y-soft. All rights reserved
http:/y-soft.org

ANALYZER: auCDtect: CD records authenticity detector, version 0.8.2
Copyright (c) 2004 Oleg Berngardt. All rights reserved.
Copyright (c) 2004 Alexander Djourik. All rights reserved.

FILE: 06 - Part Six.flac
  Size: 51951716 Hash: D91F07478026BC79847D2C581EA2BDC6 Accuracy: -m0
  Conclusion: CDDA 100%
  Signature: 0C1BC5798F01655987179289F5E72B5A26CCC072
FILE: 05 - Part Five.flac
  Size: 40339888 Hash: 73CEF3FE006FFC1D068CA9A663AE9193 Accuracy: -m0
  Conclusion: CDDA 100%
  Signature: 3AD5CE079316CCF70255651B22FE244D8B3445C2
FILE: 04 - Part Four.flac
  Size: 67580158 Hash: 114C11699105B31188FF05BE61BB2C1D Accuracy: -m0
  Conclusion: CDDA 100%
  Signature: BABD5DC82972CBC9F44B4F984B914C6355EC798C
FILE: 03 - Part Three.flac
  Size: 33598666 Hash: 0035AB748488E6B5596A32D97C52E842 Accuracy: -m0
  Conclusion: CDDA 100%
  Signature: 9392AB8488DAAB1827EAF3EE73D19084ADA9B7F0
FILE: 02 - Part Two.flac
  Size: 63128186 Hash: 0B2E661AB87256D0FFBA245AFA72DACF Accuracy: -m0
  Conclusion: CDDA 100%
  Signature: FAEC257DFF9101EAD61BA855FE93BD4E64E1D91B
FILE: 01 - Part One.flac
  Size: 68654502 Hash: 4BD56256755899B16B81B1ABD1105AA1 Accuracy: -m0
  Conclusion: CDDA 99%
  Signature: CC6748D89003D79DD6D6DDA3984EC5F55E213CF8
#777Продолжительность: 00:54:46
Трек лист:
01. Part One 11:01
02. Part Two 13:39
03. Part Three 14:26
04. Part Four 15:41
Код:
Код: Выделить всё
EAC extraction logfile from 11. July 2008, 15:48 for CD
Patti Smith & Kevin Shields / The Coral Sea (12.09.06) (Disc 2)

Used drive  : _NEC    DVD_RW ND-3550A   Adapter: 1  ID: 0
Read mode   : Secure with NO C2, accurate stream, disable cache
Read offset correction : 48
Overread into Lead-In and Lead-Out : No

Used output format : C:\Program\Exact Audio Copy\flac.exe   (User Defined Encoder)
                     128 kBit/s
                     Additional command line options : -V -8 -T "artist=%a" -T "title=%t" -T "album=%g" -T "date=%y" -T "tracknumber=%n" -T "genre=%m" %s

Other options      :
    Fill up missing offset samples with silence : Yes
    Delete leading and trailing silent blocks : No
    Installed external ASPI interface

Track  1
     Filename E:\++New++\Patti Smith & Kevin Shields - The Coral Sea (2008) [FLAC] {2 CD}\Disc 2\01 - Part One.wav

     Pre-gap length  0:00:02.00

     Peak level 100.0 %
     Track quality 99.9 %
     Test CRC BB442EA6
     Copy CRC BB442EA6
     Copy OK

Track  2
     Filename E:\++New++\Patti Smith & Kevin Shields - The Coral Sea (2008) [FLAC] {2 CD}\Disc 2\02 - Part Two.wav

     Peak level 100.0 %
     Track quality 100.0 %
     Test CRC B1735C75
     Copy CRC B1735C75
     Copy OK

Track  3
     Filename E:\++New++\Patti Smith & Kevin Shields - The Coral Sea (2008) [FLAC] {2 CD}\Disc 2\03 - Part Three.wav

     Peak level 100.0 %
     Track quality 100.0 %
     Test CRC 3A90D6B9
     Copy CRC 3A90D6B9
     Copy OK

Track  4
     Filename E:\++New++\Patti Smith & Kevin Shields - The Coral Sea (2008) [FLAC] {2 CD}\Disc 2\04 - Part Four.wav

     Peak level 100.0 %
     Track quality 100.0 %
     Test CRC 2368DFA9
     Copy CRC 2368DFA9
     Copy OK

No errors occured

End of status report
Код:
Код: Выделить всё
REM GENRE Rock
REM DATE 2008
REM DISCID 2E0CD504
REM COMMENT "ExactAudioCopy v0.95b3"
PERFORMER "Patti Smith & Kevin Shields"
TITLE "The Coral Sea (12.09.06) (Disc 2)"
FILE "01 - Part One.wav" WAVE
  TRACK 01 AUDIO
    TITLE "Part One"
    PERFORMER "Patti Smith & Kevin Shields"
    INDEX 01 00:00:00
FILE "02 - Part Two.wav" WAVE
  TRACK 02 AUDIO
    TITLE "Part Two"
    PERFORMER "Patti Smith & Kevin Shields"
    INDEX 01 00:00:00
FILE "03 - Part Three.wav" WAVE
  TRACK 03 AUDIO
    TITLE "Part Three"
    PERFORMER "Patti Smith & Kevin Shields"
    INDEX 01 00:00:00
FILE "04 - Part Four.wav" WAVE
  TRACK 04 AUDIO
    TITLE "Part Four"
    PERFORMER "Patti Smith & Kevin Shields"
    INDEX 01 00:00:00
Код:
Код: Выделить всё
-----------------------

DON'T MODIFY THIS FILE

-----------------------

PERFORMER: auCDtect Task Manager, ver. 1.5.1RC6 build 1.5.1.7
Copyright (c) 2008-2010 y-soft. All rights reserved
http:/y-soft.org

ANALYZER: auCDtect: CD records authenticity detector, version 0.8.2
Copyright (c) 2004 Oleg Berngardt. All rights reserved.
Copyright (c) 2004 Alexander Djourik. All rights reserved.

FILE: 04 - Part Four.flac
  Size: 96483279 Hash: 7BC243502CC428A5D7765C15ECFBFB2B Accuracy: -m0
  Conclusion: CDDA 85%
  Signature: 2780A3D24A9940A1A7624E6509BC5CA43C957962
FILE: 03 - Part Three.flac
  Size: 82795841 Hash: 07F855CCD391FF271F4DB1C55199F993 Accuracy: -m0
  Conclusion: CDDA 76%
  Signature: 294E2C0FDCB0627033FE7ED905FF186F088B8B70
FILE: 02 - Part Two.flac
  Size: 74174099 Hash: FCE8E67170FE0890959F505EC3DFEDFD Accuracy: -m0
  Conclusion: MPEG 90%
  Signature: 54C95EC961D432AAFB74CB5A10ADCF0409E80238
FILE: 01 - Part One.flac
  Size: 56146684 Hash: 26053034B51A50CC69AE03865F56C85F Accuracy: -m0
  Conclusion: CDDA 100%
  Signature: 30113584BDD77402E552170DAC24933605DB3BEA
#777Лейбл: Arista, Columbia, Legacy
Каталог#: 88697 94315 2
Производитель диска: Germany
Продолжительность: 01:19:44

Трек лист:
01. Gloria 5:52
02. Free Money 3:50
03. Ain't It Strange 6:35
04. Pissing In A River 4:50
05. Because The Night 3:22
06. Rock N Roll Nigger 4:52
07. Dancing Barefoot 4:16
08. Frederick 3:02
09. So You Want To Be A Rock N Roll Star 4:18
10. People Have The Power 5:06
11. Up There Down There 4:48
12. Beneath The Southern Cross 4:34
13. Summer Cannibals 4:09
14. 1959 3:58
15. Glitter In Their Eyes 3:03
16. Lo And Beholden (Radio Edit) 4:19
17. Smells Like Teen Spirit (Radio Edit) 5:49
18. Trampin' 2:52
Код:
Код: Выделить всё
Exact Audio Copy V1.0 beta 3 from 29. August 2011

EAC extraction logfile from 25. August 2011, 19:23

Patti Smith / Outside Society - Greatest Hits

Used drive  : TSSTcorpDVD+-RW TS-H653F   Adapter: 1  ID: 1

Read mode               : Secure
Utilize accurate stream : Yes
Defeat audio cache      : Yes
Make use of C2 pointers : No

Read offset correction                      : 6
Overread into Lead-In and Lead-Out          : No
Fill up missing offset samples with silence : Yes
Delete leading and trailing silent blocks   : No
Null samples used in CRC calculations       : Yes
Used interface                              : Native Win32 interface for Win NT & 2000
Gap handling                                : Appended to previous track

Used output format              : User Defined Encoder
Selected bitrate                : 1024 kBit/s
Quality                         : High
Add ID3 tag                     : No
Command line compressor         : C:\Program Files (x86)\Exact Audio Copy\Flac\flac.exe
Additional command line options : -8 -V -T "ARTIST=%artist%" -T "TITLE=%title%" -T "ALBUM=%albumtitle%" -T "DATE=%year%" -T "TRACKNUMBER=%tracknr%" -T "TOTALTRACKS=%numtracks%" -T "GENRE=%genre%" -T "ALBUMARTIST=%albumartist%" -T "ALBUM ARTIST=%albumartist%" -T "COMMENT=EAC Secure Mode, Test & Copy, AccurateRip, FLAC -8" %source%

TOC of the extracted CD

     Track |   Start  |  Length  | Start sector | End sector
    ---------------------------------------------------------
        1  |  0:00.00 |  5:52.48 |         0    |    26447
        2  |  5:52.48 |  3:50.16 |     26448    |    43713
        3  |  9:42.64 |  6:35.24 |     43714    |    73362
        4  | 16:18.13 |  4:50.52 |     73363    |    95164
        5  | 21:08.65 |  3:22.71 |     95165    |   110385
        6  | 24:31.61 |  4:52.29 |    110386    |   132314
        7  | 29:24.15 |  4:16.46 |    132315    |   151560
        8  | 33:40.61 |  3:02.22 |    151561    |   165232
        9  | 36:43.08 |  4:18.44 |    165233    |   184626
       10  | 41:01.52 |  5:06.38 |    184627    |   207614
       11  | 46:08.15 |  4:48.57 |    207615    |   229271
       12  | 50:56.72 |  4:34.51 |    229272    |   249872
       13  | 55:31.48 |  4:09.18 |    249873    |   268565
       14  | 59:40.66 |  3:58.30 |    268566    |   286445
       15  | 63:39.21 |  3:03.32 |    286446    |   300202
       16  | 66:42.53 |  4:19.30 |    300203    |   319657
       17  | 71:02.08 |  5:49.29 |    319658    |   345861
       18  | 76:51.37 |  2:52.34 |    345862    |   358795

Track  1

     Filename Z:\EAC Rips\01 - Gloria.wav

     Pre-gap length  0:00:02.00

     Peak level 99.2 %
     Extraction speed 2.1 X
     Track quality 100.0 %
     Test CRC BC80D518
     Copy CRC BC80D518
     Track not present in AccurateRip database
     Copy OK

Track  2

     Filename Z:\EAC Rips\02 - Free Money.wav

     Peak level 98.6 %
     Extraction speed 2.2 X
     Track quality 100.0 %
     Test CRC A52B1931
     Copy CRC A52B1931
     Track not present in AccurateRip database
     Copy OK

Track  3

     Filename Z:\EAC Rips\03 - Ain't It Strange.wav

     Peak level 99.8 %
     Extraction speed 2.6 X
     Track quality 100.0 %
     Test CRC 4CA861BD
     Copy CRC 4CA861BD
     Track not present in AccurateRip database
     Copy OK

Track  4

     Filename Z:\EAC Rips\04 - Pissing In A River.wav

     Peak level 99.8 %
     Extraction speed 2.7 X
     Track quality 100.0 %
     Test CRC 65417F4B
     Copy CRC 65417F4B
     Track not present in AccurateRip database
     Copy OK

Track  5

     Filename Z:\EAC Rips\05 - Because The Night.wav

     Peak level 97.8 %
     Extraction speed 2.7 X
     Track quality 100.0 %
     Test CRC F789126C
     Copy CRC F789126C
     Track not present in AccurateRip database
     Copy OK

Track  6

     Filename Z:\EAC Rips\06 - Rock'n'Roll Nigger.wav

     Peak level 97.2 %
     Extraction speed 3.0 X
     Track quality 100.0 %
     Test CRC 2AABA302
     Copy CRC 2AABA302
     Track not present in AccurateRip database
     Copy OK

Track  7

     Filename Z:\EAC Rips\07 - Dancing Barefoot.wav

     Peak level 96.7 %
     Extraction speed 2.4 X
     Track quality 99.9 %
     Test CRC 4165FDAB
     Copy CRC 4165FDAB
     Track not present in AccurateRip database
     Copy OK

Track  8

     Filename Z:\EAC Rips\08 - Frederick.wav

     Peak level 95.7 %
     Extraction speed 3.0 X
     Track quality 100.0 %
     Test CRC FDC68219
     Copy CRC FDC68219
     Track not present in AccurateRip database
     Copy OK

Track  9

     Filename Z:\EAC Rips\09 - So You Want To Be A Rock And Roll Star.wav

     Peak level 96.5 %
     Extraction speed 3.3 X
     Track quality 100.0 %
     Test CRC 37C184C3
     Copy CRC 37C184C3
     Track not present in AccurateRip database
     Copy OK

Track 10

     Filename Z:\EAC Rips\10 - People Have The Power.wav

     Peak level 98.6 %
     Extraction speed 3.5 X
     Track quality 100.0 %
     Test CRC BE9A155D
     Copy CRC BE9A155D
     Track not present in AccurateRip database
     Copy OK

Track 11

     Filename Z:\EAC Rips\11 - Up There Down There.wav

     Peak level 97.8 %
     Extraction speed 3.6 X
     Track quality 100.0 %
     Test CRC 9BC2C057
     Copy CRC 9BC2C057
     Track not present in AccurateRip database
     Copy OK

Track 12

     Filename Z:\EAC Rips\12 - Beneath The Southern Cross.wav

     Peak level 100.0 %
     Extraction speed 3.7 X
     Track quality 100.0 %
     Test CRC 4B0069E4
     Copy CRC 4B0069E4
     Track not present in AccurateRip database
     Copy OK

Track 13

     Filename Z:\EAC Rips\13 - Summer Cannibals.wav

     Peak level 100.0 %
     Extraction speed 3.7 X
     Track quality 100.0 %
     Test CRC 0CA94815
     Copy CRC 0CA94815
     Track not present in AccurateRip database
     Copy OK

Track 14

     Filename Z:\EAC Rips\14 - 1959.wav

     Peak level 100.0 %
     Extraction speed 2.8 X
     Track quality 99.9 %
     Test CRC 21949BDF
     Copy CRC 21949BDF
     Track not present in AccurateRip database
     Copy OK

Track 15

     Filename Z:\EAC Rips\15 - Glitter In Their Eyes.wav

     Peak level 99.8 %
     Extraction speed 3.8 X
     Track quality 100.0 %
     Test CRC 42FFAF36
     Copy CRC 42FFAF36
     Track not present in AccurateRip database
     Copy OK

Track 16

     Filename Z:\EAC Rips\16 - Lo And Beholden.wav

     Peak level 97.2 %
     Extraction speed 4.0 X
     Track quality 100.0 %
     Test CRC DC3BC61F
     Copy CRC DC3BC61F
     Track not present in AccurateRip database
     Copy OK

Track 17

     Filename Z:\EAC Rips\17 - Smells Like Teen Spirit.wav

     Peak level 100.0 %
     Extraction speed 4.3 X
     Track quality 100.0 %
     Test CRC 80151546
     Copy CRC 80151546
     Track not present in AccurateRip database
     Copy OK

Track 18

     Filename Z:\EAC Rips\18 - Trampin'.wav

     Pre-gap length  0:00:02.01

     Peak level 77.5 %
     Extraction speed 4.0 X
     Track quality 100.0 %
     Test CRC 2960E071
     Copy CRC 2960E071
     Track not present in AccurateRip database
     Copy OK

None of the tracks are present in the AccurateRip database

No errors occurred

End of status report

==== Log checksum 447FCFA96E98E2963202A9B693D3D63DF085864FD09ED61FA248AC1397A98FDF ====
Код:
Код: Выделить всё
REM GENRE "Alternative Rock"
REM DATE 2011
REM DISCID ED12AF12
REM COMMENT "ExactAudioCopy v1.0b3"
PERFORMER "Patti Smith"
TITLE "Outside Society - Greatest Hits"
FILE "01 - Gloria.wav" WAVE
  TRACK 01 AUDIO
    TITLE "Gloria"
    PERFORMER "Patti Smith"
    INDEX 01 00:00:00
FILE "02 - Free Money.wav" WAVE
  TRACK 02 AUDIO
    TITLE "Free Money"
    PERFORMER "Patti Smith"
    INDEX 01 00:00:00
FILE "03 - Ain't It Strange.wav" WAVE
  TRACK 03 AUDIO
    TITLE "Ain't It Strange"
    PERFORMER "Patti Smith"
    INDEX 01 00:00:00
FILE "04 - Pissing In A River.wav" WAVE
  TRACK 04 AUDIO
    TITLE "Pissing In A River"
    PERFORMER "Patti Smith"
    INDEX 01 00:00:00
FILE "05 - Because The Night.wav" WAVE
  TRACK 05 AUDIO
    TITLE "Because The Night"
    PERFORMER "Patti Smith"
    INDEX 01 00:00:00
FILE "06 - Rock'n'Roll Nigger.wav" WAVE
  TRACK 06 AUDIO
    TITLE "Rock'n'Roll Nigger"
    PERFORMER "Patti Smith"
    INDEX 01 00:00:00
FILE "07 - Dancing Barefoot.wav" WAVE
  TRACK 07 AUDIO
    TITLE "Dancing Barefoot"
    PERFORMER "Patti Smith"
    INDEX 01 00:00:00
FILE "08 - Frederick.wav" WAVE
  TRACK 08 AUDIO
    TITLE "Frederick"
    PERFORMER "Patti Smith"
    INDEX 01 00:00:00
FILE "09 - So You Want To Be A Rock And Roll Star.wav" WAVE
  TRACK 09 AUDIO
    TITLE "So You Want To Be A Rock And Roll Star"
    PERFORMER "Patti Smith"
    INDEX 01 00:00:00
FILE "10 - People Have The Power.wav" WAVE
  TRACK 10 AUDIO
    TITLE "People Have The Power"
    PERFORMER "Patti Smith"
    INDEX 01 00:00:00
FILE "11 - Up There Down There.wav" WAVE
  TRACK 11 AUDIO
    TITLE "Up There Down There"
    PERFORMER "Patti Smith"
    INDEX 01 00:00:00
FILE "12 - Beneath The Southern Cross.wav" WAVE
  TRACK 12 AUDIO
    TITLE "Beneath The Southern Cross"
    PERFORMER "Patti Smith"
    INDEX 01 00:00:00
FILE "13 - Summer Cannibals.wav" WAVE
  TRACK 13 AUDIO
    TITLE "Summer Cannibals"
    PERFORMER "Patti Smith"
    INDEX 01 00:00:00
FILE "14 - 1959.wav" WAVE
  TRACK 14 AUDIO
    TITLE "1959"
    PERFORMER "Patti Smith"
    INDEX 01 00:00:00
FILE "15 - Glitter In Their Eyes.wav" WAVE
  TRACK 15 AUDIO
    TITLE "Glitter In Their Eyes"
    PERFORMER "Patti Smith"
    INDEX 01 00:00:00
FILE "16 - Lo And Beholden.wav" WAVE
  TRACK 16 AUDIO
    TITLE "Lo And Beholden"
    PERFORMER "Patti Smith"
    INDEX 01 00:00:00
FILE "17 - Smells Like Teen Spirit.wav" WAVE
  TRACK 17 AUDIO
    TITLE "Smells Like Teen Spirit"
    PERFORMER "Patti Smith"
    INDEX 01 00:00:00
  TRACK 18 AUDIO
    TITLE "Trampin'"
    PERFORMER "Patti Smith"
    INDEX 00 05:47:28
FILE "18 - Trampin'.wav" WAVE
    INDEX 01 00:00:00
Код:
Код: Выделить всё
-----------------------

DON'T MODIFY THIS FILE

-----------------------

PERFORMER: auCDtect Task Manager, ver. 1.5.1RC6 build 1.5.1.7
Copyright (c) 2008-2010 y-soft. All rights reserved
http:/y-soft.org

ANALYZER: auCDtect: CD records authenticity detector, version 0.8.2
Copyright (c) 2004 Oleg Berngardt. All rights reserved.
Copyright (c) 2004 Alexander Djourik. All rights reserved.

FILE: 18 - Trampin'.flac
  Size: 12498633 Hash: 71E6FF4C894CFA07D078C17CCBEF2C6B Accuracy: -m0
  Conclusion: CDDA 100%
  Signature: BD5C97367946036BEBF4B5F451B9525920E447A7
FILE: 17 - Smells Like Teen Spirit.flac
  Size: 39379753 Hash: 9AA960602243EEC58C3A7C0C15997975 Accuracy: -m0
  Conclusion: CDDA 100%
  Signature: 2F72B47A6ADFED671BED34F8CDD9F325E15C835D
FILE: 16 - Lo And Beholden.flac
  Size: 30868271 Hash: C461A0AC2B1BFFF385B0B5C5114EDC68 Accuracy: -m0
  Conclusion: CDDA 100%
  Signature: 44FFD1DD46410154F86B80FFDB1BBB021EA60EB7
FILE: 15 - Glitter In Their Eyes.flac
  Size: 24968685 Hash: 4BD7E1BBA9100EFA99F2902ED79D8809 Accuracy: -m0
  Conclusion: CDDA 99%
  Signature: 9B1A4350D27197471D0A705354FDCD456E061059
FILE: 14 - 1959.flac
  Size: 28683867 Hash: 28F78592AE0F41CA3D36A4FA63935BAC Accuracy: -m0
  Conclusion: CDDA 100%
  Signature: D5FFD7520573AC4AE2C56969D672FA208B2398E8
FILE: 13 - Summer Cannibals.flac
  Size: 31403305 Hash: D2677B6336C7C5CB8EC1F3674713111E Accuracy: -m0
  Conclusion: CDDA 100%
  Signature: D4A6BF6CE949D9ABCD569CCB1E43CB2117F55A55
FILE: 12 - Beneath The Southern Cross.flac
  Size: 30522102 Hash: D7CA4307B1860C7815DF19D24FD26547 Accuracy: -m0
  Conclusion: CDDA 100%
  Signature: 694D4594DF0587F362B24B39D125AD581311A6E5
FILE: 11 - Up There Down There.flac
  Size: 36947833 Hash: 39E3E010D3A437F16ABF3223C7E4E508 Accuracy: -m0
  Conclusion: CDDA 100%
  Signature: EDBA3E1527783338429DADDAF338CA959C9D1900
FILE: 10 - People Have The Power.flac
  Size: 39099524 Hash: 6583CA457000B2F1D5103778D9D0308C Accuracy: -m0
  Conclusion: CDDA 100%
  Signature: 7E56B89600FAFD8545B4284F8ECE0ED21B0637EE
FILE: 09 - So You Want To Be A Rock And Roll Star.flac
  Size: 32318768 Hash: F2BBAA510EC6651D70BBEC10B1F4017A Accuracy: -m0
  Conclusion: CDDA 100%
  Signature: 7E38DEAF90416A75519B578329CC4474BD52956E
FILE: 08 - Frederick.flac
  Size: 21956336 Hash: 5618C2735DCC3770DB93E77DA136ADBA Accuracy: -m0
  Conclusion: CDDA 100%
  Signature: 3269605EDB4FA317EBE315FCC617744ED041A186
FILE: 07 - Dancing Barefoot.flac
  Size: 31424396 Hash: 465D48029468B8C433CC97065FB9AD24 Accuracy: -m0
  Conclusion: CDDA 100%
  Signature: 040169C02974834AD3641B7BFE0EA124A229C382
FILE: 06 - Rock'n'Roll Nigger.flac
  Size: 34124677 Hash: 9B4F621431E01C05484318E1460FC8D9 Accuracy: -m0
  Conclusion: CDDA 100%
  Signature: BBB396E05E44B1464A8EC72BE5B8C65EB95B28C5
FILE: 05 - Because The Night.flac
  Size: 24104608 Hash: C4EDB112B5CE5EC94A6F90EA08AF9E3C Accuracy: -m0
  Conclusion: CDDA 100%
  Signature: 04449FBC480A820F0342E26916D8355553424F97
FILE: 04 - Pissing In A River.flac
  Size: 32212825 Hash: 461BD174751D2C8DCF1BF474F1215A30 Accuracy: -m0
  Conclusion: CDDA 100%
  Signature: 5E9552514AC94CA48B34D0A0F6DC138206B6E077
FILE: 03 - Ain't It Strange.flac
  Size: 45678451 Hash: 34C55EA34253BB3F374BF257790D9A5D Accuracy: -m0
  Conclusion: CDDA 100%
  Signature: 13C150F8002BE36440135DD8609884BA6177EED2
FILE: 02 - Free Money.flac
  Size: 26815509 Hash: 2B0AA347DDFDF0B35438E8C2E99E42CC Accuracy: -m0
  Conclusion: CDDA 100%
  Signature: BF5C6E4F686141953700F378BBC7BB3C1DA233C1
FILE: 01 - Gloria.flac
  Size: 40035070 Hash: EAE5C2CCB7772EA9912BEEDED450E910 Accuracy: -m0
  Conclusion: CDDA 100%
  Signature: 2FB2BCAF23732B923D4F9CD10A6B670465991838
Правила, инструкции, FAQ!!!
Торрент  Добавлен [16 мар 2014, 01:04] Скачать торрент Магнет ссылка
Скачать торрент
50.78 КБ

Статус
Проверен 
 
Размер  6.58 ГБ
Приватный: Нет (DHT включён)
.torrent скачан  0
Как залить торрент? | Как скачать Torrent? | Как смотреть и слушать онлайн?  
Гость
 



Вернуться в Дискографии (Зарубежные)

Кто сейчас на конференции

Сейчас этот форум просматривают: нет зарегистрированных пользователей и гости: 0