Параллельные миры 3D / Upside Down 3D (2012) BDRip 1080p | 3D-Video


Статистика раздачи
Размер: 9.29 ГБ | Добавлен: 29 июн 2013, 15:23 | Скачали: 78
Сидеров: 17  [0 байт/сек]    Личеров: 5  [0 байт/сек]

Сообщение Гость » 29 июн 2013, 15:23

Название: Параллельные миры
Оригинальное название: Upside Down
Год выпуска: 2012
Жанр: Фэнтези, мелодрама
Выпущено: Канада, Франция, Jouror Productions, Onyx Films, Studio 37, Transfilm
Режиссер: Хуан Диего Соланас

В ролях: Кирстен Данст, Джим Стёрджесс, Стелла Маив, Нил Напье, Джэйн Хейтмейер, Холли О’Брайэн, Ларри Дэй, Агнешка Вроновска, Джон МакЛарен, Дон Джордан, Джеймс Кидни, Фрэнк М. Эхерн, Хайди Хоукинс, Винсент Мессина, Николас Роуз, Эллиотт Ларсон-Гилмор, Холден Вонг, Джесси Шерман, Пол Бурк, Пол Дон, Тимоти Сполл

О фильме: Две планеты, приблизившись, вглядываются друг в друга и замирают... Проходят тысячелетия, люди на планетах уже забыли и период дружбы, и время войн и начали пожинать плоды окончившейся распри - победители притесняют и грабят побеждённых, а те, в свою очередь, просто пытаются выжить. И, занятые этой всепоглощающей вознёй, враждующие общества пропускают зародившуюся любовь девочки и мальчика из противоборствующих миров. Но когда их любовь окрепнет, произойдет чудо, от которого планеты словно очнутся, решив заключить союз...

Формат 3D: Half SideBySide / Горизонтальная анаморфная стереопара


Качество: BDRip 1080p
Видео: MPEG-4 AVC, 11 Мбит/с, 1920x1080, 23.976 кадр/с
Аудио: Русский, английский (AC3, 6 ch, 640 Кбит/с)

Продолжительность: 01:47:50
Перевод: Дублированный



Format : Matroska
File size : 9.29 GiB
Duration : 1h 48mn
Overall bit rate : 12.3 Mbps
Encoded date : UTC 2013-06-20 03:35:32
Writing application : mkvmerge v4.0.0
сборка от Jun 6 2010 16:18:42
Writing library : libebml v1.0.0 + libmatroska v1.0.0

Video
ID : 1
Format : AVC
Format/Info : Advanced Video Codec
Format profile : High@L4.1
Format settings, CABAC : Yes
Format settings, ReFrames : 4 frames
Muxing mode : Container profile=Unknown@4.1
Codec ID : V_MPEG4/ISO/AVC
Duration : 1h 48mn
Bit rate : 11.0 Mbps
Width : 1 920 pixels
Height : 1 080 pixels
Display aspect ratio : 16:9
Frame rate : 23.976 fps
Color space : YUV
Chroma subsampling : 4:2:0
Bit depth : 8 bits
Scan type : Progressive
Bits/(Pixel*Frame) : 0.222
Stream size : 8.33 GiB (90%)
Title : Upside.Down.2012.3D.1080p.Bluray.HSBS.X264.ENG.AC3-HDWinG
Writing library : x264 core 133 r2334 a3ac64b
Encoding settings : cabac=1 / ref=4 / deblock=1:-3:-3 / analyse=0x3:0x113 / me=umh / subme=10 / psy=1 / psy_rd=1.00:0.15 / mixed_ref=1 / me_range=32 / chroma_me=1 / trellis=2 / 8x8dct=1 / cqm=0 / deadzone=21,11 / fast_pskip=1 / chroma_qp_offset=-3 / threads=36 / lookahead_threads=3 / sliced_threads=0 / nr=0 / decimate=1 / interlaced=0 / bluray_compat=0 / constrained_intra=0 / bframes=6 / b_pyramid=2 / b_adapt=1 / b_bias=0 / direct=3 / weightb=1 / open_gop=0 / weightp=2 / keyint=250 / keyint_min=23 / scenecut=40 / intra_refresh=0 / rc_lookahead=40 / rc=crf / mbtree=1 / crf=18.0 / qcomp=0.60 / qpmin=10 / qpmax=69 / qpstep=4 / vbv_maxrate=40000 / vbv_bufsize=30000 / crf_max=0.0 / nal_hrd=none / ip_ratio=1.40 / aq=1:1.00

Audio #1
ID : 2
Format : AC-3
Format/Info : Audio Coding 3
Mode extension : CM (complete main)
Codec ID : A_AC3
Duration : 1h 48mn
Bit rate mode : Constant
Bit rate : 384 Kbps
Channel(s) : 6 channels
Channel positions : Front: L C R, Side: L R, LFE
Sampling rate : 48.0 KHz
Video delay : 15s 0ms
Stream size : 297 MiB (3%)

Audio #2
ID : 3
Format : AC-3
Format/Info : Audio Coding 3
Mode extension : CM (complete main)
Codec ID : A_AC3
Duration : 1h 48mn
Bit rate mode : Constant
Bit rate : 640 Kbps
Channel(s) : 6 channels
Channel positions : Front: L C R, Side: L R, LFE
Sampling rate : 48.0 KHz
Stream size : 495 MiB (5%)

Menu
00:00:00.000 : en:00:00:00.000
00:08:00.438 : en:00:08:00.438
00:14:32.246 : en:00:14:32.246
00:22:38.357 : en:00:22:38.357
00:35:24.122 : en:00:35:24.122
00:42:27.086 : en:00:42:27.086
00:50:48.295 : en:00:50:48.295
01:05:32.262 : en:01:05:32.262
01:14:12.657 : en:01:14:12.657
01:23:08.859 : en:01:23:08.859
01:31:19.808 : en:01:31:19.808
01:38:59.600 : en:01:38:59.600
Правила, инструкции, FAQ!!!
Торрент  Добавлен [29 июн 2013, 15:23] Скачать торрент Магнет ссылка
Скачать торрент
23.82 КБ

Статус
Проверен 
 
Размер  9.29 ГБ
Приватный: Нет (DHT включён)
.torrent скачан  78
Как залить торрент? | Как скачать Torrent? | Как смотреть и слушать онлайн?  
Гость
 



Вернуться в HD-Video в 3D

Кто сейчас на конференции

Сейчас этот форум просматривают: нет зарегистрированных пользователей и гости: 0