Пакт 2 / The Pact II (2014) WEB-DL 720p | L1

Статистика раздачи
Размер: 3 ГБ | Добавлен: 10 сен 2014, 08:35 | Скачали: 11
Сидеров: 45  [0 байт/сек]    Личеров: 2  [0 байт/сек]

Сообщение Гость » 10 сен 2014, 08:35

Название: Пакт 2
Оригинальное название: The Pact II
Год выхода: 2014
Жанр: ужасы, триллер, детектив
Режиссер: Даллас Ричард Халлам, Патрик Хорват

В ролях: Кейти Лотц, Камилла Ладдингтон, Скотт Майкл Фостер, Патрик Фишлер, Эми Пьетц, Хейли Хадсон, Ники Мишо, Марк Стегер, Брэд Грюнберг, Алекс Райан

О фильме: Спустя всего лишь пару недель после того, как Энни Барлоу уничтожила заразу по имени Убийца Иуда, мы знакомимся с Джун, женщиной из Лос-Анджелеса, чья спокойная жизнь превращается в настоящий кошмар. Агент ФБР Кевин Дики, расследующий дело, связанное с историей Убийцы Иуды, появляется на пороге жилища Джун, чтобы принести с собой ужасные новости — по-соседству появился маньяк-имитатор, последователь Иуды! А когда Дики показывает Джун фотографию одной из жертвы имитатора, та узнает в ней женщину, чье жестокое убийство видела в своих ночных видениях. Призраки мучат Джун, проявления потустороннего с каждым разом становятся все более ужасными, как и комшары девушки — в них она уже не просто видит убийства, но сама становится убийцей.



Выпущено: США
Продолжительность: 01:35:57
Озвучивание: Любительское (одноголосое) [RAIM], перевод [Janetta]


Формат: MKV
Качество: WEB-DL 720p
Видео: 3874 kb/s, 1280х720
Аудио: Russian: AC3, 128 kb/s (2 ch) / English: AC3, 384 kb/s (6 ch)
Субтитры: English





Format : Matroska
Format version : Version 4 / Version 2
File size : 3.00 GiB
Duration : 1h 35mn
Overall bit rate : 4 475 Kbps
Encoded date : UTC 2014-09-09 17:15:38
Writing application : mkvmerge v6.1.0 ('Old Devil') built on Mar 4 2013 09:10:42
Writing library : libebml v1.3.0 + libmatroska v1.4.0
DURATION : 01:35:50.443000000
NUMBER_OF_FRAMES : 1241
NUMBER_OF_BYTES : 41291
_STATISTICS_WRITING_APP : mkvmerge v7.0.0 ('Where We Going') 64bit built on Jun 9 2014 15:16:27
_STATISTICS_WRITING_DATE_UTC : 2014-09-05 14:38:44
_STATISTICS_TAGS : BPS DURATION NUMBER_OF_FRAMES NUMBER_OF_BYTES

Video
ID : 1
Format : AVC
Format/Info : Advanced Video Codec
Format profile : High@L3.1
Format settings, CABAC : No
Format settings, ReFrames : 2 frames
Codec ID : V_MPEG4/ISO/AVC
Duration : 1h 35mn
Bit rate : 3 874 Kbps
Width : 1 280 pixels
Height : 720 pixels
Display aspect ratio : 16:9
Frame rate : 23.976 fps
Color space : YUV
Chroma subsampling : 4:2:0
Bit depth : 8 bits
Scan type : Progressive
Bits/(Pixel*Frame) : 0.175
Stream size : 2.60 GiB (87%)
Language : English
Default : Yes
Forced : No
Color primaries : BT.709-5, BT.1361, IEC 61966-2-4, SMPTE RP177
Transfer characteristics : BT.709-5, BT.1361
Matrix coefficients : BT.709-5, BT.1361, IEC 61966-2-4 709, SMPTE RP177

Audio #1
ID : 2
Format : AC-3
Format/Info : Audio Coding 3
Mode extension : CM (complete main)
Format settings, Endianness : Big
Codec ID : A_AC3
Duration : 1h 35mn
Bit rate mode : Constant
Bit rate : 128 Kbps
Channel(s) : 2 channels
Channel positions : Front: L R
Sampling rate : 48.0 KHz
Bit depth : 16 bits
Compression mode : Lossy
Stream size : 87.8 MiB (3%)
Language : Russian
Default : Yes
Forced : No

Audio #2
ID : 3
Format : AC-3
Format/Info : Audio Coding 3
Mode extension : CM (complete main)
Format settings, Endianness : Big
Codec ID : A_AC3
Duration : 1h 35mn
Bit rate mode : Constant
Bit rate : 384 Kbps
Channel(s) : 6 channels
Channel positions : Front: L C R, Side: L R, LFE
Sampling rate : 48.0 KHz
Bit depth : 16 bits
Compression mode : Lossy
Stream size : 264 MiB (9%)
Language : English
Default : No
Forced : No

Text
ID : 4
Format : UTF-8
Codec ID : S_TEXT/UTF8
Codec ID/Info : UTF-8 Plain Text
Language : English
Default : No
Forced : No

Menu
00:00:00.000 : en:1
00:10:00.000 : en:2
00:20:14.000 : en:3
00:30:10.000 : en:4
00:42:24.000 : en:5
00:53:05.000 : en:6
01:02:06.000 : en:7
01:12:48.000 : en:8
01:25:13.000 : en:9
01:31:10.000 : en:10
Правила, инструкции, FAQ!!!
Торрент  Добавлен [10 сен 2014, 08:35]

Статус
Проверен 
 
Размер  3 ГБ
Приватный: Нет (DHT включён)
.torrent скачан  11
Как залить торрент? | Как скачать Torrent? | Как смотреть и слушать онлайн?  
Гость
 


  • Похожие торренты
    Ответы
    Просмотры
    Последнее сообщение

Вернуться в Новинки кино

Кто сейчас на конференции

Сейчас этот форум просматривают: нет зарегистрированных пользователей и гости: 0