Омен: Трилогия / The Omen: Trilogy (1976-1981) BDRip 720p


Статистика раздачи
Размер: 21.12 ГБ | Добавлен: 26 окт 2014, 08:34 | Скачали: 48
Сидеров: 172  [0 байт/сек]    Личеров: 123  [0 байт/сек]

Сообщение Гость » 26 окт 2014, 08:34

Омен / The Omen (1976)


Информация о фильме
Название: Омен
Оригинальное название: The Omen
Год выхода: 1976
Жанр: ужасы, детектив
Режиссер: Ричард Доннер
В ролях: Грегори Пек, Ли Ремик, Дэвид Уорнер, Билли Уайтлоу, Харви Стивенс, Патрик Тротон, Мартин Бенсон, Роберт Ритти, Томми Дагган, Джон Страйд

О фильме: Он был рожден в 6 часов 6-го дня 6-го месяца. Как предсказано в Книге Откровений, настанет Конец света, последнее противостояние сил добра и зла, и началом его будет рождение сына Сатаны в облике человеческом..

У жены американского дипломата Роберта Торна рождается мертвый ребенок, и ее муж неспособный сообщить ей эту трагическую новость, усыновляет младенца с непонятным родимым пятном в виде трех шестерок — числа зверя. Подробности рождения ребенка остаются в секрете, но со временем становится ясно, что это необычный ребенок.

Вокруг постоянно, при загадочных обстоятельствах, умирают люди и происходят таинственные события, после которых Роберт Торн начинает панически бояться усыновленного мальчика, за невинным ангельским лицом которого прячется безжалостная дьявольская сущность...



Страна: USA, U.K.
Студия: Twentieth Century Fox Film Corporation, Twentieth Century-Fox
Продолжительность: 01:51:02
Перевод: профессиональный (многоголосый закадровый), авторский (одноголосый закадровый)
Субтитры: русские, английские

Файл
Кодек: MPEG-4 AVC/H.264
Качество: BDRip [720p]
Видео: 1280 x 544, (2,35:1), 5 440 kbps, 23.976 fps, 0.326 b/px
Звук:
Аудио # 1: AC3, 6 ch, 384 kbps, 48 000 Hz [Многоголосый закадровый (R5)]
Аудио # 2: АС3, 6 ch, 640 kbps, 48 000 Hz [Одноголосый закадровый (А.Михалёв)]
Аудио # 3: AC3, 6 ch, 640 kbps, 48 000 Hz [Одноголосый закадровый (В.Горчаков)]
Аудио # 4: АС3, 6 ch, 640 kbps, 48 000 Hz [Одноголосый закадровый (Л.Володарский)]
Аудио # 5: АС3, 6 ch, 640 kbps, 48 000 Hz [Одноголосый закадровый (Б.Федоров)]
Аудио # 6: АС3, 6 ch, 192 kbps, 48 000 Hz [Одноголосый закадровый (М.Иванов)]
Аудио # 7: АС3, 6 ch, 192 kbps, 48 000 Hz [Многоголосый закадровый (1+1) (Украинский)]
Аудио # 8: AC3, 6 ch, 640 kbps, 48 000 Hz [Оригинальный]

Общее
Уникальный идентификатор : 230260731582507934073299101871113520489 (0xAD3A9A9272CF32CA87D2D8382DA44569)
Полное имя : D:TorrentОмен. Трилогия [BDRip] [720p][1976] Омен [BDRip] [720p].mkv
Формат : Matroska
Версия формата : Version 4 / Version 2
Размер файла : 7,30 Гбайт
Продолжительность : 1 ч. 51 м.
Общий поток : 9412 Кбит/сек
Название фильма : Омен / The Omen (1976) BDRip [720p]
Дата кодирования : UTC 2014-10-22 18:22:04
Программа кодирования : mkvmerge v7.2.0 ('On Every Street') 32bit built on Sep 13 2014 15:42:11
Библиотека кодирования : libebml v1.3.0 + libmatroska v1.4.1
DURATION : 01:46:36.097000000
NUMBER_OF_FRAMES : 666
NUMBER_OF_BYTES : 25874
_STATISTICS_WRITING_APP : mkvmerge v7.2.0 ('On Every Street') 32bit built on Sep 13 2014 15:42:11
_STATISTICS_WRITING_DATE_UTC : 2014-10-22 18:22:04
_STATISTICS_TAGS : BPS DURATION NUMBER_OF_FRAMES NUMBER_OF_BYTES

Видео
Идентификатор : 1
Формат : AVC
Формат/Информация : Advanced Video Codec
Профиль формата : High@L4.1
Параметр CABAC формата : Да
Параметр ReFrames формата : 8 кадров
Идентификатор кодека : V_MPEG4/ISO/AVC
Продолжительность : 1 ч. 51 м.
Битрейт : 5440 Кбит/сек
Ширина : 1280 пикселей
Высота : 544 пикселя
Соотношение сторон : 2,35:1
Режим частоты кадров : Постоянный
Частота кадров : 23,976 кадра/сек
Цветовое пространство : YUV
Субдискретизация насыщенности : 4:2:0
Битовая глубина : 8 бит
Тип развёртки : Прогрессивная
Бит/(Пиксели*Кадры) : 0.326
Размер потока : 4,08 Гбайт (56%)
Заголовок : [1976] Омен [BDRip] [720p]
Библиотека кодирования : x264 core 129 r2245 bc13772
Настройки программы : cabac=1 / ref=8 / deblock=1:-1:-1 / analyse=0x3:0x113 / me=umh / subme=10 / psy=1 / psy_rd=1.00:0.20 / mixed_ref=1 / me_range=32 / chroma_me=1 / trellis=2 / 8x8dct=1 / cqm=0 / deadzone=21,11 / fast_pskip=0 / chroma_qp_offset=-3 / threads=12 / lookahead_threads=2 / sliced_threads=0 / nr=0 / decimate=0 / interlaced=0 / bluray_compat=0 / constrained_intra=0 / bframes=6 / b_pyramid=2 / b_adapt=2 / b_bias=0 / direct=3 / weightb=1 / open_gop=0 / weightp=2 / keyint=240 / keyint_min=23 / scenecut=40 / intra_refresh=0 / rc_lookahead=40 / rc=2pass / mbtree=0 / bitrate=5440 / ratetol=1.0 / qcomp=0.60 / qpmin=0 / qpmax=69 / qpstep=4 / cplxblur=20.0 / qblur=0.5 / vbv_maxrate=50000 / vbv_bufsize=62500 / nal_hrd=none / ip_ratio=1.40 / pb_ratio=1.30 / aq=1:1.00
Язык : English
Default : Да
Forced : Нет
DURATION : 01:51:02.573000000
NUMBER_OF_FRAMES : 159742
NUMBER_OF_BYTES : 4530557053
_STATISTICS_WRITING_APP : mkvmerge v7.2.0 ('On Every Street') 32bit built on Sep 13 2014 15:42:11
_STATISTICS_WRITING_DATE_UTC : 2014-10-22 18:22:04
_STATISTICS_TAGS : BPS DURATION NUMBER_OF_FRAMES NUMBER_OF_BYTES

Аудио #1
Идентификатор : 2
Формат : AC-3
Формат/Информация : Audio Coding 3
Расширение режима : CM (complete main)
Параметр Endianness формата : Big
Идентификатор кодека : A_AC3
Продолжительность : 1 ч. 51 м.
Вид битрейта : Постоянный
Битрейт : 384 Кбит/сек
Каналы : 6 каналов
Расположение каналов : Front: L C R, Side: L R, LFE
Частота : 48,0 КГц
Битовая глубина : 16 бит
Метод сжатия : С потерями
Размер потока : 305 Мбайт (4%)
Заголовок : Многоголосый закадровый R5
Язык : Russian
Default : Да
Forced : Нет

Аудио #2
Идентификатор : 3
Формат : AC-3
Формат/Информация : Audio Coding 3
Расширение режима : CM (complete main)
Параметр Endianness формата : Big
Идентификатор кодека : A_AC3
Продолжительность : 1 ч. 51 м.
Вид битрейта : Постоянный
Битрейт : 640 Кбит/сек
Каналы : 6 каналов
Расположение каналов : Front: L C R, Side: L R, LFE
Частота : 48,0 КГц
Битовая глубина : 16 бит
Метод сжатия : С потерями
Размер потока : 508 Мбайт (7%)
Заголовок : Одноголосый закадровый А.Михалёв
Язык : Russian
Default : Нет
Forced : Нет

Аудио #3
Идентификатор : 4
Формат : AC-3
Формат/Информация : Audio Coding 3
Расширение режима : CM (complete main)
Параметр Endianness формата : Big
Идентификатор кодека : A_AC3
Продолжительность : 1 ч. 51 м.
Вид битрейта : Постоянный
Битрейт : 640 Кбит/сек
Каналы : 6 каналов
Расположение каналов : Front: L C R, Side: L R, LFE
Частота : 48,0 КГц
Битовая глубина : 16 бит
Метод сжатия : С потерями
Размер потока : 508 Мбайт (7%)
Заголовок : Одноголосый закадровый В.Горчаков
Язык : Russian
Default : Нет
Forced : Нет

Аудио #4
Идентификатор : 5
Формат : AC-3
Формат/Информация : Audio Coding 3
Расширение режима : CM (complete main)
Параметр Endianness формата : Big
Идентификатор кодека : A_AC3
Продолжительность : 1 ч. 51 м.
Вид битрейта : Постоянный
Битрейт : 640 Кбит/сек
Каналы : 6 каналов
Расположение каналов : Front: L C R, Side: L R, LFE
Частота : 48,0 КГц
Битовая глубина : 16 бит
Метод сжатия : С потерями
Размер потока : 508 Мбайт (7%)
Заголовок : Одноголосый закадровый Л.Володарский
Язык : Russian
Default : Нет
Forced : Нет

Аудио #5
Идентификатор : 6
Формат : AC-3
Формат/Информация : Audio Coding 3
Расширение режима : CM (complete main)
Параметр Endianness формата : Big
Идентификатор кодека : A_AC3
Продолжительность : 1 ч. 51 м.
Вид битрейта : Постоянный
Битрейт : 640 Кбит/сек
Каналы : 6 каналов
Расположение каналов : Front: L C R, Side: L R, LFE
Частота : 48,0 КГц
Битовая глубина : 16 бит
Метод сжатия : С потерями
Размер потока : 508 Мбайт (7%)
Заголовок : Одноголосый закадровый Б.Федоров
Язык : Russian
Default : Нет
Forced : Нет

Аудио #6
Идентификатор : 7
Формат : AC-3
Формат/Информация : Audio Coding 3
Расширение режима : CM (complete main)
Параметр Endianness формата : Big
Идентификатор кодека : A_AC3
Продолжительность : 1 ч. 51 м.
Вид битрейта : Постоянный
Битрейт : 192 Кбит/сек
Каналы : 2 канала
Расположение каналов : Front: L R
Частота : 48,0 КГц
Битовая глубина : 16 бит
Метод сжатия : С потерями
Размер потока : 152 Мбайт (2%)
Заголовок : Одноголосый закадровый М.Иванов
Язык : Russian
Default : Нет
Forced : Нет

Аудио #7
Идентификатор : 8
Формат : AC-3
Формат/Информация : Audio Coding 3
Расширение режима : CM (complete main)
Параметр Endianness формата : Big
Идентификатор кодека : A_AC3
Продолжительность : 1 ч. 51 м.
Вид битрейта : Постоянный
Битрейт : 192 Кбит/сек
Каналы : 2 канала
Расположение каналов : Front: L R
Частота : 48,0 КГц
Битовая глубина : 16 бит
Метод сжатия : С потерями
Размер потока : 152 Мбайт (2%)
Заголовок : Многоголосый закадровый 1+1
Язык : Ukrainian
Default : Нет
Forced : Нет

Аудио #8
Идентификатор : 9
Формат : AC-3
Формат/Информация : Audio Coding 3
Расширение режима : CM (complete main)
Параметр Endianness формата : Big
Идентификатор кодека : A_AC3
Продолжительность : 1 ч. 51 м.
Вид битрейта : Постоянный
Битрейт : 640 Кбит/сек
Каналы : 6 каналов
Расположение каналов : Front: L C R, Side: L R, LFE
Частота : 48,0 КГц
Битовая глубина : 16 бит
Метод сжатия : С потерями
Размер потока : 508 Мбайт (7%)
Заголовок : Оригинальный
Язык : English
Default : Нет
Forced : Нет

Текст #1
Идентификатор : 10
Формат : UTF-8
Идентификатор кодека : S_TEXT/UTF8
Идентификатор кодека/Информация : UTF-8 Plain Text
Заголовок : Русские
Язык : Russian
Default : Нет
Forced : Нет

Текст #2
Идентификатор : 11
Формат : UTF-8
Идентификатор кодека : S_TEXT/UTF8
Идентификатор кодека/Информация : UTF-8 Plain Text
Заголовок : Русские (форсированные)
Язык : Russian
Default : Нет
Forced : Нет

Текст #3
Идентификатор : 12
Формат : UTF-8
Идентификатор кодека : S_TEXT/UTF8
Идентификатор кодека/Информация : UTF-8 Plain Text
Заголовок : English
Язык : English
Default : Нет
Forced : Нет




Омен 2: Дэмиен / Damien: Omen II (1978)

#777
Информация о фильме
Название: Омен 2: Дэмиен
Оригинальное название: Damien: Omen II
Год выхода: 1978
Жанр: ужасы, детектив
Режиссер: Дон Тейлор, Майк Ходжис
В ролях: Уильям Холден, Ли Грант, Джонатан Скотт-Тейлор, Роберт Фоксуорт, Николас Прайор, Лью Эйрз, Сильвия Сидни, Лэнс Хенриксен, Элизабет Шепард, Лукас Донат

О фильме: Семь лет прошло с того дня, как Дэмиен чудом избежал смерти от руки своего отца. Теперь ему 13, и он живет вместе со своим дядей Ричардом Торном, тетей и двоюродным братом Марком. Пока юный Антихрист познает свою чудовищную силу и как ею пользоваться, за его безопасностью следят множество служителей Дьявола, жестоко уничтожая всех неугодных.

Его дядя постепенно понимает, что мальчик не так невинен как может показаться, и ему открывается чудовищная правда. Вооружившись семью древними кинжалами, Торн собирается очистить мир от самой страшной нечисти на земле, но многие пытались убить сына Сатаны, и теперь все они в могиле. Сможет ли это сделать Ричард Торн или присоединится к своим предшественникам в качестве трупа?...



Страна: USA
Студия: Twentieth Century Fox Film Corporation, Mace Neufeld Productions
Продолжительность: 01:46:51
Перевод: профессиональный (многоголосый закадровый), авторский (одноголосый закадровый)
Субтитры: русские, английские

Файл
Кодек: MPEG-4 AVC/H.264
Качество: BDRip [720p]
Видео: 1280 x 544, (2,35:1), 4 791 kbps, 23.976 fps, 0.287 b/px
Звук:
Аудио # 1: AC3, 6 ch, 384 kbps, 48 000 Hz [Многоголосый закадровый (R2)]
Аудио # 2: АС3, 6 ch, 640 kbps, 48 000 Hz [Одноголосый закадровый (А.Михалёв)]
Аудио # 3: AC3, 6 ch, 640 kbps, 48 000 Hz [Одноголосый закадровый (В.Горчаков)]
Аудио # 4: АС3, 6 ch, 640 kbps, 48 000 Hz [Одноголосый закадровый (Л.Володарский)]
Аудио # 5: АС3, 6 ch, 640 kbps, 48 000 Hz [Одноголосый закадровый (Б.Федоров)]
Аудио # 6: АС3, 6 ch, 192 kbps, 48 000 Hz [Одноголосый закадровый (М.Иванов)]
Аудио # 7: АС3, 6 ch, 192 kbps, 48 000 Hz [Оногоголосый закадровый (1+1) (Украинский)]
Аудио # 8: AC3, 6 ch, 640 kbps, 48 000 Hz [Оригинальный]

Общее
Уникальный идентификатор : 227302065664276883309251847505851277742 (0xAB00C91474D9125D9DF70DF2656961AE)
Полное имя : D:Омен. Трилогия [BDRip] [720p][1978] Омен 2. Дэмиен [BDRip] [720p].mkv
Формат : Matroska
Версия формата : Version 4 / Version 2
Размер файла : 6,64 Гбайт
Продолжительность : 1 ч. 46 м.
Общий поток : 8890 Кбит/сек
Название фильма : Омен 2: Дэмиен / Damien: Omen II (1978) BDRip [720p]
Дата кодирования : UTC 2014-10-25 18:56:25
Программа кодирования : mkvmerge v7.2.0 ('On Every Street') 32bit built on Sep 13 2014 15:42:11
Библиотека кодирования : libebml v1.3.0 + libmatroska v1.4.1
_STATISTICS_WRITING_APP : mkvmerge v7.2.0 ('On Every Street') 32bit built on Sep 13 2014 15:42:11
_STATISTICS_WRITING_DATE_UTC : 2014-10-25 18:56:25
_STATISTICS_TAGS : BPS DURATION NUMBER_OF_FRAMES NUMBER_OF_BYTES
DURATION : 01:46:16.744000000
NUMBER_OF_FRAMES : 1032
NUMBER_OF_BYTES : 42728

Видео
Идентификатор : 1
Формат : AVC
Формат/Информация : Advanced Video Codec
Профиль формата : High@L4.1
Параметр CABAC формата : Да
Параметр ReFrames формата : 8 кадров
Идентификатор кодека : V_MPEG4/ISO/AVC
Продолжительность : 1 ч. 46 м.
Битрейт : 4791 Кбит/сек
Ширина : 1280 пикселей
Высота : 544 пикселя
Соотношение сторон : 2,35:1
Режим частоты кадров : Постоянный
Частота кадров : 23,976 кадра/сек
Цветовое пространство : YUV
Субдискретизация насыщенности : 4:2:0
Битовая глубина : 8 бит
Тип развёртки : Прогрессивная
Бит/(Пиксели*Кадры) : 0.287
Размер потока : 3,45 Гбайт (52%)
Заголовок : [1978] Омен 2: Дэмиен [BDRip] [720p]
Библиотека кодирования : x264 core 129 r2245 bc13772
Настройки программы : cabac=1 / ref=8 / deblock=1:-1:-1 / analyse=0x3:0x113 / me=umh / subme=10 / psy=1 / psy_rd=1.00:0.20 / mixed_ref=1 / me_range=32 / chroma_me=1 / trellis=2 / 8x8dct=1 / cqm=0 / deadzone=21,11 / fast_pskip=0 / chroma_qp_offset=-3 / threads=12 / lookahead_threads=2 / sliced_threads=0 / nr=0 / decimate=0 / interlaced=0 / bluray_compat=0 / constrained_intra=0 / bframes=6 / b_pyramid=2 / b_adapt=2 / b_bias=0 / direct=3 / weightb=1 / open_gop=0 / weightp=2 / keyint=240 / keyint_min=23 / scenecut=40 / intra_refresh=0 / rc_lookahead=40 / rc=2pass / mbtree=0 / bitrate=4791 / ratetol=1.0 / qcomp=0.60 / qpmin=0 / qpmax=69 / qpstep=4 / cplxblur=20.0 / qblur=0.5 / vbv_maxrate=50000 / vbv_bufsize=62500 / nal_hrd=none / ip_ratio=1.40 / pb_ratio=1.30 / aq=1:1.00
Язык : English
Default : Да
Forced : Нет
_STATISTICS_WRITING_APP : mkvmerge v7.2.0 ('On Every Street') 32bit built on Sep 13 2014 15:42:11
_STATISTICS_WRITING_DATE_UTC : 2014-10-25 18:56:25
_STATISTICS_TAGS : BPS DURATION NUMBER_OF_FRAMES NUMBER_OF_BYTES
DURATION : 01:46:51.739000000
NUMBER_OF_FRAMES : 153728
NUMBER_OF_BYTES : 3838961418

Аудио #1
Идентификатор : 2
Формат : AC-3
Формат/Информация : Audio Coding 3
Расширение режима : CM (complete main)
Параметр Endianness формата : Big
Идентификатор кодека : A_AC3
Продолжительность : 1 ч. 46 м.
Вид битрейта : Постоянный
Битрейт : 320 Кбит/сек
Каналы : 2 канала
Расположение каналов : Front: L R
Частота : 48,0 КГц
Битовая глубина : 16 бит
Метод сжатия : С потерями
Размер потока : 245 Мбайт (4%)
Заголовок : Многоголосый закадровый R2
Язык : Russian
Default : Да
Forced : Нет

Аудио #2
Идентификатор : 3
Формат : AC-3
Формат/Информация : Audio Coding 3
Расширение режима : CM (complete main)
Параметр Endianness формата : Big
Идентификатор кодека : A_AC3
Продолжительность : 1 ч. 46 м.
Вид битрейта : Постоянный
Битрейт : 640 Кбит/сек
Каналы : 6 каналов
Расположение каналов : Front: L C R, Side: L R, LFE
Частота : 48,0 КГц
Битовая глубина : 16 бит
Метод сжатия : С потерями
Размер потока : 489 Мбайт (7%)
Заголовок : Одноголосый закадровый А.Михалёв
Язык : Russian
Default : Нет
Forced : Нет

Аудио #3
Идентификатор : 4
Формат : AC-3
Формат/Информация : Audio Coding 3
Расширение режима : CM (complete main)
Параметр Endianness формата : Big
Идентификатор кодека : A_AC3
Продолжительность : 1 ч. 46 м.
Вид битрейта : Постоянный
Битрейт : 640 Кбит/сек
Каналы : 6 каналов
Расположение каналов : Front: L C R, Side: L R, LFE
Частота : 48,0 КГц
Битовая глубина : 16 бит
Метод сжатия : С потерями
Размер потока : 489 Мбайт (7%)
Заголовок : Одноголосый закадровый В.Горчаков
Язык : Russian
Default : Нет
Forced : Нет

Аудио #4
Идентификатор : 5
Формат : AC-3
Формат/Информация : Audio Coding 3
Расширение режима : CM (complete main)
Параметр Endianness формата : Big
Идентификатор кодека : A_AC3
Продолжительность : 1 ч. 46 м.
Вид битрейта : Постоянный
Битрейт : 640 Кбит/сек
Каналы : 6 каналов
Расположение каналов : Front: L C R, Side: L R, LFE
Частота : 48,0 КГц
Битовая глубина : 16 бит
Метод сжатия : С потерями
Размер потока : 489 Мбайт (7%)
Заголовок : Одноголосый закадровый Л.Володарский
Язык : Russian
Default : Нет
Forced : Нет

Аудио #5
Идентификатор : 6
Формат : AC-3
Формат/Информация : Audio Coding 3
Расширение режима : CM (complete main)
Параметр Endianness формата : Big
Идентификатор кодека : A_AC3
Продолжительность : 1 ч. 46 м.
Вид битрейта : Постоянный
Битрейт : 640 Кбит/сек
Каналы : 6 каналов
Расположение каналов : Front: L C R, Side: L R, LFE
Частота : 48,0 КГц
Битовая глубина : 16 бит
Метод сжатия : С потерями
Размер потока : 489 Мбайт (7%)
Заголовок : Одноголосый закадровый Б.Федоров
Язык : Russian
Default : Нет
Forced : Нет

Аудио #6
Идентификатор : 7
Формат : AC-3
Формат/Информация : Audio Coding 3
Расширение режима : CM (complete main)
Параметр Endianness формата : Big
Идентификатор кодека : A_AC3
Продолжительность : 1 ч. 46 м.
Вид битрейта : Постоянный
Битрейт : 384 Кбит/сек
Каналы : 6 каналов
Расположение каналов : Front: L C R, Side: L R, LFE
Частота : 48,0 КГц
Битовая глубина : 16 бит
Метод сжатия : С потерями
Размер потока : 294 Мбайт (4%)
Заголовок : Одноголосый закадровый М.Иванов
Язык : Russian
Default : Нет
Forced : Нет

Аудио #7
Идентификатор : 8
Формат : AC-3
Формат/Информация : Audio Coding 3
Расширение режима : CM (complete main)
Параметр Endianness формата : Big
Идентификатор кодека : A_AC3
Продолжительность : 1 ч. 46 м.
Вид битрейта : Постоянный
Битрейт : 192 Кбит/сек
Каналы : 2 канала
Расположение каналов : Front: L R
Частота : 48,0 КГц
Битовая глубина : 16 бит
Метод сжатия : С потерями
Размер потока : 147 Мбайт (2%)
Заголовок : Многоголосый закадровый 1+1
Язык : Ukrainian
Default : Нет
Forced : Нет

Аудио #8
Идентификатор : 9
Формат : AC-3
Формат/Информация : Audio Coding 3
Расширение режима : CM (complete main)
Параметр Endianness формата : Big
Идентификатор кодека : A_AC3
Продолжительность : 1 ч. 46 м.
Вид битрейта : Постоянный
Битрейт : 640 Кбит/сек
Каналы : 6 каналов
Расположение каналов : Front: L C R, Side: L R, LFE
Частота : 48,0 КГц
Битовая глубина : 16 бит
Метод сжатия : С потерями
Размер потока : 489 Мбайт (7%)
Заголовок : Оригинальный
Язык : English
Default : Нет
Forced : Нет

Текст #1
Идентификатор : 10
Формат : UTF-8
Идентификатор кодека : S_TEXT/UTF8
Идентификатор кодека/Информация : UTF-8 Plain Text
Заголовок : Русские
Язык : Russian
Default : Нет
Forced : Нет

Текст #2
Идентификатор : 11
Формат : UTF-8
Идентификатор кодека : S_TEXT/UTF8
Идентификатор кодека/Информация : UTF-8 Plain Text
Заголовок : Русские (форсированные)
Язык : Russian
Default : Нет
Forced : Нет

Текст #3
Идентификатор : 12
Формат : UTF-8
Идентификатор кодека : S_TEXT/UTF8
Идентификатор кодека/Информация : UTF-8 Plain Text
Заголовок : English
Язык : English
Default : Нет
Forced : Нет




Омен III: Последний конфликт / The Final Conflict (1981)

#777
Информация о фильме
Название: Омен III: Последний конфликт
Оригинальное название: The Final Conflict
Год выхода: 1981
Жанр: ужасы, детектив
Режиссер: Грэм Бейкер
В ролях: Сэм Нил, Россано Брацци, Дон Гордон, Лиза Хэрроу, Барнеби Холм, Мейсон Эдамс, Роберт Арден, Люин Уиллоби, Марк Бойл, Милош Кирек

О фильме: Дэмиену Торну теперь 32. Стремясь к власти над всем миром он предан только себе и своему родному отцу — Сатане. Чтобы достичь своей цели, он убивает всех на своем пути — будь то друг, враг, верный слуга или любовница.

Темным силам противостоит лишь поклявшийся уничтожить дьявольское отродье старый монах с семью святыми кинжалами, выкованными специально для этого дела. Но хватит ли у него сил для осуществления своего плана или умрет как все, и мир повергнется в пучину хаоса?...



Страна: UK, USA
Студия: Twentieth Century Fox Film Corporation
Продолжительность: 01:48:20
Перевод: профессиональный (многоголосый закадровый), авторский (одноголосый закадровый)
Субтитры: русские, английские

Файл
Кодек: MPEG-4 AVC/H.264
Качество: BDRip [720p]
Видео: 1280 x 540, (2,40:1), 5 392 kbps, 23.976 fps, 0.225 b/px
Звук:
Аудио # 1: AC3, 6 ch, 384 kbps, 48 000 Hz [Многоголосый закадровый (R2)]
Аудио # 2: АС3, 6 ch, 640 kbps, 48 000 Hz [Одноголосый закадровый (А.Михалёв)]
Аудио # 3: AC3, 6 ch, 640 kbps, 48 000 Hz [Одноголосый закадровый (В.Горчаков)]
Аудио # 4: АС3, 6 ch, 640 kbps, 48 000 Hz [Одноголосый закадровый (Л.Володарский)]
Аудио # 5: АС3, 6 ch, 640 kbps, 48 000 Hz [Одноголосый закадровый (Б.Федоров)]
Аудио # 6: АС3, 6 ch, 192 kbps, 48 000 Hz [Одноголосый закадровый (М.Иванов)]
Аудио # 7: АС3, 6 ch, 192 kbps, 48 000 Hz [Оногоголосый закадровый (1+1) (Украинский)]
Аудио # 8: AC3, 6 ch, 640 kbps, 48 000 Hz [Оригинальный]

Общее
Уникальный идентификатор : 231374650048772492790539075360018116292 (0xAE1122FE1F6A0B90A5DE99B4FB23AEC4)
Полное имя : D:TorrentОмен. Трилогия [BDRip] [720p][1981] Омен 3. Последняя битва [BDRip] [720p].mkv
Формат : Matroska
Версия формата : Version 4 / Version 2
Размер файла : 7,18 Гбайт
Продолжительность : 1 ч. 48 м.
Общий поток : 9492 Кбит/сек
Название фильма : Омен 3: Последняя битва / Omen III: The Final Conflict (1981) BDRip [720p]
Дата кодирования : UTC 2014-10-22 19:04:57
Программа кодирования : mkvmerge v7.2.0 ('On Every Street') 32bit built on Sep 13 2014 15:42:11
Библиотека кодирования : libebml v1.3.0 + libmatroska v1.4.1
DURATION : 01:43:15.146000000
NUMBER_OF_FRAMES : 1062
NUMBER_OF_BYTES : 40713
_STATISTICS_WRITING_APP : mkvmerge v7.2.0 ('On Every Street') 32bit built on Sep 13 2014 15:42:11
_STATISTICS_WRITING_DATE_UTC : 2014-10-22 19:04:57
_STATISTICS_TAGS : BPS DURATION NUMBER_OF_FRAMES NUMBER_OF_BYTES

Видео
Идентификатор : 1
Формат : AVC
Формат/Информация : Advanced Video Codec
Профиль формата : High@L4.1
Параметр CABAC формата : Да
Параметр ReFrames формата : 8 кадров
Идентификатор кодека : V_MPEG4/ISO/AVC
Продолжительность : 1 ч. 48 м.
Битрейт : 5392 Кбит/сек
Ширина : 1280 пикселей
Высота : 540 пикселей
Соотношение сторон : 2,40:1
Режим частоты кадров : Постоянный
Частота кадров : 23,976 кадра/сек
Цветовое пространство : YUV
Субдискретизация насыщенности : 4:2:0
Битовая глубина : 8 бит
Тип развёртки : Прогрессивная
Бит/(Пиксели*Кадры) : 0.325
Размер потока : 3,94 Гбайт (55%)
Заголовок : [1981] Омен 3: Последняя битва [BDRip] [720p]
Библиотека кодирования : x264 core 129 r2245 bc13772
Настройки программы : cabac=1 / ref=8 / deblock=1:-1:-1 / analyse=0x3:0x113 / me=umh / subme=10 / psy=1 / psy_rd=1.00:0.20 / mixed_ref=1 / me_range=32 / chroma_me=1 / trellis=2 / 8x8dct=1 / cqm=0 / deadzone=21,11 / fast_pskip=0 / chroma_qp_offset=-3 / threads=12 / lookahead_threads=2 / sliced_threads=0 / nr=0 / decimate=0 / interlaced=0 / bluray_compat=0 / constrained_intra=0 / bframes=6 / b_pyramid=2 / b_adapt=2 / b_bias=0 / direct=3 / weightb=1 / open_gop=0 / weightp=2 / keyint=240 / keyint_min=23 / scenecut=40 / intra_refresh=0 / rc_lookahead=40 / rc=2pass / mbtree=0 / bitrate=5392 / ratetol=1.0 / qcomp=0.60 / qpmin=0 / qpmax=69 / qpstep=4 / cplxblur=20.0 / qblur=0.5 / vbv_maxrate=50000 / vbv_bufsize=62500 / nal_hrd=none / ip_ratio=1.40 / pb_ratio=1.30 / aq=1:1.00
Язык : English
Default : Да
Forced : Нет
DURATION : 01:48:20.036000000
NUMBER_OF_FRAMES : 155845
NUMBER_OF_BYTES : 4381175589
_STATISTICS_WRITING_APP : mkvmerge v7.2.0 ('On Every Street') 32bit built on Sep 13 2014 15:42:11
_STATISTICS_WRITING_DATE_UTC : 2014-10-22 19:04:57
_STATISTICS_TAGS : BPS DURATION NUMBER_OF_FRAMES NUMBER_OF_BYTES

Аудио #1
Идентификатор : 2
Формат : AC-3
Формат/Информация : Audio Coding 3
Расширение режима : CM (complete main)
Параметр Endianness формата : Big
Идентификатор кодека : A_AC3
Продолжительность : 1 ч. 48 м.
Вид битрейта : Постоянный
Битрейт : 320 Кбит/сек
Каналы : 2 канала
Расположение каналов : Front: L R
Частота : 48,0 КГц
Битовая глубина : 16 бит
Метод сжатия : С потерями
Размер потока : 248 Мбайт (3%)
Заголовок : Многоголосый закадровый R2
Язык : Russian
Default : Да
Forced : Нет

Аудио #2
Идентификатор : 3
Формат : AC-3
Формат/Информация : Audio Coding 3
Расширение режима : CM (complete main)
Параметр Endianness формата : Big
Идентификатор кодека : A_AC3
Продолжительность : 1 ч. 48 м.
Вид битрейта : Постоянный
Битрейт : 640 Кбит/сек
Каналы : 6 каналов
Расположение каналов : Front: L C R, Side: L R, LFE
Частота : 48,0 КГц
Битовая глубина : 16 бит
Метод сжатия : С потерями
Размер потока : 496 Мбайт (7%)
Заголовок : Одноголосый закадровый А.Михалёв
Язык : Russian
Default : Нет
Forced : Нет

Аудио #3
Идентификатор : 4
Формат : AC-3
Формат/Информация : Audio Coding 3
Расширение режима : CM (complete main)
Параметр Endianness формата : Big
Идентификатор кодека : A_AC3
Продолжительность : 1 ч. 48 м.
Вид битрейта : Постоянный
Битрейт : 640 Кбит/сек
Каналы : 6 каналов
Расположение каналов : Front: L C R, Side: L R, LFE
Частота : 48,0 КГц
Битовая глубина : 16 бит
Метод сжатия : С потерями
Размер потока : 496 Мбайт (7%)
Заголовок : Одноголосый закадровый В.Горчаков
Язык : Russian
Default : Нет
Forced : Нет

Аудио #4
Идентификатор : 5
Формат : AC-3
Формат/Информация : Audio Coding 3
Расширение режима : CM (complete main)
Параметр Endianness формата : Big
Идентификатор кодека : A_AC3
Продолжительность : 1 ч. 48 м.
Вид битрейта : Постоянный
Битрейт : 640 Кбит/сек
Каналы : 6 каналов
Расположение каналов : Front: L C R, Side: L R, LFE
Частота : 48,0 КГц
Битовая глубина : 16 бит
Метод сжатия : С потерями
Размер потока : 496 Мбайт (7%)
Заголовок : Одноголосый закадровый Л.Володарский
Язык : Russian
Default : Нет
Forced : Нет

Аудио #5
Идентификатор : 6
Формат : AC-3
Формат/Информация : Audio Coding 3
Расширение режима : CM (complete main)
Параметр Endianness формата : Big
Идентификатор кодека : A_AC3
Продолжительность : 1 ч. 48 м.
Вид битрейта : Постоянный
Битрейт : 640 Кбит/сек
Каналы : 6 каналов
Расположение каналов : Front: L C R, Side: L R, LFE
Частота : 48,0 КГц
Битовая глубина : 16 бит
Метод сжатия : С потерями
Размер потока : 496 Мбайт (7%)
Заголовок : Одноголосый закадровый Б.Федоров
Язык : Russian
Default : Нет
Forced : Нет

Аудио #6
Идентификатор : 7
Формат : AC-3
Формат/Информация : Audio Coding 3
Расширение режима : CM (complete main)
Параметр Endianness формата : Big
Идентификатор кодека : A_AC3
Продолжительность : 1 ч. 48 м.
Вид битрейта : Постоянный
Битрейт : 384 Кбит/сек
Каналы : 6 каналов
Расположение каналов : Front: L C R, Side: L R, LFE
Частота : 48,0 КГц
Битовая глубина : 16 бит
Метод сжатия : С потерями
Размер потока : 298 Мбайт (4%)
Заголовок : Одноголосый закадровый М.Иванов
Язык : Russian
Default : Нет
Forced : Нет

Аудио #7
Идентификатор : 8
Формат : AC-3
Формат/Информация : Audio Coding 3
Расширение режима : CM (complete main)
Параметр Endianness формата : Big
Идентификатор кодека : A_AC3
Продолжительность : 1 ч. 48 м.
Вид битрейта : Постоянный
Битрейт : 192 Кбит/сек
Каналы : 2 канала
Расположение каналов : Front: L R
Частота : 48,0 КГц
Битовая глубина : 16 бит
Метод сжатия : С потерями
Размер потока : 149 Мбайт (2%)
Заголовок : Многоголосый закадровый 1+1
Язык : Ukrainian
Default : Нет
Forced : Нет

Аудио #8
Идентификатор : 9
Формат : AC-3
Формат/Информация : Audio Coding 3
Расширение режима : CM (complete main)
Параметр Endianness формата : Big
Идентификатор кодека : A_AC3
Продолжительность : 1 ч. 48 м.
Вид битрейта : Постоянный
Битрейт : 640 Кбит/сек
Каналы : 6 каналов
Расположение каналов : Front: L C R, Side: L R, LFE
Частота : 48,0 КГц
Битовая глубина : 16 бит
Метод сжатия : С потерями
Размер потока : 496 Мбайт (7%)
Заголовок : Оригинальный
Язык : English
Default : Нет
Forced : Нет

Текст #1
Идентификатор : 10
Формат : UTF-8
Идентификатор кодека : S_TEXT/UTF8
Идентификатор кодека/Информация : UTF-8 Plain Text
Заголовок : Русские
Язык : Russian
Default : Нет
Forced : Нет

Текст #2
Идентификатор : 11
Формат : UTF-8
Идентификатор кодека : S_TEXT/UTF8
Идентификатор кодека/Информация : UTF-8 Plain Text
Заголовок : Русские (форсированные)
Язык : Russian
Default : Нет
Forced : Нет

Текст #3
Идентификатор : 12
Формат : UTF-8
Идентификатор кодека : S_TEXT/UTF8
Идентификатор кодека/Информация : UTF-8 Plain Text
Заголовок : English
Язык : English
Default : Нет
Forced : Нет


Правила, инструкции, FAQ!!!
Торрент  Добавлен [26 окт 2014, 08:34] Скачать торрент Магнет ссылка
Скачать торрент
54 КБ

Статус
Проверен 
 
Размер  21.12 ГБ
Приватный: Нет (DHT включён)
.torrent скачан  48
Как залить торрент? | Как скачать Torrent? | Как смотреть и слушать онлайн?  
Гость
 



Вернуться в Трилогии

Кто сейчас на конференции

Сейчас этот форум просматривают: нет зарегистрированных пользователей и гости: 0