Охота за сокровищами Ганнибала / Löwenzahn – Das Kinoabenteuer [2011, DVB]


Статистика раздачи
Размер: 1.16 ГБ | Добавлен: 07 ноя 2012, 16:57 | Скачали: 2
Сидеров: 22  [0 байт/сек]    Личеров: 1  [0 байт/сек]

Сообщение Гость » 07 ноя 2012, 16:57

Описание: Лейла и представить себе не могла, что каникулы у тети Язмин в Берштадте могут быть такими незабываемыми. Не успела она выйти из машины, как оказалась в самом центре захватывающих приключений, ведь Фритц Фукс, приятель тети Язмин, знает секретное место, где спрятаны легендарные сокровища…

Страна: Германия
Студия: STUDIO.TV.FILM, ZDF
Жанр: Приключения, детский
Год выпуска: 2011
Продолжительность: 01:28:41

Перевод: Профессиональный (двухголосый закадровый) Нью Медиа
Cубтитры: нет
Режиссер: Петер Тимм / Peter Timm

В фильме снимались: Гвидо Хаммесфар, Доминик Хорвиц, Руби_О. Фи, Петра Шмидт-Шаллер, Хельмут Краус, Санам Афрасте, Сабина Орлеанс, Юлиан Зенгельманн, Джоэл Басман, Аарон Денкель, Юлиус Фельсберг, Иван Вргоч

Качество видео: DVB
Формат видео: MPEG-TS

Видео: MPEG4 Video (H264) 720x576 Bit rate 1652Kbps Bits/(Pixel*Frame) 0.159
Аудио: MP2 48000Hz 2ch 128 Kbps


General
ID : A
Complete name : F:\SatRip\_Заготовка\Охота за сокровищами Ганнибала\Охота за сокровищами Ганнибала.ts
Format : MPEG-TS
File size : 1.16 GiB
Duration : 1h 28mn
Overall bit rate : 1 874 Kbps

Video
ID : 1401 (0x579)
Menu ID : 401 (0x191)
Format : AVC
Format/Info : Advanced Video Codec
Format profile : Main@L3.0
Format settings, CABAC : Yes
Format settings, ReFrames : 3 frames
Format settings, GOP : M=4, N=24
Duration : 1h 28mn
Bit rate : 1 652 Kbps
Width : 720 pixels
Height : 576 pixels
Display aspect ratio : 4:3
Frame rate : 25.000 fps
Standard : Component
Color space : YUV
Chroma subsampling : 4:2:0
Bit depth : 8 bits
Scan type : Progressive
Bits/(Pixel*Frame) : 0.159
Stream size : 1.02 GiB (88%)
Color primaries : BT.470-6 System B, BT.470-6 System G, BT.601-6 625, BT.1358 625, BT.1700 625 PAL, BT.1700 625 SECAM
Transfer characteristics : BT.470-6 System B, BT.470-6 System G
Matrix coefficients : BT.470-6 System B, BT.470-6 System G, BT.601-6 625, BT.1358 625, BT.1700 625 PAL, BT.1700 625 SECAM, IEC 61966-2-4 601

Audio
ID : 2401 (0x961)
Menu ID : 401 (0x191)
Format : MPEG Audio
Format version : Version 1
Format profile : Layer 2
Duration : 1h 28mn
Bit rate mode : Constant
Bit rate : 128 Kbps
Channel(s) : 2 channels
Sampling rate : 48.0 KHz
Video delay : 45ms
Stream size : 81.2 MiB (7%)
Language : Russian








Правила, инструкции, FAQ!!!
Торрент  Добавлен [07 ноя 2012, 16:57] Скачать торрент Магнет ссылка
Скачать торрент
12.18 КБ

Статус
Проверен 
 
Размер  1.16 ГБ
Приватный: Нет (DHT включён)
.torrent скачан  2
Как залить торрент? | Как скачать Torrent? | Как смотреть и слушать онлайн?  
Гость
 



Вернуться в Приключения

Кто сейчас на конференции

Сейчас этот форум просматривают: нет зарегистрированных пользователей и гости: 0