Обитель Зла: Возмездие / Resident Evil: Retribution (2012) BDRip 1080p HEVC | 3D-Video | OU | D


Статистика раздачи
Размер: 6.98 ГБ | Добавлен: 15 фев 2017, 20:57 | Скачали: 12
Сидеров: 12  [0 байт/сек]    Личеров: 25  [0 байт/сек]

Сообщение Гость » 15 фев 2017, 20:57

Название: Обитель Зла: Возмездие
Оригинальное название: Resident Evil: Retribution
Год выхода: 2012
Жанр: фантастика, боевик, триллер
Режиссер: Пол У. С. Андерсон
В ролях: Милла Йовович, Сиенна Гиллори, Мишель Родригес, Ариана Энджинир, Ли Бинбин, Борис Коджо, Йохан Урб, Робин Касянов, Кевин Дюран, Офилио Портильо

О фильме:
Смертельный T-вирус, созданный в лабораториях корпорации «Амбрелла», продолжает захватывать Землю, превращая мировое население в легионы пожирающих плоть зомби. Последняя надежда человечества Элис внедряется в самое сердце самой тайной исследовательской базы корпорации и узнает еще больше о собственном таинственном прошлом. Не имея путей к отступлению, Элис продолжает искать виновных в глобальной катастрофе. Вызов, который она принимала в Токио, Нью-Йорке, Вашингтоне и даже в Москве, приводит ее в итоге к взрывающему сознание откровению, которое заставит ее переосмыслить все, что она полагала правдой. С помощью новых союзников и старых друзей, Элис будет сражаться за выживание и убегать из враждебного мира. Отсчет времени начат…


Страна: Германия, Канада, США, Франция, Великобритания
Студия: Constantin Film International, Davis Films, Impact Pictures, Capcom Company
Продолжительность: 01:35:37
Перевод: Дубляж (Blu-ray EUR)


Кодек: H.265/HEVC
Качество: BDRip 1080p HEVC
Видео: 1920x2160 px, ~9597 kb/s (avg), 23,976 fps
Звук: Русский AC3, 640 kbps, 5.1 ch, 16 bits
3D: Левый ракурс верхний

Семпл


General
Unique ID : 253162673322382568357599480493363482169 (0xBE755B7A53027366927E7B0BD028CE39)
Complete name : Resident Evil 5 Retribution (2012) 1080p HEVC 3D-ab.mkv
Format : Matroska
Format version : Version 3 / Version 2
File size : 6.98 GiB
Duration : 1 h 35 min
Overall bit rate : 10.4 Mb/s
Movie name : Resident Evil 5 Retribution (2012) 3D Full-T&B (x265)
Encoded date : UTC 2017-02-15 04:33:35
Writing application : mkvmerge v9.8.0 ('Kuglblids') 64bit
Writing library : libebml v1.3.4 + libmatroska v1.4.5

Video
ID : 1
Format : HEVC
Format/Info : High Efficiency Video Coding
Format profile : Main 10@L5@High
MultiView_Count : 2
MultiView_Layout : Top-Bottom (left eye first)
Codec ID : V_MPEGH/ISO/HEVC
Duration : 1 h 35 min
Bit rate : 9 597 kb/s
Width : 1 920 pixels
Height : 2 160 pixels
Display aspect ratio : 0.889
Original display aspect ratio : 16:9
Frame rate mode : Constant
Frame rate : 23.976 (24000/1001) FPS
Color space : YUV
Chroma subsampling : 4:2:0
Bit depth : 10 bits
Bits/(Pixel*Frame) : 0.097
Stream size : 6.41 GiB (92%)
Title : 3D Full-T&B (x265)
Writing library : x265 2.2+36-9b975fec584a:[Windows][GCC 6.2.0][64 bit] 10bit
Encoding settings : cpuid=1050111 / frame-threads=3 / numa-pools=8 / wpp / no-pmode / no-pme / no-psnr / no-ssim / log-level=2 / input-csp=1 / input-res=1920x2160 / interlace=0 / total-frames=137568 / level-idc=50 / high-tier=1 / uhd-bd=0 / ref=1 / no-allow-non-conformance / no-repeat-headers / annexb / no-aud / no-hrd / info / hash=0 / no-temporal-layers / open-gop / min-keyint=23 / keyint=250 / bframes=4 / b-adapt=2 / b-pyramid / bframe-bias=0 / rc-lookahead=40 / lookahead-slices=2 / scenecut=40 / no-intra-refresh / ctu=32 / min-cu-size=8 / no-rect / no-amp / max-tu-size=16 / tu-inter-depth=1 / tu-intra-depth=1 / limit-tu=0 / rdoq-level=2 / dynamic-rd=0.00 / signhide / no-tskip / nr-intra=0 / nr-inter=0 / no-constrained-intra / no-strong-intra-smoothing / max-merge=2 / limit-refs=0 / no-limit-modes / me=3 / subme=7 / merange=25 / temporal-mvp / weightp / weightb / no-analyze-src-pics / no-deblock / no-sao / no-sao-non-deblock / rd=3 / early-skip / no-rskip / fast-intra / no-tskip-fast / no-cu-lossless / no-b-intra / rdpenalty=0 / psy-rd=3.00 / psy-rdoq=5.00 / no-rd-refine / analysis-mode=0 / no-lossless / cbqpoffs=0 / crqpoffs=0 / rc=crf / crf=24.0 / qcomp=0.80 / qpstep=1 / stats-write=0 / stats-read=0 / vbv-maxrate=100000 / vbv-bufsize=100000 / vbv-init=0.9 / crf-max=0.0 / crf-min=0.0 / ipratio=1.10 / pbratio=1.10 / aq-mode=3 / aq-strength=0.60 / no-cutree / zone-count=0 / no-strict-cbr / qg-size=16 / no-rc-grain / qpmax=51 / qpmin=0 / sar=16 / overscan=0 / videoformat=5 / range=0 / colorprim=1 / transfer=2 / colormatrix=2 / chromaloc=0 / display-window=0 / max-cll=0,0 / min-luma=0 / max-luma=1023 / log2-max-poc-lsb=8 / vui-timing-info / vui-hrd-info / slices=1 / opt-qp-pps / opt-ref-list-length-pps / no-multi-pass-opt-rps / scenecut-bias=0.05 / no-opt-cu-delta-qp / no-aq-motion / no-hdr
Language : Russian
Default : Yes
Forced : No
Color range : Limited
Color primaries : BT.709

Audio
ID : 2
Format : AC-3
Format/Info : Audio Coding 3
Mode extension : CM (complete main)
Format settings, Endianness : Big
Codec ID : A_AC3
Duration : 1 h 35 min
Bit rate mode : Constant
Bit rate : 640 kb/s
Channel(s) : 6 channels
Channel positions : Front: L C R, Side: L R, LFE
Sampling rate : 48.0 kHz
Frame rate : 31.250 FPS (1536 spf)
Bit depth : 16 bits
Compression mode : Lossy
Stream size : 438 MiB (6%)
Title : Russian (AC3 5.1 48KHz)
Language : Russian
Default : Yes
Forced : No

Menu
00:00:00.000 : :1 - 0:00:00
00:07:43.045 : :2 - 0:07:43
00:14:32.538 : :3 - 0:14:33
00:21:38.839 : :4 - 0:21:39
00:25:39.329 : :5 - 0:25:39
00:29:31.186 : :6 - 0:29:31
00:34:16.846 : :7 - 0:34:17
00:39:14.769 : :8 - 0:39:15
00:45:29.435 : :9 - 0:45:29
00:50:27.441 : :10 - 0:50:27
00:54:42.070 : :11 - 0:54:42
01:00:14.861 : :12 - 1:00:15
01:05:38.476 : :13 - 1:05:38
01:11:22.903 : :14 - 1:11:23
01:16:15.570 : :15 - 1:16:16
01:21:29.384 : :16 - 1:21:29

x265 [info]: HEVC encoder version 2.2+36-9b975fec584a
x265 [info]: build info [Windows][GCC 6.2.0][64 bit] 10bit
x265 [info]: using cpu capabilities: MMX2 SSE2Fast SSSE3 SSE4.2 AVX
x265 [info]: Main 10 profile, Level-5 (High tier)
x265 [info]: Thread pool created using 8 threads
x265 [info]: Slices : 1
x265 [info]: frame threads / pool features : 3 / wpp(68 rows)
x265 [info]: Coding QT: max CU size, min CU size : 32 / 8
x265 [info]: Residual QT: max TU size, max depth : 16 / 1 inter / 1 intra
x265 [info]: ME / range / subpel / merge : star / 25 / 7 / 2
x265 [info]: Keyframe min / max / scenecut / bias: 23 / 250 / 40 / 5.00
x265 [info]: Lookahead / bframes / badapt : 40 / 4 / 2
x265 [info]: b-pyramid / weightp / weightb : 1 / 1 / 1
x265 [info]: References / ref-limit cu / depth : 1 / off / off
x265 [info]: AQ: mode / str / qg-size / cu-tree : 3 / 0.6 / 16 / 0
x265 [info]: Rate Control / qCompress : CRF-24.0 / 0.80
x265 [info]: VBV/HRD buffer / max-rate / init : 100000 / 100000 / 0.900
x265 [info]: tools: rd=3 psy-rd=3.00 rdoq=2 psy-rdoq=5.00 early-skip signhide
x265 [info]: tools: tmvp fast-intra lslices=2
x265 [info]: frame I: 2001, Avg QP:22.08 kb/s: 23250.95
x265 [info]: frame P: 34278, Avg QP:22.75 kb/s: 14463.61
x265 [info]: frame B: 101289, Avg QP:23.60 kb/s: 7958.51
x265 [info]: Weighted P-Frames: Y:5.3% UV:3.5%
x265 [info]: Weighted B-Frames: Y:5.6% UV:3.4%
x265 [info]: consecutive B-frames: 9.9% 4.5% 8.6% 50.2% 26.7%
encoded 137568 frames in 61744.52s (2.23 fps), 9801.83 kb/s, Avg QP:23.37


Правила, инструкции, FAQ!!!
Торрент  Добавлен [15 фев 2017, 20:57] Скачать торрент Магнет ссылка
Скачать торрент
35.82 КБ

Статус
Проверен 
 
Размер  6.98 ГБ
Приватный: Нет (DHT включён)
.torrent скачан  12
Как залить торрент? | Как скачать Torrent? | Как смотреть и слушать онлайн?  
Гость
 



Вернуться в HD-Video в 3D

Кто сейчас на конференции

Сейчас этот форум просматривают: нет зарегистрированных пользователей и гости: 3