Новый Человек-паук / The Amazing Spider-Man (2012) BDRip [1080p] [Вертикальная анаморфная стереопара 3D]

Статистика раздачи
Размер: 8.01 ГБ | Добавлен: 28 сен 2013, 23:19 | Скачали: 1
Сидеров: 12  [0 байт/сек]    Личеров: 3  [0 байт/сек]

Сообщение Admin » 28 сен 2013, 23:19

Новый Человек-паук / The Amazing Spider-Man (2012) BDRip


«Новый герой, новая история, новая любовь»


Русское название: Новый Человек-паук
Оригинальное название: The Amazing Spider-Man
Год выпуска: 2012
Жанр: Фантастика, Боевик, Приключения

Описание фильма:
В детстве Питер Паркер был оставлен своими родителями, и поэтому воспитывался дядей и тётей. Шли годы, Питер был обычным примерным школьником, подвергался нападкам хулиганов и был влюблён в свою одноклассницу Гвен Стэйси, которая сама втайне отвечала ему взаимностью. Но после укуса генетически изменённого паука, Питер получает невероятные сверхспособности и его жизнь меняется навсегда.

Однако его не перестаёт мучить вопрос о том, что случилось с его родителями. Он знакомится с давним другом и партнёром своего отца — генетиком Куртом Коннорсом, который вместе с отцом Питера разрабатывал формулу регенерации. Питер помогает её закончить, а Коннорс, всю жизнь мечтавший восстановить свою правую руку, вводит формулу себе и становится Ящером. Осознавая свою вину, Питер начинает новую жизнь в образе таинственного супергероя Человека-паука и становится грозой преступников, одновременно пытаясь найти способ остановить Коннорса.

Режиссер: Марк Уэбб
Актеры: Эндрю Гарфилд, Эмма Стоун, Рис Иванс, Дэнис Лири, Мартин Шин, Салли Филд, Эмбет Дэвидц, Кэмпбелл Скотт, Ирфан Кхан, Крис Зилка

Продолжительность: 02:16:17
Перевод: Дублированный



Дата мировой премьеры: 13 июня 2012
Дата российской премьеры: 5 июля 2012, «WDSSPR»
Дата выхода DVD релиза: 30 октября 2012, «Columbia/Sony»
Дата выхода BLU-RAY релиза: 30 октября 2012, «Columbia/Sony»
Видеокодек: MPEG-4 AVC/H.264
Битрейт видео: ~6322 Кбит/сек
Размер кадра: 1920x1080
Качество видео: BDRip
Аудио №1: AC3 5.1, 640 kbps - Русский
Аудио №2: AC3 5.1, 640 kbps - Украинский
Аудио №3: AC3 5.1, 640 kbps - Английский
Сэмпл: Ссылка
Общее
Уникальный идентификатор : 202498831757373730989285974657339579814 (0x9857DB3B9F00E57AB16E088968115DA6)
Полное имя : H:\my films\AMZN_SPDRMN_3D.mkv
Формат : Matroska
Версия формата : Version 2
Размер файла : 8,01 Гбайт
Продолжительность : 2 ч. 16 м.
Общий поток : 8409 Кбит/сек
Название фильма : AMZN_SPDRMN_3D_crop_over/under
Дата кодирования : UTC 2012-12-05 16:29:26
Программа кодирования : mkvmerge v5.8.0 ('No Sleep / Pillow') built on Sep 2 2012 15:37:04
Библиотека кодирования : libebml v1.2.3 + libmatroska v1.3.0

Видео
Идентификатор : 1
Формат : AVC
Формат/Информация : Advanced Video Codec
Профиль формата :
Параметр CABAC формата : Да
Параметр ReFrames формата : 4 кадра
Режим смешивания : Header stripping
Идентификатор кодека : V_MPEG4/ISO/AVC
Продолжительность : 2 ч. 16 м.
Битрейт : 6322 Кбит/сек
Ширина : 1920 пикселей
Высота : 1080 пикселей
Соотношение сторон : 16:9
Режим частоты кадров : Постоянный
Частота кадров : 23,976 кадра/сек
Цветовое пространство : YUV
Субдискретизация насыщенности : 4:2:0
Битовая глубина : 8 бит
Тип развёртки : Прогрессивная
Бит/(Пиксели*Кадры) : 0.127
Размер потока : 6,02 Гбайт (75%)
Заголовок : rip by I/N
Библиотека кодирования : x264 core 128 r2216M 198a7ea
Настройки программы : cabac=1 / ref=4 / deblock=1:-3:-3 / analyse=0x3:0x133 / me=tesa / subme=10 / psy=1 / psy_rd=1.00:0.20 / mixed_ref=1 / me_range=16 / chroma_me=1 / trellis=2 / 8x8dct=1 / cqm=1 / deadzone=21,11 / fast_pskip=1 / chroma_qp_offset=-3 / threads=4 / lookahead_threads=1 / sliced_threads=0 / nr=0 / decimate=1 / interlaced=0 / bluray_compat=0 / constrained_intra=0 / bframes=4 / b_pyramid=2 / b_adapt=2 / b_bias=0 / direct=2 / weightb=1 / open_gop=0 / weightp=2 / keyint=230 / keyint_min=23 / scenecut=60 / intra_refresh=0 / rc_lookahead=60 / rc=crf / mbtree=1 / crf=16.0 / qcomp=0.60 / qpmin=10 / qpmax=60 / qpstep=6 / vbv_maxrate=40000 / vbv_bufsize=30000 / crf_max=30.0 / nal_hrd=none / ip_ratio=1.40 / aq=1:0.70
Язык : English
Default : Да
Forced : Нет

Аудио #1
Идентификатор : 2
Формат : AC-3
Формат/Информация : Audio Coding 3
Расширение режима : CM (complete main)
Параметр Endianness формата : Big
Режим смешивания : Header stripping
Идентификатор кодека : A_AC3
Продолжительность : 2 ч. 16 м.
Вид битрейта : Постоянный
Битрейт : 640 Кбит/сек
Каналы : 6 каналов
Расположение каналов : Front: L C R, Side: L R, LFE
Частота : 48,0 КГц
Битовая глубина : 16 бит
Метод сжатия : С потерями
Размер потока : 624 Мбайт (8%)
Язык : Russian
Default : Да
Forced : Нет

Аудио #2
Идентификатор : 3
Формат : AC-3
Формат/Информация : Audio Coding 3
Расширение режима : CM (complete main)
Параметр Endianness формата : Big
Режим смешивания : Header stripping
Идентификатор кодека : A_AC3
Продолжительность : 2 ч. 16 м.
Вид битрейта : Постоянный
Битрейт : 640 Кбит/сек
Каналы : 6 каналов
Расположение каналов : Front: L C R, Side: L R, LFE
Частота : 48,0 КГц
Битовая глубина : 16 бит
Метод сжатия : С потерями
Размер потока : 624 Мбайт (8%)
Язык : Ukrainian
Default : Нет
Forced : Нет

Аудио #3
Идентификатор : 4
Формат : AC-3
Формат/Информация : Audio Coding 3
Расширение режима : CM (complete main)
Параметр Endianness формата : Big
Режим смешивания : Header stripping
Идентификатор кодека : A_AC3
Продолжительность : 2 ч. 16 м.
Вид битрейта : Постоянный
Битрейт : 640 Кбит/сек
Каналы : 6 каналов
Расположение каналов : Front: L C R, Side: L R, LFE
Частота : 48,0 КГц
Битовая глубина : 16 бит
Метод сжатия : С потерями
Размер потока : 624 Мбайт (8%)
Язык : English
Default : Нет
Forced : Нет
Скриншоты:

Справа и слева у видеоряда обрезано по 248р, что дает возможность просмотра на полный экран (без черных полос) на телевизорах с соотношением сторон 16:9 без изменения пропорций. На мой взгляд плюсы данных рипов- это более глубокое восприятие 3D-эффектов (конечно там где они есть) К минусам отнесу- вынужденное обрезание кадра по бокам. Так-что господа- выбор за вами! Всем приятного просмотра!
Проверено на встроенном плейере ТВ Samsung-D6500


Время раздачи: 24/7 - круглосуточно до 15 скачавших
Правила, инструкции, FAQ!!!
Торрент  Добавлен [28 сен 2013, 23:19] Скачать торрент Магнет ссылка
Скачать торрент
[ Размер 20.96 КБ / Просмотров 16 ]

Статус
Проверен 
 
Размер  8.01 ГБ
Приватный: Нет (DHT включён)
.torrent скачан  1
Как залить торрент? | Как скачать Torrent? | Как смотреть и слушать онлайн?  
Admin
 


  • Похожие торренты
    Ответы
    Просмотры
    Последнее сообщение

Вернуться в HD-Video в 3D

Кто сейчас на конференции

Сейчас этот форум просматривают: нет зарегистрированных пользователей и гости: 1